#TITLE:PECKERCORE;
#SUBTITLE:;
#ARTIST:callasoiled;
#TITLETRANSLIT:;
#SUBTITLETRANSLIT:;
#ARTISTTRANSLIT:;
#GENRE:;
#CREDIT:;
#BANNER:PECKERCORE.png;
#BACKGROUND:PECKERCORE-bg.png;
#LYRICSPATH:;
#CDTITLE:;
#MUSIC:PECKERCORE.ogg;
#OFFSET:-0.003000;
#SAMPLESTART:63.088001;
#SAMPLELENGTH:15.086000;
#SELECTABLE:YES;
#BPMS:0.000000=175.000000
;
#STOPS:
;
#BGCHANGES:;
#KEYSOUNDS:;
#ATTACKS:;

//---------------dance-single - mikeswrld----------------
#NOTES:
     dance-single:
     mikeswrld:
     Hard:
     14:
     0.658126,0.828576,0.182287,0.679432,0.451574,556.000000,534.000000,22.000000,82.000000,0.000000,0.000000,0.658126,0.828576,0.182287,0.679432,0.451574,556.000000,534.000000,22.000000,82.000000,0.000000,0.000000:
// measure 0
0000
0000
0000
0000
,  // measure 1
0000
0000
0000
0000
,  // measure 2
0000
0000
0000
0000
,  // measure 3
0000
0000
0000
0000
,  // measure 4
0001
0000
0100
0000
1000
0000
0100
0001
1000
0000
0000
0000
1000
0000
0001
0000
,  // measure 5
1000
0000
0100
0000
0001
0000
0100
1000
0001
0000
0000
0000
0001
0000
1000
0000
,  // measure 6
0001
0000
0010
0000
1000
0000
0010
0001
1000
0000
0000
0000
1000
0000
0001
0000
,  // measure 7
1000
0000
0010
0000
0001
0000
0010
1000
0001
0000
0100
0000
0010
0000
1000
0000
,  // measure 8
0010
0100
0010
0000
1000
0000
0001
0100
,  // measure 9
0010
1000
0001
0000
0010
0000
0001
0010
,  // measure 10
0100
1000
0001
0000
0100
0000
0001
0100
,  // measure 11
0010
1000
0100
0000
0010
0000
0010
0100
,  // measure 12
1000
0100
0010
0001
1000
0001
0010
0100
,  // measure 13
1000
0000
0100
0000
0010
0000
0100
0000
0010
0100
0010
0100
0010
0100
0010
0100
,  // measure 14
0010
2000
3000
0200
0300
0002
0003
0020
,  // measure 15
0030
2000
3000
0200
0300
0010
0100
0000
,  // measure 16
2000
0000
3020
0000
0100
0130
0010
2000
,  // measure 17
0000
0000
3001
0000
2000
0000
0000
0000
3100
0000
1000
0000
0100
0010
0002
0000
,  // measure 18
0000
1003
0002
0000
0013
0001
0100
0001
,  // measure 19
1000
0000
0100
0010
0100
0000
0100
0000
1000
0000
0100
0000
0010
0000
0000
0000
,  // measure 20
0002
0000
2003
0000
0010
3010
1000
0002
,  // measure 21
0000
0000
0013
0000
0002
0000
0000
0000
0013
0000
0100
0000
1000
0100
2000
0000
,  // measure 22
0000
3010
2000
0000
3010
1000
0100
0010
,  // measure 23
0001
0000
0010
0100
0010
0000
0100
0000
1000
0000
1000
0000
1000
0000
1000
0000
,  // measure 24
0002
0000
0203
0000
0001
0301
0010
0200
,  // measure 25
0000
0000
1300
0000
0200
0000
0000
0000
0310
0000
0100
0000
1000
0010
0200
0000
,  // measure 26
0000
1300
0200
0000
0310
1000
0010
0100
,  // measure 27
0001
0000
0010
0100
0010
0000
0001
0000
1000
0000
0010
0000
2000
0000
0000
0000
,  // measure 28
3002
0000
0023
0000
0100
0130
1000
0020
,  // measure 29
0000
0000
0031
0000
0020
0000
0000
0000
0130
0000
0001
0000
0001
0010
0100
0010
,  // measure 30
0100
1000
0001
0100
0010
0100
0001
1000
,  // measure 31
0100
0000
0010
0100
0010
0000
0001
0100
0010
0100
0001
0000
2000
0000
0000
0000
,  // measure 32
3001
0000
0001
0000
0010
0000
0010
0100
,  // measure 33
0010
0000
0100
0000
1000
0100
0001
0100
,  // measure 34
1000
0000
1000
0000
0010
0000
0010
0100
,  // measure 35
0010
0000
1000
0000
0001
0100
1000
0100
,  // measure 36
0001
0000
0001
0000
1000
0000
1000
0010
,  // measure 37
1000
0000
0001
0000
0001
0010
1000
0010
,  // measure 38
0001
0000
1000
0000
1000
0010
0001
0010
,  // measure 39
1000
0000
0100
0010
0100
0000
1000
0010
0100
0010
1000
0000
0010
0100
0010
0100
,  // measure 40
0001
0001
1000
1000
0001
0100
1000
0100
,  // measure 41
0001
0010
0100
1000
1000
0100
0001
0100
,  // measure 42
1000
0100
1000
0010
1000
0010
0001
0010
,  // measure 43
1000
0010
0100
0010
0001
0010
1000
0010
,  // measure 44
0100
0001
1000
0001
0010
0100
1000
0100
,  // measure 45
0010
0001
0010
0001
0010
0001
0010
0001
0100
0001
0100
0001
0100
0001
0100
0001
,  // measure 46
2000
0100
0100
0100
,  // measure 47
0100
0000
0000
0100
0000
0000
0100
0000
3100
0000
0000
0000
1000
0000
1000
0010
,  // measure 48
0200
0000
0000
0000
0310
0000
0000
0010
0000
0000
1010
0000
0000
1000
0000
0000
,  // measure 49
1100
0000
0000
0100
0000
0000
0110
0000
0000
0010
0000
0000
0110
0000
0100
0000
,  // measure 50
2000
0000
0000
0000
3100
0000
0000
0100
0000
0000
0110
0000
0000
0010
0000
0000
,  // measure 51
0011
0000
0000
0001
0000
0000
1001
0000
0000
1000
0001
0100
0010
0000
0100
0000
,  // measure 52
0020
0000
0000
0000
1030
0000
0000
1000
0000
0000
0110
0000
0000
0001
0000
0000
,  // measure 53
0110
0000
0000
1000
0000
0000
0110
0000
0000
0100
0000
0000
0110
0000
1000
0000
,  // measure 54
0002
0000
0000
0000
1003
0000
0000
0010
0000
0000
1001
0000
0000
0100
0000
0000
,  // measure 55
1001
0000
0000
0010
0100
0001
1000
0000
0000
0010
0100
0010
0200
0000
0000
0000
,  // measure 56
0301
0000
0000
0000
0010
0000
0100
0010
0100
0000
1000
0000
0100
0000
1000
0100
,  // measure 57
2000
0000
0000
3200
0000
0000
0302
0000
0203
0000
0000
2300
0000
0000
3020
0000
,  // measure 58
0230
0000
0000
0000
0310
0000
0100
0010
0100
0000
0010
0000
0100
0000
0001
0100
,  // measure 59
0002
0000
0000
0203
0000
0000
2300
0000
0000
3100
0010
0100
0001
0000
0010
0000
,  // measure 60
0200
0000
0000
0000
1300
0000
1000
0100
1000
0000
0010
0000
1000
0000
0001
0010
,  // measure 61
0200
0000
0000
2300
0000
0000
3020
0000
0032
0000
0000
0023
0000
0000
2030
0000
,  // measure 62
3200
0000
0000
0000
0310
0000
0010
0001
0010
0000
0001
0000
0001
0000
0010
0100
,  // measure 63
1000
0100
0000
1000
0020
0000
2030
0000
,  // measure 64
3200
0000
0000
0000
0320
0000
0000
0000
0031
0000
0000
1000
0000
1000
0010
0000
,  // measure 65
0000
0010
0000
0010
0200
0000
0000
0000
0310
0100
0000
0020
0000
0000
0230
0000
,  // measure 66
0302
0000
0000
0000
2003
0000
0000
0000
3010
0000
0000
1000
0000
1000
0001
0000
,  // measure 67
0000
0001
0000
0010
0002
0000
0000
0000
0013
0001
0000
0020
0000
0000
0230
0000
,  // measure 68
2300
0000
0000
0000
3002
0000
0000
0000
0013
0000
0000
0001
0000
0001
1000
0000
,  // measure 69
0000
1000
0000
1000
0020
0000
0000
0000
0130
0010
0000
2000
0000
0000
3200
0000
,  // measure 70
0320
0000
0000
0000
0032
0000
0000
0000
0103
0000
0000
0010
0000
0000
1000
0000
,  // measure 71
0000
0001
0000
0100
0010
0000
1000
0010
0100
0010
1000
0000
0020
0000
0000
0000
,  // measure 72
0230
0000
0000
0000
0301
0000
0000
0000
0001
0000
0000
0011
0000
0000
1000
0000
,  // measure 73
0000
1010
0000
0000
0120
0000
0000
0000
0130
0010
0000
1000
0000
0000
0100
0000
,  // measure 74
0020
0000
0000
0000
0031
0000
0000
0000
1000
0000
0000
0110
0000
0000
0001
0000
,  // measure 75
0000
0110
0000
0000
2001
0000
0000
0000
3010
1000
0000
0100
0000
0000
1000
0000
,  // measure 76
0020
0000
0000
0000
0130
0000
0000
0000
0010
0000
0000
1010
0000
0000
1000
0000
,  // measure 77
0000
1100
0000
0000
1020
0000
0000
0000
0130
0010
0000
0100
0000
0000
0010
0000
,  // measure 78
2000
0000
0000
0000
3002
0000
0000
0000
0013
0001
0000
0000
0010
0000
0000
0000
,  // measure 79
0100
0000
0010
0100
1000
0000
0010
0100
0010
0100
0010
0000
0100
0001
0100
0001
,  // measure 80
1000
0000
0000
0000
;

//---------------dance-single - mikeswrld----------------
#NOTES:
     dance-single:
     mikeswrld:
     Challenge:
     17:
     0.885393,0.939605,0.000000,0.389431,0.903148,748.000000,748.000000,0.000000,47.000000,0.000000,0.000000,0.885393,0.939605,0.000000,0.389431,0.903148,748.000000,748.000000,0.000000,47.000000,0.000000,0.000000:
0000
0000
0000
0000
,
0000
0000
0000
0000
,
0000
0000
0000
0000
,
0000
0000
0000
0000
,
0001
0000
1000
0100
0010
0000
0100
1000
0010
1000
0100
0000
0010
0000
0100
0000
,
1000
0000
1000
0010
0100
0000
0100
0010
1000
0000
0001
0000
0100
0000
0001
0000
,
1000
0000
0001
0010
0100
0000
0010
0001
0100
0001
0010
0000
0100
0000
1000
0000
,
0001
0000
1000
0100
1000
0000
1000
0100
0010
0001
1000
0000
0010
0100
0001
1000
,
0001
0010
0001
0010
0001
0000
0001
0010
,
0100
1000
0010
0000
0100
0010
0100
0010
,
0100
0000
0010
1000
0010
0000
0100
0000
0001
0100
0001
0000
0010
0000
0100
0000
,
0010
0100
1000
0100
0010
0100
1000
0100
,
0010
0001
0010
0100
1000
0010
0100
0001
,
0010
0000
0100
0000
1000
0000
1000
0000
0001
1000
0001
1000
0001
1000
0001
1000
,
0001
0200
0300
0200
0300
0200
0300
0200
,
0310
0000
1000
0100
0010
0000
0001
0100
0010
1000
0010
0000
0100
0010
0100
0010
,
2000
0000
0000
0000
3001
0000
0010
0000
0100
0000
0100
0000
0010
0001
0100
0001
,
1000
0000
0010
0000
0100
0000
0001
0000
0100
0000
0010
0000
1000
0100
0020
0000
,
0000
0000
0031
0000
0100
0000
1000
0000
0001
0000
0010
0000
1000
0100
1000
0100
,
0010
0001
0010
0001
0010
0100
1000
0000
0001
0000
1000
0000
0010
0000
0000
0000
,
0200
0000
0000
0000
0310
0000
0000
0000
0100
0000
0100
0000
0001
1000
0010
1000
,
0100
0000
0010
0000
0001
0000
1000
0000
0001
0000
0010
0000
0001
0100
0020
0000
,
0000
1030
0100
0001
1000
0010
0001
0010
,
0100
1000
0100
1000
0100
0010
0001
0000
1000
0000
1000
0000
1000
0000
1000
0000
,
0002
0000
0000
0000
0103
0000
0000
0000
0010
0000
0010
0000
1000
0100
0010
0100
,
1000
0000
0010
0000
0100
0000
0010
0000
1000
0000
0001
0000
0001
1000
0010
0100
,
0010
1000
0100
0010
0200
0000
0000
0000
1300
0000
0010
0000
1000
0000
0010
0100
,
0001
0100
0010
1000
0010
0100
0001
0000
0100
0000
0010
0000
1000
0000
0000
0000
,
0200
0000
0000
0000
0310
0000
0100
0000
1000
0000
1000
0000
0001
0100
0010
0100
,
0001
0000
0010
0000
0100
0000
0010
0000
0001
0000
1000
0000
0100
0010
0100
1000
,
0010
0000
1000
0000
0001
1000
0100
0000
0010
0000
0100
0000
0100
0010
0001
0100
,
0010
0000
0100
0010
1000
0000
0100
1000
0100
1000
0010
0000
0200
0000
0000
0000
,
0301
0010
0100
1000
0001
1000
0100
0010
,
0001
0000
0010
0000
0100
0000
0010
0000
0100
0010
0100
1000
0100
1000
0100
1000
,
0100
0000
0010
0001
0010
0000
0100
1000
0100
0000
1000
0010
1000
0000
0001
0100
,
0001
0000
0010
0000
0100
0000
0010
0000
0001
0010
0001
0010
0100
1000
0100
1000
,
0010
0100
0001
1000
0100
1000
0001
0100
,
0010
0000
1000
0000
0100
0000
0010
0000
0001
0010
0001
0010
0100
0000
0010
0100
,
0010
0000
0001
1000
0001
0000
0100
0010
0100
0000
0001
1000
0001
0000
0010
0100
,
0010
0000
0100
0010
0001
0000
1000
0100
0010
0100
1000
0000
0010
0100
0001
0100
,
0010
0000
1000
0000
0001
0000
1000
0000
0010
0100
0010
0100
0001
0000
0010
0000
,
0100
0000
1000
0000
0001
0000
1000
0010
0100
0001
0100
0001
1000
0000
0100
0000
,
0010
0000
0100
0000
1000
0000
0001
0000
0100
0000
0010
0000
0100
0000
0001
0010
,
0001
0000
0100
0010
0100
0000
0001
1000
0010
0100
0010
0100
0001
0000
0001
0010
,
0100
1000
0001
0010
0100
1000
0100
0010
,
0001
0010
0001
0010
0100
0010
0100
0010
0100
1000
0100
1000
0010
1000
0010
1000
,
0002
1000
1000
1000
,
1003
0000
0000
0100
0000
0000
0001
0000
0010
0000
0000
0000
1000
0000
1000
0010
,
2000
0000
0000
0000
3001
0000
1000
0000
1000
0100
0010
0000
0001
0000
1000
0100
,
0010
0000
0001
0010
0001
0100
0010
0000
0010
0100
0001
1000
0100
0000
0010
0000
,
0200
0000
0000
0000
0310
0000
0001
0010
0100
1000
0001
0000
1000
0000
0001
0010
,
0100
0000
1000
0100
1000
0010
0100
0000
0100
0010
1000
0001
0100
0000
0010
0000
,
2000
0000
0000
0000
3001
0000
1000
0000
1000
0010
0100
0000
0001
0000
1000
0010
,
0100
0000
0001
0100
0001
0010
0100
0000
0010
0001
0100
0001
1000
0000
0000
0000
,
0020
0000
0000
0000
0130
0000
0001
0100
0010
1000
0001
0000
1000
0000
0001
0100
,
0010
0000
1000
0100
0010
0001
0100
0000
0010
0100
0001
1000
0200
0000
0000
0000
,
0310
0000
0010
0000
0001
0000
0001
0010
0100
1000
0010
0100
0001
0000
0010
0001
,
0010
0000
0100
1000
0100
0000
1000
0100
0001
0100
1000
0010
0100
0000
0010
0100
,
0010
0000
1000
0000
1000
0100
0010
0001
0100
0000
0100
0000
0001
0100
1000
0100
,
0001
0000
0010
0001
0100
0001
1000
0100
1000
0010
1000
0001
1000
0000
0010
0000
,
2000
0000
0000
0000
3100
0000
1000
0100
0010
0001
0100
0010
1000
0000
0010
1000
,
0010
0000
0010
0100
0010
0001
0010
0100
0010
1000
0001
0010
0100
0000
0100
0010
,
0100
0000
1000
0000
0100
0000
1000
0010
0100
0001
0010
0100
1000
0100
0001
0100
,
1000
0000
0010
0000
0000
0000
1000
0100
1000
0000
0001
0100
0001
0000
0000
0000
,
0020
0000
0000
0000
0130
0000
1000
0000
0001
0010
0000
1000
0000
0010
0001
0000
,
0000
1000
0000
0010
0200
0000
0301
0000
0100
1000
0000
0200
0000
0000
0301
0000
,
0020
0000
0000
0000
0130
0000
1000
0000
0001
0100
0000
1000
0000
0000
0100
0000
,
0000
0001
0100
0010
2000
0000
3001
0000
0010
0100
2000
0000
3200
0000
0320
0000
,
0032
0000
0000
0000
0103
0000
0001
0000
1000
0100
0000
0001
0000
0000
0100
0000
,
0000
1000
0000
0010
2000
0000
3001
0000
0010
1000
0000
0020
0000
0000
0031
0000
,
0200
0000
0000
0000
0310
0000
0100
0010
1000
0010
0000
0100
0000
0100
0001
0000
,
0000
0010
0000
0100
1000
0000
1000
0100
0001
0100
1000
0000
0002
0000
0000
0000
,
2003
0000
0000
0000
3100
0000
0200
0000
0310
0001
0000
0100
0000
0001
0010
0000
,
0000
0100
0000
1000
0020
0000
0130
0000
0010
1000
0000
0002
0000
0000
2003
0000
,
3002
0000
0000
0000
0103
0000
0002
0000
0013
0100
0000
1000
0000
0100
0010
0000
,
0000
0001
0000
0100
0020
0000
1030
0000
0010
0100
0000
0002
0000
0013
0200
0000
,
2300
0000
0000
0000
3100
0000
1000
0000
0010
0100
0000
0001
0000
0100
0010
0000
,
0000
1000
0000
0100
0020
0000
0130
0000
1000
0001
0000
0100
0000
0010
0100
0000
,
0020
0000
0130
0010
0100
0001
0100
0010
,
1000
0000
0010
1000
0100
0000
0010
0100
0010
0100
0010
0000
0001
0010
0100
2000
,
0002
0000
0000
0000
,
3003
0000
0000
0000
;
