#VERSION:0.83;
#TITLE:P! P!! P!!!;
#SUBTITLE:;
#ARTIST:P Light;
#TITLETRANSLIT:P*Light;
#SUBTITLETRANSLIT:;
#ARTISTTRANSLIT:;
#GENRE:;
#CREDIT:NOWHERE Dance Club;
#MUSIC:P! P!! P!!!.ogg;
#BANNER:P! P!! P!!!.png;
#BACKGROUND:P! P!! P!!!-bg.png;
#CDTITLE: ;
#SAMPLESTART:32.727;
#SAMPLELENGTH:12.702;
#SELECTABLE:YES;
#OFFSET:0.447;
#BPMS:0.000=170.051;
#STOPS:;
#BGCHANGES:;
#FGCHANGES:;

//--------------- dance-single - NOWHERE Dance Club ----------------
#NOTEDATA:;
#STEPSTYPE:dance-single;
#DESCRIPTION:NOWHERE Dance Club;
#DIFFICULTY:Beginner;
#METER:5;
#RADARVALUES:0,0,0,0,0;
#NOTES:
0000
0000
0000
0000
,
0000
0000
0000
0000
,
0000
0000
0000
0000
,
0000
0000
0000
0000
,
0000
0000
1000
0000
,
0001
0100
0010
0000
,
1000
0000
0001
0000
,
0100
0010
1000
0000
,
1000
0000
1000
0000
,
0001
0000
0100
0000
,
0010
0000
1000
0000
,
0001
0000
0010
0000
,
0100
0000
0010
0001
,
1000
0000
0001
0100
,
0010
0000
0100
0010
,
1000
0000
0001
0000
,
1000
1000
0100
0000
,
0010
0000
0001
0000
,
0010
0001
0001
0000
,
0100
0000
0010
0000
,
1000
0001
0001
0000
,
1000
0000
0100
0000
,
0010
0001
0001
0000
,
1000
0000
0001
1000
,
0001
0000
2000
0000
,
3001
0000
0002
0000
,
1003
0000
0020
0000
,
0130
0000
0200
0000
,
0310
0000
2000
0000
,
3001
0000
0002
0000
,
1003
0000
0200
0000
,
0310
0000
0001
1000
,
0001
0000
1000
0000
,
0100
0000
1000
0000
,
0001
0000
0100
0000
,
0001
0000
1000
0000
,
0100
0000
0010
0001
,
0010
0000
0001
0100
,
0001
0000
1000
0010
,
1000
0000
0100
1000
,
0100
0000
1000
0000
,
0001
0000
0010
0000
,
0001
0000
1000
0000
,
0010
0000
1000
0000
,
0001
0000
0100
0001
,
0100
0000
0001
0010
,
0001
0000
0100
0001
,
0100
0000
0010
0000
,
0010
0000
1001
0000
,
0110
0000
0010
0100
,
0010
0000
1001
0000
,
0110
0000
0100
0010
,
0100
0000
1001
0000
,
1001
0000
0110
0000
,
0110
0000
0001
0001
,
0100
0000
0010
0010
,
1000
0000
0001
0000
,
0100
0000
0010
0000
,
1000
0000
0100
0000
,
0010
0000
0001
0000
,
1000
0000
0001
0000
,
0010
0000
0100
0000
,
1000
0000
0010
0000
,
0100
0000
0001
1000
,
0001
0000
1000
0000
,
1001
0000
0001
0000
,
1001
0000
0100
0000
,
0110
0000
0010
0000
,
0110
0000
0001
0000
,
1000
0000
0010
1000
,
0010
0000
1000
0000
,
0001
0000
0100
0000
,
0100
0000
0100
0000
,
0010
0000
1000
0000
,
0100
0000
0010
0000
,
0001
0000
1000
0000
,
0001
0000
0100
0000
,
0010
0000
1000
0000
,
0001
0000
1000
0000
,
1000
0000
0001
0000
,
0001
0000
1001
0000
;

//--------------- dance-single - NOWHERE Dance Club ----------------
#NOTEDATA:;
#STEPSTYPE:dance-single;
#DESCRIPTION:NOWHERE Dance Club;
#DIFFICULTY:Easy;
#METER:8;
#RADARVALUES:0,0,0,0,0;
#NOTES:
0000
0000
0000
0000
,
0000
0000
0000
0000
,
0000
0000
0000
0000
,
0000
0000
0000
0000
,
0000
0000
0000
0000
0001
1000
0000
0000
,
0001
0000
0100
0010
1000
0000
0000
0000
,
1000
0000
0100
0000
0010
0001
0000
0000
,
0100
0010
2000
0010
,
3010
0000
1000
0000
,
1001
0000
0100
0000
,
0110
0000
1000
0000
,
0011
0000
0010
0000
,
0110
0000
0010
0001
,
1000
0000
0001
0100
,
0010
0000
0100
0010
,
1000
0001
1001
0110
,
1001
2000
3100
0010
,
0001
0000
0100
0010
,
1000
1000
0001
0100
,
0010
0000
0000
0000
1000
0100
1000
0000
,
0001
0100
0001
0000
1000
0000
0010
0000
,
0100
0000
0001
0010
,
0100
1000
1000
0000
,
0001
0000
0000
0000
1000
0001
1000
0001
,
1000
0000
0002
0010
,
0013
0000
0002
0100
,
0103
0000
0020
1000
,
1030
0000
0200
0010
,
0310
0000
0002
0100
,
0103
0000
0002
1000
,
1003
0000
0200
0010
,
0310
0000
0000
0000
0001
1000
0001
0000
,
2000
3001
1000
0100
,
1000
1000
0001
1000
,
0001
0000
0010
0001
,
0010
0010
0001
1000
,
0001
0000
0100
0000
0010
0100
0010
0100
,
0010
0000
1000
0000
0100
0010
0100
0010
,
0100
0000
0010
0000
0001
1000
0001
1000
,
0001
0000
0100
0000
0010
0100
0010
0100
,
0010
1000
0001
0010
,
0001
0001
1000
0001
,
1000
0000
0100
1000
,
0100
0100
1000
0001
,
1000
0000
0010
0000
0100
0010
0100
0010
,
0100
0000
0001
0000
0010
0100
0010
0100
,
0010
0000
0100
0000
1000
0001
1000
0001
,
1000
0000
0010
0000
0100
0010
0100
0010
,
0100
0001
1000
0100
,
1100
0000
0101
0000
,
0100
0010
1010
0000
,
0011
0000
0010
0001
,
0100
0001
1001
0000
,
1010
0000
1100
0000
,
0010
0001
0011
0000
,
0101
0000
0001
1000
,
0020
0000
1030
0000
0001
0100
0001
0000
,
0010
0001
0100
0010
,
2000
0000
0000
0000
3100
0010
0100
0000
,
0010
0001
0200
0000
,
0310
2000
3001
0100
,
0001
1000
0001
0000
1000
0000
0100
0000
,
1000
0001
1000
0000
0010
0000
1000
0000
,
0010
0100
0010
0000
2000
0000
0001
0000
,
3001
0000
0100
0000
0010
0100
0010
0100
,
0010
0000
1000
0000
0100
0010
0100
0010
,
0100
0000
1000
0000
0001
1000
0001
1000
,
0001
0100
0010
0010
,
0020
0000
0000
0000
0130
0010
0100
0010
,
0100
0000
0001
0000
0010
0100
0010
0100
,
0010
0000
0001
0000
1000
0001
1000
0001
,
1000
0000
0010
0000
1000
0100
0010
0001
,
0000
2000
3001
0000
0001
1000
0000
0000
,
0010
0000
0000
0000
2000
3000
0000
0000
,
0200
0000
0310
0000
0001
1000
0000
0000
,
0001
0000
2000
3100
,
0010
0000
0001
0000
1000
0001
0000
0000
,
0010
0000
0001
0000
1000
0001
0000
0000
,
1000
0000
0100
0000
1000
0001
0000
0000
,
0001
1000
0000
0001
2000
0000
3001
0000
,
0002
1003
2002
0000
,
0000
0000
0000
0000
,
0000
0000
0000
0000
,
3003
0000
0000
0000
;

//--------------- dance-single - NOWHERE Dance Club ----------------
#NOTEDATA:;
#STEPSTYPE:dance-single;
#DESCRIPTION:NOWHERE Dance Club;
#DIFFICULTY:Medium;
#METER:11;
#RADARVALUES:0,0,0,0,0;
#NOTES:
0000
0000
0000
0000
,
0000
0000
0000
0000
,
0000
0000
0000
0000
,
0000
0000
0000
0000
,
0000
0000
0000
0000
0001
0001
0000
1000
,
0010
0100
0001
0000
2000
0000
3100
0000
,
2000
0000
3010
1000
0001
0001
0000
1000
,
0100
0010
0001
0000
1001
0000
0110
0000
,
2002
3003
0010
0001
,
0100
0001
0012
0000
,
0103
0001
1000
0010
,
1000
0100
2100
0000
,
3010
0000
2000
0000
3001
1000
0001
1000
,
0100
0010
0001
0010
0001
1000
0001
0010
,
0001
0100
0010
1000
0001
0100
0001
0100
,
0001
1000
0001
1000
0020
0000
0230
0000
,
0302
1000
1003
0000
1000
0000
0100
0000
,
0010
0002
0013
0001
,
0001
1000
0000
0000
0100
0000
1000
0000
0100
0000
0000
0000
0010
0000
0000
0000
,
0001
0000
0000
0000
0100
0000
0000
0000
0010
1000
0000
0000
0001
0000
0000
0000
,
1000
0001
0000
0000
0100
0000
0000
0000
0010
0000
0000
0000
1000
0000
0000
0000
,
0001
0010
0100
1000
,
0100
0010
0001
1000
0001
0000
0100
0000
,
0010
1000
0002
1000
,
0010
0010
0000
0000
1003
0100
1000
0100
,
1000
0011
0002
0203
,
0310
0000
1001
0000
0001
0100
0001
0100
,
0001
1010
2000
3200
,
1300
0000
1001
0000
0010
0001
0010
0001
,
0010
1010
2000
3200
,
0310
0000
0011
0000
0001
0100
0010
1000
,
0100
0010
0001
1000
0001
0000
0110
0000
,
2002
0000
3003
0000
1000
0100
0001
0100
,
1000
0000
1001
0000
0001
0010
0100
0010
,
0001
0000
0011
0000
0001
0100
0010
1000
,
0001
0000
1001
0000
0001
1000
0100
1000
,
0001
0000
0000
0000
0000
0000
1000
0000
0000
0000
0000
0000
0001
0000
0000
0000
0001
0000
0000
0000
0000
0001
0000
0000
,
0000
0000
0000
0000
0000
0000
1100
0000
0000
0000
0000
0000
1000
0000
0000
0000
1000
0000
0000
0000
0000
1000
0000
0000
,
0000
0000
0000
0000
0000
0000
0011
0000
0000
0000
0000
0000
0100
0000
0000
0000
0100
0000
0000
0000
0000
0100
0000
0000
,
0000
0000
0000
0000
0000
0000
0101
0000
0000
0000
0000
0000
0001
0000
0000
0000
0001
0000
0000
0000
0000
0001
0000
0000
,
0000
0000
1001
0000
1000
0010
0001
0010
,
1000
0000
1001
0000
0001
0100
0010
0100
,
0001
0000
0101
0000
0001
0010
0100
1000
,
0001
0000
1001
0000
0001
1000
0010
1000
,
0001
0000
0000
0000
0000
0000
1000
0000
0000
0000
0000
0000
0001
0000
0000
0000
1000
0000
0000
0000
0000
1001
0000
0000
,
0000
0000
0000
1000
0000
0000
0100
0000
0000
0010
0000
0000
0001
0000
0000
0000
0010
0000
0000
0000
0000
0011
0000
0000
,
0000
0000
0000
0010
0000
0000
0100
0000
0000
1000
0000
0000
0001
0000
0000
0000
1000
0000
0000
0000
0000
1001
0000
0000
,
0000
1000
0100
0010
0002
0000
0100
0000
,
1000
0000
1003
0000
1000
0100
1000
0000
,
0001
0100
0001
0000
1000
0000
1010
0000
,
0001
0000
0011
0000
1000
0010
1000
0000
,
0001
0010
0001
0000
1000
0100
1000
0010
,
1000
0100
1000
0000
0001
0010
0001
0000
,
1000
0010
1000
0000
0001
0000
0101
0000
,
1000
0000
1100
0000
0001
0100
0001
0000
,
1000
0100
1000
0000
0001
0010
0001
0100
,
0001
0010
0002
0000
0103
0010
1000
0000
,
0100
0010
0001
0000
0200
0000
1300
0000
,
0200
0000
0301
0000
0010
0100
1000
0000
,
0010
0100
0001
0000
0020
0000
1030
0000
,
0020
0000
0031
0000
1000
0001
1000
0100
,
0010
0100
0010
0001
2000
0000
3100
0000
,
2000
0000
3010
0000
1000
0100
0010
0001
,
0100
0010
1000
0001
1000
0000
1000
0000
,
2000
0000
0000
0000
3001
0100
1000
0100
,
0001
0010
2000
3020
,
0032
0000
1003
0000
0001
0010
1000
0010
,
0001
0100
2000
3200
,
0302
0000
1003
0000
0010
0100
0001
0000
,
0010
0100
1000
0000
0020
0000
0031
0000
,
0020
0000
1030
0000
0100
0010
0001
0000
,
0100
0010
1000
0000
0100
0001
0100
1000
,
0000
0001
1000
0000
1001
1001
0000
0000
,
1000
0000
0000
0000
0001
0000
0000
0000
1000
0010
0000
0000
1000
0000
0000
0000
,
0001
0000
0100
0001
1000
0010
0000
1000
,
0100
0000
0000
0000
0010
0000
0000
0000
0001
1000
0000
0000
0001
0000
0000
0000
,
0100
0000
0010
0000
1000
1010
0000
1000
,
0100
0010
0001
1000
0001
0001
0000
1000
,
0100
0010
0001
0100
0010
0010
0000
1000
,
0001
0001
0000
1000
0001
0000
1000
0000
,
0001
0010
0100
1000
0020
0000
0000
0000
,
0000
0000
0000
0000
,
0000
0000
0000
0000
,
0030
0000
0000
0000
;

//--------------- dance-single - NOWHERE Dance Club ----------------
#NOTEDATA:;
#STEPSTYPE:dance-single;
#DESCRIPTION:NOWHERE Dance Club;
#DIFFICULTY:Hard;
#METER:13;
#RADARVALUES:0,0,0,0,0;
#NOTES:
0000
0000
0000
0000
,
0000
0000
0000
0000
,
0000
0000
0000
0000
,
0000
0000
0000
0000
,
0000
0000
0000
0000
1000
1000
0000
0001
,
1000
0000
0010
0000
0100
0000
0000
0000
0010
1000
0000
0000
0100
0000
0000
0000
,
0020
0000
0031
0100
0010
0010
0000
1000
,
0010
0100
0001
0000
2000
0000
3100
0000
,
2000
3010
0000
0000
1010
0000
1000
0000
,
1100
1000
0020
1030
,
0200
1300
0101
0001
,
0011
0001
0200
0301
,
0020
0000
0000
0000
0031
0000
0010
0001
1000
0000
0001
0000
0100
0000
0010
0000
,
1000
0010
1000
0001
1000
0001
0100
0001
,
0010
0000
0001
0000
1000
0000
0001
0000
0100
0001
0010
0000
0100
0010
0001
0000
,
1000
0001
1000
0000
0001
0100
0010
1000
0200
0000
0000
0000
0310
0000
0000
0000
,
0002
1003
1001
0000
1000
0000
0100
0000
,
0010
0000
0001
0001
1000
0000
0001
0000
,
1000
0100
0000
0000
0010
0000
0001
0000
0100
0000
0000
0000
0010
0000
0000
0000
,
1000
0000
0000
0000
0100
0000
0000
0000
0010
0001
0000
0000
1000
0000
0000
0001
,
1000
0001
0000
0000
1001
0000
0000
0000
1000
0000
0000
0000
0100
0000
1000
0000
,
1000
0000
0011
0000
0100
0000
0001
0001
,
1000
0001
0000
0000
1001
0000
1000
0000
1100
0000
0000
0000
1001
0000
0000
0000
,
0101
1001
2000
0001
,
3002
0000
1003
0100
,
1000
0000
0010
0100
0001
0000
0010
0000
0002
0000
0000
0000
0203
0000
0000
0000
,
0310
1000
0001
1000
0001
0000
0100
0000
,
0001
0000
0010
0100
1000
0000
0001
0000
2000
0000
0000
0000
3200
0000
0000
0000
,
1300
0010
1010
0000
0001
0000
0010
0000
,
0001
0000
0100
0010
1000
0000
0010
0000
0002
0000
0000
0000
0023
0000
0000
0000
,
1030
0001
1001
0000
0001
0000
0010
0000
,
0001
0000
0100
0010
1000
0000
0001
0000
0200
0000
0000
0000
2300
0000
0000
0000
,
3100
0000
0001
0000
1000
0000
0001
0000
1000
0000
0100
0010
0001
0000
1000
0000
,
0001
0000
1000
0000
0010
0000
1000
0000
0001
0000
0100
0010
1000
0000
0001
0000
,
1000
0000
0001
0000
0010
0000
0001
0000
0100
0000
0010
0100
0010
0000
1000
0000
,
0100
0000
0010
0000
0001
0000
1000
0000
0001
0000
1000
0100
1000
0000
0001
0100
,
0010
0000
0000
1000
0000
0000
0002
0000
0000
0000
0000
0000
1003
0000
0000
0000
0100
0000
0000
0000
0000
1000
0000
0000
,
0000
0000
0000
0000
0000
0000
1001
0000
0000
0000
0000
0000
0001
0000
0000
0000
0001
0000
0000
0000
0000
0001
0000
0000
,
0000
0000
0000
0001
0000
0000
0100
0000
0000
0000
0000
0000
0001
0000
0000
0000
0000
0000
0000
0000
0000
0000
0000
0000
0100
0000
0000
0000
0000
0000
0000
0000
0100
0000
0000
0000
0000
0000
0000
0000
0000
0000
0100
0000
0000
0000
0000
0000
,
0000
0000
0000
0000
0000
0000
0110
0000
0000
0000
0000
0000
0010
0000
0000
0000
0010
0000
0000
0000
0000
0010
0000
0000
,
0000
1000
0100
0000
1000
0000
0001
0000
2000
0000
0000
0000
3200
0000
0010
0000
,
0302
0000
0203
0000
0320
1000
0230
0010
,
0320
0000
0031
0000
0002
0000
0023
0100
,
2030
0000
3020
0000
0230
0010
2300
0100
,
3200
0000
0000
0000
0000
0000
0310
0000
0000
0000
0000
0000
0001
0000
0000
0000
1000
0000
0000
0000
0000
0001
0000
0000
,
0000
0000
0000
0000
0000
0000
1001
0000
0000
0000
0000
0000
0100
0000
0000
0000
0010
0000
0000
0000
0000
0100
0000
0000
,
0000
0000
0000
0000
0000
0000
0010
0000
0000
1000
0000
0000
0010
0000
0000
0000
0000
0000
1000
0000
0000
0000
0000
0000
0001
0000
0000
0000
0000
0000
0000
0000
1000
0000
0000
0000
0000
0000
0000
0000
0000
0000
0001
0000
0000
0000
0000
0000
,
0000
1000
0100
0010
0002
0000
0100
0000
,
1000
1003
1000
1100
,
0001
0100
0001
1000
1000
0000
1010
0000
,
0001
0010
0001
0001
1000
0000
1100
0000
,
0001
0100
0001
1000
1001
0000
2000
3100
,
2000
3010
1000
0000
1000
0100
1000
0100
,
0010
0001
0010
0001
0100
0010
0100
0010
,
1000
0100
0010
0001
0010
0001
0100
0001
,
0100
0010
1000
0000
0020
0000
0001
0000
,
1030
0000
1010
0000
0001
0100
0001
0100
,
0010
1000
0010
1000
0100
1000
0100
1000
,
0001
1000
0001
1000
0010
0100
0010
0100
,
0001
1000
0001
1000
0100
0010
0001
1000
,
0002
0000
2003
0000
3001
1000
0001
0100
,
0010
0100
0010
1000
0001
1000
0100
1000
,
0001
1000
0100
0010
0001
1000
0001
1000
,
0100
0010
0100
0010
0002
0000
1000
0000
,
2003
0000
0000
0000
0000
0000
0000
0000
3001
0000
0100
0010
1000
0000
0001
0000
,
1000
0000
0100
0010
0001
0000
1000
0000
0200
0300
0000
0000
0200
0300
0000
0000
,
0200
0300
0000
0000
1001
0000
0000
0000
1000
0000
0100
0010
0001
0000
1000
0000
,
0001
0000
0100
0010
1000
0000
0001
0000
0020
0030
0000
0000
0020
0030
0000
0000
,
0020
0030
0000
0000
1001
0000
0000
0000
1000
0000
0010
0100
0001
0000
1000
0000
,
0001
0000
0010
0100
1000
0000
0001
0000
0020
0030
0000
0000
0020
0030
0000
0000
,
0020
0030
0000
0000
1001
0000
0000
0000
0001
0000
0010
0100
1000
0000
0001
0000
,
1000
0000
0010
0100
0001
0000
1000
0000
0100
0000
0010
0000
0001
0000
2000
0000
,
0000
0001
3001
0000
2000
3001
0000
0010
,
0000
0000
0100
0000
0010
0000
0000
0000
0001
0010
0001
0000
0000
0000
0000
0000
,
1000
0000
0100
0010
0001
0001
0000
0000
,
0100
0000
0000
0000
0010
0000
0000
0000
1000
0100
0000
0000
0010
0000
0010
0000
,
0001
0000
0000
0000
1000
0000
0000
0000
1001
0000
1001
0000
0000
0000
0000
0001
,
0000
0010
0000
0001
0100
0001
0000
0000
,
2000
0000
3001
0100
0010
1000
0000
0100
,
0010
0001
0000
1000
0001
0000
1000
0000
,
0001
0010
0100
1000
0020
0000
0000
0000
,
0000
0000
0000
0000
,
0000
0000
0000
0000
,
0030
0000
0000
0000
;
