#VERSION:0.83;
#TITLE:Overflowing Emotions;
#SUBTITLE:;
#ARTIST:Laugh & Peace;
#TITLETRANSLIT:;
#SUBTITLETRANSLIT:;
#ARTISTTRANSLIT:;
#GENRE:;
#CREDIT:;
#MUSIC:Overflowing Emotions.ogg;
#BANNER:;
#BACKGROUND:;
#CDTITLE:cdtitle.png;
#SAMPLESTART:68.314;
#SAMPLELENGTH:15.000;
#SELECTABLE:YES;
#OFFSET:-0.009;
#BPMS:0.000=189.723;
#STOPS:;
#SPEEDS:0.000=1.000=0.000=0;
#SCROLLS:0.000=1.000;
#TICKCOUNTS:0.000=4;
#TIMESIGNATURES:0.000=4=4;
#LABELS:0.000=Song Start;
#COMBOS:0.000=1;
#DISPLAYBPM:*;
#ORIGIN:;
#PREVIEWVID:;
#JACKET:;
#CDIMAGE:;
#DISCIMAGE:;
#BGCHANGES:;
#FGCHANGES:;

//--------------- dance-single - ----------------
#NOTEDATA:;
#STEPSTYPE:dance-single;
#DESCRIPTION:;
#DIFFICULTY:Hard;
#METER:15;
#RADARVALUES:0,0,0,0,0;
#NOTES:
0000
0000
0000
0000
,
0000
0000
0000
0000
,
0000
0000
0000
0000
,
0000
0000
0000
0000
,
0001
1100
1010
1001
,
0101
0000
0001
0000
1000
0000
1000
0010
,
1000
0000
0000
0000
0010
0000
0100
1000
,
0100
1000
0100
0000
0110
0000
0000
1000
,
0001
0011
0101
1001
,
1100
0000
1000
0000
0001
0000
0000
0100
,
0010
0000
0100
0000
0001
0100
0001
1000
,
0001
0110
0110
0110
,
1000
0000
0001
0000
1001
0000
0100
0010
,
0100
0000
0001
1000
0001
1000
0000
0010
,
0100
0000
0001
0000
1000
0000
0100
0010
,
0100
0001
0100
0010
0200
0000
0300
0000
,
0100
1000
0100
1000
,
0001
0100
0001
0010
,
0001
1000
0001
1000
,
0100
0010
1000
0010
0100
0000
0000
0000
,
1000
0001
0100
0010
,
0100
0000
0001
0000
1000
0000
0001
0010
,
0100
0000
1000
0000
0010
0000
0100
0010
,
0100
1000
0100
0010
0200
0000
0300
0000
,
0001
0100
0001
1000
,
0100
0000
0010
0000
0001
0000
1000
0100
,
0010
0000
0001
0000
1000
0000
0010
0001
,
0100
0001
0010
0000
0100
0001
0100
0000
,
0010
0000
1001
0000
,
1000
0000
0001
1000
,
0001
0000
0100
0000
,
0010
0100
0010
0100
0010
0000
0000
0000
,
1000
0000
0110
0000
,
0001
0010
0100
0000
,
1000
0000
0010
0000
,
1000
0001
1000
0001
1000
0000
0000
0000
,
0100
0001
0011
0100
,
1100
0000
0010
0000
0100
0000
0001
1000
,
0001
0000
1000
0000
0010
0000
1000
0010
,
1000
0001
0100
0010
,
1000
0000
0001
0000
0100
0010
0100
0010
,
1000
0001
1000
0100
,
0010
0100
0110
0110
,
1001
0000
0000
0000
,
1000
0000
0001
0000
0100
0000
0100
0000
0001
1000
0002
0000
0000
0000
0000
0000
,
1003
0000
0010
0000
0100
0000
0100
0000
0010
0100
0020
0000
0000
0000
0000
0000
,
1030
0001
1000
0000
0010
0000
0100
0000
0001
0010
0001
0000
1000
0000
1000
0000
,
0010
0100
0010
0000
0100
0000
0001
0000
1000
0000
0001
0010
0100
0000
1000
0000
,
0001
0100
1000
0100
0001
0100
1000
0000
,
0001
0000
0010
0000
0001
0000
0100
0000
0010
1000
0010
0000
1000
0000
0001
0010
,
0100
0000
0000
0000
1100
0000
0001
0010
0100
0000
0000
0000
1100
0000
0001
0010
,
0100
0000
0000
0000
1001
0000
0010
0100
0010
0000
0000
0000
0200
0000
0000
0000
,
0300
0000
0000
0000
,
0000
0000
0000
0000
,
0001
0000
1100
0000
1100
0010
1100
0010
,
1002
0000
0013
0000
,
0100
0000
0100
0000
0000
0000
0000
0000
1000
0000
1000
0000
0001
0100
0001
0100
,
0001
0000
0101
0000
0101
1000
0101
1000
,
0120
0000
1030
0000
,
0001
0000
0001
0000
0000
0000
0000
0000
0010
0000
0010
0000
0100
1000
0100
1000
,
0200
0300
1001
0000
,
0020
0000
0000
0030
,
1000
0101
1001
0101
,
0110
1000
0001
0010
,
0100
1000
0001
1000
,
0010
0001
0010
1000
,
0001
0110
1010
1100
,
1001
0001
0100
0010
,
1000
0100
0010
0001
,
0100
0010
0100
0010
,
2000
0000
3001
0000
,
0200
0000
0310
0000
,
0002
0000
1003
0000
,
0200
0000
0310
0000
,
2000
0000
3100
0000
,
0020
0000
1030
0000
,
0020
0000
0031
0000
,
0000
0000
1001
0000
,
0000
0000
0120
0000
,
0030
0000
1000
0000
,
0000
0000
0020
0000
,
0130
0000
0001
0001
,
0001
0001
0010
0010
,
0010
0010
0100
0000
,
1000
0000
0000
0001
0000
0000
0000
0000
0000
0000
0000
0000
1000
0000
0000
0000
0100
0000
0000
0000
0000
0000
0000
0000
,
1100
0000
0100
0000
,
0010
0000
0000
0000
0001
0010
0000
0000
,
0001
0000
0100
0000
,
0001
0000
0100
0000
,
0001
0000
0010
0000
0000
0000
0100
0000
1000
0000
0000
0000
,
0001
0000
1000
0000
0000
0000
0100
0000
0000
0010
0000
0000
,
0100
0001
0100
1000
0001
0000
1000
0000
,
0001
0100
0010
0100
0001
0000
1000
0000
,
0100
1000
0100
1000
1010
0000
0000
0000
,
0000
0000
0001
1001
,
0110
1001
0110
0100
,
0001
0000
1000
0000
0100
0000
0000
0000
1000
0000
0001
0000
0010
0000
0001
0100
,
0001
0000
0100
0010
0100
0000
0010
1000
0010
1000
0000
0100
1000
0100
1000
0010
,
1000
0000
0010
0000
1000
0000
0000
0001
0100
0000
0001
0000
0100
0000
0000
0000
0002
0000
0000
0000
0000
0000
0000
0000
0000
0000
0000
0000
0000
0000
0000
0000
,
0013
0100
0100
0000
,
1000
0001
1000
1000
,
0001
0001
0100
0010
,
0100
0000
0010
0110
,
1001
0000
0110
0000
1001
0000
1000
0010
,
1000
0000
0100
0000
1000
0000
0000
0000
0001
0000
0100
0000
0010
1000
0010
0000
,
1000
0001
1000
0000
0010
0100
0010
0100
0010
0000
1000
0100
0010
0000
0000
0000
,
0011
0000
1000
0100
0010
0000
0000
0000
0011
0000
1000
0100
0010
0000
0000
0000
,
0001
0010
0100
0000
1000
0001
2000
0000
0000
0000
0000
0000
3000
0000
0000
0000
,
0001
0000
1100
0000
1001
0010
1100
0010
,
1001
0000
0100
0010
0100
0000
0001
1000
,
0001
0000
1000
0100
0010
0100
1000
0000
,
0001
0100
0010
0100
1000
0100
0010
0000
,
1000
0100
0001
0010
1000
0100
0001
0010
,
1000
0000
0010
0100
0010
1000
0010
0001
,
0010
1000
0001
0010
,
0100
0110
1001
0000
;

//--------------- dance-single - ----------------
#NOTEDATA:;
#STEPSTYPE:dance-single;
#DESCRIPTION:;
#DIFFICULTY:Challenge;
#METER:18;
#RADARVALUES:0.631348,1.125565,0.375552,0.160951,0.207895,659,603,56,24,0,0,0,1,0,0.631348,1.125565,0.375552,0.160951,0.207895,659,603,56,24,0,0,0,1,0;
#CHARTNAME:;
#CHARTSTYLE:;
#CREDIT:;
#NOTES:
0000
0000
0000
0000
,
0000
0000
0000
0000
,
0000
0000
0000
0000
,
0000
0000
0000
0000
,
0001
1100
1010
1001
,
0101
0000
0001
0000
1000
0000
0100
0010
,
0100
0000
1000
0000
0000
0000
0001
1000
,
0001
1000
0100
0000
0200
0000
0300
1000
,
0001
0110
1010
0110
,
0011
0000
0001
0000
1000
0000
0001
1000
,
0001
0000
0100
0000
0010
0100
1000
0100
,
0010
0000
0110
0000
1001
1000
0010
0100
,
0001
0000
1000
0000
1001
0000
0001
0100
,
0001
0000
1000
0100
0010
0001
0000
0010
,
0100
0000
1000
0000
0100
0001
0100
0010
,
0110
0000
1001
0000
0010
0000
1000
0001
,
0100
0000
0001
0000
1000
0100
0010
0100
,
2000
0001
3100
0010
,
0001
1000
0010
0000
0100
0010
0100
0001
,
0100
1000
0100
0001
1000
0100
0010
0010
,
0100
0000
1000
0000
0001
0010
0001
0010
,
0001
0000
0100
0000
0010
0100
0001
0000
,
0020
1000
0130
0000
,
0001
1000
0010
1000
0100
0000
0010
0001
,
1000
0000
0001
0000
1000
0010
1000
0010
,
1000
0000
1001
0000
0001
0100
0010
1000
,
0002
0000
1000
0000
0103
0000
0010
0100
,
0001
0100
0010
1000
0010
0001
0010
0000
,
1000
1000
0001
0001
,
0100
0100
0010
0010
,
1000
0000
0100
0000
0010
0000
0001
0001
,
0100
0001
0100
0010
0100
1000
0100
0000
,
0001
1000
0001
0001
,
0010
0010
0100
0100
,
1000
0000
0010
0000
0100
0000
0001
0001
,
1000
0100
0010
1000
0010
0001
1000
0010
,
1000
0001
1000
0001
,
1001
0000
1010
0000
1100
0000
1000
0010
,
1000
0000
0001
0000
0010
0001
0100
0001
,
0010
0001
1000
0100
,
0010
0000
0001
0000
0100
0010
1000
0010
,
0100
0000
0001
0000
1000
0000
0010
1000
,
0001
0000
1000
0000
0001
0100
0010
0000
,
0210
0000
0300
00L0
0100
0010
0100
0010
,
1000
0000
0001
0000
1000
0000
1000
0000
0001
0100
0001
0100
0001
0000
0001
0010
,
0001
0000
1000
0000
0100
0000
0010
0000
0001
0000
0100
0010
0100
0000
0001
0000
,
1000
0000
0000
0000
0100
0000
0000
0000
0000
1000
0000
0000
0001
0000
0000
0100
0000
0000
0001
0000
0000
0100
0000
0000
0001
0000
0000
1000
0000
0000
0001
0000
0000
1000
0000
0000
0100
0000
0000
0010
0000
0000
0100
0000
0000
0010
0000
0000
,
0100
0000
0000
0000
1000
0000
0000
0000
0000
0001
0000
0000
1000
0000
0000
0010
0000
0000
1000
0000
0000
0010
0000
0000
1000
0000
0000
0000
0010
0000
0000
0000
0000
0100
0000
0000
0010
0000
0000
0000
0000
0000
0100
0000
0000
0001
0000
0000
,
0100
0000
0001
0000
1000
0000
0100
1000
0100
0010
0001
0010
0001
0100
0010
0000
,
1000
0000
0001
0000
0010
0100
1000
0001
1000
0100
0010
0100
1000
0000
0001
0000
,
0100
0010
0100
0000
0001
0000
1000
0001
0010
0001
0010
0000
0100
0000
1000
0010
,
0100
0000
0001
0010
0001
0000
1000
0000
0010
0100
0010
0000
1000
0000
0001
0000
,
0000
0000
0000
0000
,
0000
1001
0000
0000
,
0001
0000
1100
0000
1010
0100
1001
0100
,
1001
0010
0200
0300
,
0001
0000
0001
0000
0100
0000
0001
0000
0001
0000
0001
0000
0100
0001
0100
0001
,
0100
0000
0110
0000
1010
0001
0110
0001
,
0011
1000
0002
0003
,
1000
0000
1000
0000
0010
0000
1000
0000
1000
0000
1000
0000
0010
1000
0010
1000
,
0010
0100
1001
0010
,
2000
0001
0001
3000
,
0001
0011
0101
1001
,
1010
1000
0001
0000
,
0010
0100
0010
0000
0001
1000
0001
0000
,
1000
0001
1000
0010
1000
0100
2000
0000
,
3001
0110
1010
0110
,
0011
1000
0001
0000
,
1000
0100
1000
0000
0010
0100
0010
0000
,
0100
0001
0100
0000
0010
1000
0010
0000
,
0200
0000
0310
0000
,
0002
0000
1003
0000
,
0020
0000
0031
0000
,
2000
0000
3100
0000
,
0020
0000
0031
0000
,
2000
0000
3010
0000
,
0200
0000
0310
0000
,
0000
0000
1001
0000
,
0000
0000
0120
0000
,
0030
0000
1000
0000
,
0000
0000
0002
0000
,
1003
0000
0100
0100
,
0100
0100
1000
1000
,
1000
1000
0001
0000
,
0010
0000
0000
0100
0000
0000
0000
0000
0000
0000
0000
0000
1000
0000
0000
0000
0001
0000
0000
0000
0000
0000
0000
0000
,
0011
0000
0100
0000
,
0010
0000
0000
0000
1000
0010
0000
0000
,
0001
0000
0010
0000
,
1000
0000
0001
0000
,
0010
0000
0100
0000
0000
0000
0100
0000
1000
0000
0000
0000
,
0100
0000
0001
0000
0000
0000
0100
0000
0000
1000
0000
0000
,
0001
0010
0100
1000
0001
0000
0100
0000
,
0010
1000
0001
0100
0001
0000
1000
0000
,
0010
0100
0001
0010
0210
0000
0300
00L0
,
0100
0010
0100
0010
0001
0000
0110
0000
,
0011
1001
0101
1000
,
0100
0000
1000
0000
0001
0000
0000
0000
1000
0000
0010
0000
0100
0000
0001
1000
,
0001
0000
0010
0100
0010
0000
0001
1000
0001
1000
0000
0010
0100
0010
0100
0010
,
0001
0000
0010
0000
0001
0000
0000
0010
1000
0000
0010
0000
1000
0000
0000
0000
0002
0000
0000
0000
0000
0000
0000
0000
0000
0000
0000
0000
0000
0000
0000
0000
,
1003
0010
1000
0010
,
0001
0010
1000
0100
,
1000
0100
0010
0001
,
0100
0000
0010
1010
,
1100
0000
1001
0000
0101
0000
0001
0010
,
0100
0000
0010
0000
0001
0000
0000
0000
0100
0000
0001
0000
1000
0001
1000
0000
,
0010
0100
0010
0000
1000
0001
1000
0001
1000
0100
0000
1000
0100
0000
0010
0001
,
0010
0000
0001
0000
0100
0001
0100
0000
0010
0000
1000
0001
1000
0001
1000
0010
,
0100
0010
0100
0010
0000
0000
1000
0000
0100
0000
0010
0000
0001
0000
1000
0000
,
0001
0000
1010
0000
1100
0010
1001
0010
,
1100
0000
0000
0000
1000
0000
0010
0000
0001
0000
0010
0000
1000
0000
0100
0010
,
0001
0000
0010
0000
0100
0000
0010
0000
0001
0000
0000
0000
1000
0001
1000
0000
,
0001
0000
0100
0000
0001
0000
0010
0000
0002
0000
0000
0000
1003
0000
0010
0100
,
0001
0000
0101
0000
0110
0001
1100
0001
,
0110
0000
0000
0000
1000
0000
0010
0000
0001
0000
0010
0000
1000
0000
0100
0010
,
0001
0000
0100
0000
0010
0000
1000
0000
0100
0000
0010
0000
0001
1000
0001
0000
,
1000
0000
0010
0100
2000
0000
3100
0000
;
