#TITLE:Open Your Heart;
#SUBTITLE:;
#ARTIST:Crush 40;
#TITLETRANSLIT:;
#SUBTITLETRANSLIT:;
#ARTISTTRANSLIT:;
#GENRE:;
#CREDIT:;
#MUSIC:Open Your Heart.ogg;
#BANNER:;
#BACKGROUND:;
#CDTITLE:;
#SAMPLESTART:72.791;
#SAMPLELENGTH:15.000;
#SELECTABLE:YES;
#OFFSET:-0.069;
#BPMS:0.000=158.000;
#STOPS:;
#BGCHANGES:;
#FGCHANGES:;

//--------------- dance-single - eataninja ----------------
#NOTES:
     dance-single:
     eataninja:
     Beginner:
     4:
     0,0,0,0,0:
0000
0000
0000
0000
,
0000
0000
0000
0000
,
0000
0000
0000
0000
,
0000
0000
0000
0000
,
1000
0000
0010
0000
,
0001
0000
0010
0000
,
1000
0000
0010
0000
,
0100
0000
1001
0000
,
0001
0000
0010
0000
,
1000
0000
0010
0000
,
0001
0000
0010
0000
,
0100
0000
1001
0000
,
1000
0000
0010
0020
,
0000
0000
0000
0030
,
0000
0000
0000
0000
,
1000
1000
0001
0000
,
0010
0000
0000
0000
,
0100
0100
0100
0000
,
0100
0000
0000
0000
,
1000
1000
0001
0000
,
0100
0000
0000
0000
,
0010
0000
1000
0000
,
0001
0000
1001
0000
,
0001
0001
1000
0000
,
0010
0000
0000
0000
,
0100
0100
0100
0000
,
0100
0000
0000
0000
,
0001
0001
1000
0000
,
0100
0000
0000
0000
,
0010
0000
0001
0000
,
1000
0010
1000
0000
,
0020
0000
0030
0000
,
0200
0000
0300
0000
,
1000
0000
0100
0000
,
0001
0000
1000
0000
,
0200
0000
0300
0000
,
0020
0000
0030
0000
,
1000
0000
0010
0000
,
0001
0000
1000
0000
,
0010
0000
0010
0000
,
0100
0000
0100
0000
,
0001
0000
1000
0000
,
0100
0000
1000
0000
,
0010
0000
0010
0000
,
0100
0000
0100
0000
,
0001
1000
0001
0000
,
0010
0000
0100
0000
,
2002
0000
0000
3003
,
1000
0000
0010
0000
,
0001
0000
0010
0000
,
1000
0000
0001
0000
,
1000
1000
1000
0000
,
0001
0000
0010
0000
,
1000
0000
0010
0000
,
0001
0000
1000
0000
,
0001
0001
0001
0000
,
1000
0000
0100
0000
,
0001
0000
0100
0000
,
0010
0000
0001
0000
,
1000
1000
1000
0000
,
0001
0000
0100
0000
,
1000
0000
0100
0000
,
0010
0000
1000
0000
,
0001
0001
0001
0000
,
0010
0001
0010
0001
,
1000
0000
0000
0000
,
0010
0000
0110
0000
,
0200
0000
0301
0000
,
1000
0000
1001
0000
,
0001
0001
1000
0000
,
0100
0000
0110
0000
,
0020
0000
0031
0000
,
1000
0000
1001
0000
,
0001
0001
1000
0000
,
0100
0000
0010
0020
,
0000
0000
0000
0030
,
0001
1000
0001
1000
,
0020
0000
0000
0000
,
0000
0000
0000
0000
,
0000
0000
0000
0000
,
0000
0000
0000
0000
,
0000
0000
0000
0030
;

//--------------- dance-single - eataninja ----------------
#NOTES:
     dance-single:
     eataninja:
     Easy:
     8:
     0,0,0,0,0:
0000
0000
0000
0000
,
0000
0000
0000
0000
,
0000
0000
0000
0000
,
0000
0000
0000
0000
,
1000
0000
1010
0000
0010
0100
0000
2000
,
0000
3100
0001
0000
1000
0000
1000
0000
,
0001
0000
0011
0000
0010
0100
0000
0002
,
0000
0103
1000
0000
0010
0000
0100
0000
,
0001
0000
0101
0000
0100
0010
0000
0002
,
0000
0013
1000
0000
0001
0000
0001
0000
,
1000
0000
1100
0000
0100
0010
0000
2000
,
0000
3010
0001
0000
0100
0000
0010
0000
,
1000
0000
1000
0000
0001
0000
0010
0200
,
0000
0000
0000
0300
,
2002
0000
0000
3003
,
0001
0100
0120
1030
,
0001
0010
0100
0000
,
1000
1001
1002
0103
,
0010
0100
0001
0000
,
1000
1100
0102
1003
,
0010
0100
0001
0000
,
1000
0001
0100
0110
,
0020
1030
0002
0013
,
0100
0010
0100
0000
0210
0000
1300
0000
,
0001
1000
0010
0000
,
0100
0001
1000
0000
1002
0000
0013
0000
,
0100
0010
0001
0000
,
1000
0001
0100
0000
0210
0000
0301
0000
,
1000
0100
0010
0000
,
0001
0000
1000
0000
0010
0010
0000
0002
,
0000
0013
0100
0000
0002
1000
1003
0000
,
0100
0000
0100
0000
1000
0001
1000
0000
,
0010
0000
0100
0000
0001
0010
0100
0000
,
2000
0100
0001
0100
,
3002
0010
1000
0103
,
0010
0000
1000
0000
0100
0010
0000
0001
,
0000
1000
0000
0010
0100
0000
0100
0000
,
0001
0000
1000
0100
1000
0000
0000
0020
,
0000
0100
0130
0002
0000
1003
0000
0000
,
1010
0000
0010
0000
0100
0001
0100
0000
,
0001
0000
0010
0000
0100
1000
0100
0000
,
1000
0001
0000
0100
0000
1000
0000
0100
,
0000
0100
0000
0010
1000
0000
0100
0000
,
1100
0000
0001
0000
1000
0001
0010
0000
,
0100
0000
0010
0000
0001
1000
0010
0000
,
0100
0000
0001
1000
0000
0100
0000
0002
,
0000
0000
0100
0203
0000
2300
0000
0000
,
3001
0001
1000
0020
0000
0000
0030
0000
,
0100
0000
0100
0000
0001
1000
0001
0000
,
0010
0000
1000
0000
0010
0100
1000
0000
,
0010
0000
0100
0000
0001
0010
0000
0100
,
0000
1000
0010
0000
0220
0000
0330
0000
,
0001
0000
1000
0000
0100
0010
0001
0000
,
1000
0010
1000
0000
0001
0100
0001
0000
,
1000
0000
0100
0000
0010
0001
0000
1000
,
0000
1000
0010
0000
2002
0000
3003
0000
,
0001
1000
1020
0130
,
0001
0000
1000
0100
0010
0000
0001
1000
,
0010
0000
1000
0000
0001
1000
0000
0100
,
0000
0010
0010
0000
0002
0000
2003
0000
,
3100
0010
0012
1003
,
0010
0000
0100
0001
1000
0000
0100
0010
,
0001
0000
1000
0000
0010
0100
0000
0010
,
0000
1000
1000
0000
2002
0000
3003
0000
,
0001
0000
0100
0000
1000
0100
0000
0020
,
0000
1000
1030
0000
0000
0000
0000
0000
,
0001
1000
0001
0000
0010
0100
0000
2100
,
0000
0001
3001
0000
0100
0000
0010
0000
,
1000
0001
1000
0000
0010
0100
0000
0102
,
0000
1000
1003
0000
0100
0000
0100
0000
,
1000
0001
0100
0000
0010
1000
0000
1002
,
0000
0010
0013
0000
0100
0000
1000
0000
,
0001
1000
0010
0000
0100
0001
0000
2001
,
0000
0100
3100
0000
0010
0001
1000
0000
,
0001
1000
0001
0000
1000
0010
0100
0002
,
0000
0000
0000
0003
,
1000
0000
0001
0000
0011
0000
0010
0200
,
0000
0000
0000
0000
,
0000
0000
0000
0000
,
0000
0000
0000
0000
,
0000
0000
0000
0000
,
0000
0000
0000
0300
;

//--------------- dance-single - eataninja ----------------
#NOTES:
     dance-single:
     eataninja:
     Medium:
     11:
     0,0,0,0,0:
0000
0000
0000
0000
,
0000
0000
0000
0000
,
0000
0000
0000
0000
,
0000
0000
0000
0000
,
1000
0000
0000
1000
0001
0000
0000
0000
0010
0000
0100
0000
0000
0000
2100
0000
,
0000
0001
3001
0000
0100
0010
1000
0000
,
0001
0000
0000
0001
1000
0000
0000
0000
0100
0000
0010
0000
0000
0000
0012
0000
,
0000
1000
1003
0010
0001
0010
1000
0000
,
0001
0000
0000
0001
1000
0000
0000
0000
0010
0000
0100
0000
0000
0000
0102
0000
,
0000
1000
1003
0000
0100
0010
0001
0000
,
1000
0000
0000
1000
0001
0000
0000
0000
0100
0000
0010
0000
0000
0000
2010
0000
,
0000
0001
3001
0010
1000
0010
0001
0000
,
1000
0010
1000
0010
0100
0001
0010
0200
,
0000
1000
1000
1300
,
0001
1000
1000
1000
0001
0010
0100
2000
,
0000
0010
3010
0000
0100
0001
1000
0200
,
0000
0310
0001
2000
0000
3010
0100
0020
,
0000
1000
1030
0000
0001
0010
0100
1000
,
0010
0100
0001
0000
1000
0100
0010
0002
,
0000
1000
1003
0000
0010
0100
0001
2000
,
0000
3100
0010
0002
0000
0103
1000
0200
,
0000
0010
0310
0000
1000
0001
0010
0200
,
0000
1000
1300
0000
0001
1000
0010
0200
,
0000
0000
0001
0000
0301
0000
0000
0001
1000
0000
0100
0000
0010
0000
0002
0000
,
0000
1003
0010
0200
0000
0310
1000
0002
,
0000
0000
0010
0000
0013
0000
0000
0010
0100
0000
1000
0000
0001
0000
0100
0000
,
0010
1000
0100
0000
0010
0001
1000
0020
,
0000
0000
1000
0000
1030
0000
0000
1000
0001
0000
0010
0000
0100
0000
2000
0000
,
0000
3010
0100
0002
0000
0013
1000
0020
,
0000
0100
0130
0000
1000
0001
0001
0200
,
0000
0310
2000
0000
3001
0010
0100
0000
,
2000
0000
0010
0000
3001
1000
0100
0000
,
1100
0000
0001
1000
0010
0100
0001
0000
,
1000
0010
0001
0000
0001
0010
1000
0000
,
0001
0010
0100
1000
0010
0100
0001
0000
,
2000
0000
0100
0000
3001
1000
0010
0000
,
1010
0000
0001
1000
0100
0010
0001
0000
,
1000
0000
0010
0010
0010
0000
0100
2000
,
0000
3100
0001
2000
0000
0100
3100
0000
,
1000
0001
0001
0100
0010
0010
1000
0000
,
0001
1000
1000
0100
0010
0010
0001
0000
,
1000
0010
0100
1000
0000
0100
0001
1000
,
0000
0100
0010
0001
1000
0010
0100
0000
,
0001
1000
1000
0100
0010
0010
0001
0000
,
1000
0001
0001
0100
0010
0010
1000
0000
,
0001
0010
0100
1000
0000
0010
0100
2000
,
0000
3100
0001
2000
0000
3200
0000
0310
,
0001
0001
1000
0020
0000
0000
0030
1000
,
0000
1000
0001
0010
0100
0010
0001
1000
,
0010
0100
0010
1000
0001
0010
0100
1000
,
0000
0000
1000
0000
0010
0000
0000
0010
0100
0000
0100
0000
0001
0000
2000
0000
,
0000
0000
3100
0000
0010
0000
0000
0010
0001
0000
1000
0000
0010
0000
0100
0000
,
0000
0100
0001
1000
0001
0010
0100
0010
,
0001
1000
0010
0100
0001
1000
0100
0020
,
0000
0000
0031
0000
1000
0000
0000
1000
0010
0000
0100
0000
0000
0000
0001
0000
,
0000
1000
0100
1000
0002
0000
0013
0100
,
0000
0100
1000
0001
1000
0010
0100
0010
,
1000
0001
0010
0100
0010
0001
1000
0020
,
0000
0000
0130
0000
0001
0000
0000
0001
1000
0000
1000
0000
0100
0000
0002
0000
,
0000
0103
0010
0100
1000
0001
0100
0010
,
0000
0010
0100
0010
1000
0001
0010
0001
,
1000
0100
0010
0001
0100
0010
0100
0002
,
0000
0000
1003
0000
0010
0000
0000
0010
0100
0000
0001
0000
1000
0000
0100
0000
,
0000
0100
0001
0100
2000
0000
3001
0000
,
1000
0010
0001
0010
0100
0001
0010
0200
,
0000
1000
1300
0000
0000
0000
0000
0000
,
1000
0000
0000
1000
0100
0000
0000
0100
0010
0000
0001
0000
0000
0000
2001
0000
,
0000
3010
0100
0001
1000
1000
0001
0000
,
0001
0000
0000
0001
0010
0000
0000
0010
0100
0000
1000
0000
0000
0000
1002
0000
,
0000
0000
0103
0000
0010
0000
1000
0000
0001
0000
0000
0010
0000
0000
0100
0000
,
1000
0000
0000
1000
0001
0000
0000
0001
0100
0000
0010
0000
0000
0000
0210
0000
,
0000
0301
1000
0100
0010
0010
0001
0000
,
0001
0000
0000
0001
1000
0000
0000
1000
0010
0000
0100
0000
0000
0000
0120
0000
,
0000
1030
0001
0010
1000
0010
0100
0000
,
1000
0001
1000
0001
0010
0100
1000
0020
,
0000
0000
0000
0030
,
1000
0010
0001
0010
1000
0000
0001
0020
,
0000
0000
0000
0000
,
0000
0000
0000
0000
,
0000
0000
0000
0000
,
0000
0000
0000
0000
,
0000
0000
0000
0030
;

//--------------- dance-single - eataninja ----------------
#NOTES:
     dance-single:
     eataninja:
     Hard:
     14:
     0,0,0,0,0:
0000
0000
0000
0000
,
0000
0000
0000
0000
,
0000
0000
0000
0000
,
0000
0000
0000
0000
,
1000
0001
1000
0001
0020
0000
0000
0000
0130
0000
1000
0000
0000
0000
1020
0000
,
0000
0130
0010
1000
0001
0010
0100
0100
,
1000
0001
1000
0001
0200
0000
0000
0000
0310
0000
1000
0000
0000
0000
1200
0000
,
0000
0000
0310
0000
0001
0000
1000
0000
0010
0100
0010
0000
1000
0000
0000
0000
,
0001
1000
0001
1000
0200
0000
0000
0000
0310
0000
0001
0000
0000
0000
0201
0000
,
0000
0310
0100
0001
1000
0100
0010
0010
,
0001
1000
0001
1000
0020
0000
0000
0000
0130
0000
0001
0000
0000
0000
0021
0000
,
0000
0000
0130
0000
1000
0000
0001
0000
0100
0010
0100
0000
0001
0000
0000
0000
,
1000
0100
0001
0100
1000
0001
0100
0020
,
0000
0100
0100
0130
,
0001
1000
0100
0100
0010
0001
1000
1020
,
0000
0000
0130
0000
0001
0000
1000
0100
1000
0000
0001
0000
0010
0000
2000
0000
,
0000
3010
0001
0200
0000
0301
1000
0010
,
0100
0000
0001
0000
0001
0000
1000
0100
1000
0000
0001
0000
0010
0000
0100
0000
,
0001
1000
0010
0100
1000
0010
0100
0201
,
0000
0000
0310
0000
1000
0000
0001
0010
0001
0000
1000
0000
0100
0000
0002
0000
,
0000
0000
0103
0000
0010
0000
0001
1000
0001
0000
1000
0000
0010
0000
0200
0000
,
0000
0000
0301
0000
1000
0000
0000
1000
0100
0000
0010
0000
0001
0000
0200
0000
,
0000
0000
0310
0000
1000
0000
0001
0000
0010
0000
0100
1000
0001
0000
0201
0000
,
0000
0000
0310
0000
1000
0000
0001
0010
0100
0000
1000
0000
0010
0000
0002
0000
,
0000
1003
0100
0020
0000
1030
0001
0021
,
0000
0000
0130
0000
1000
0000
0001
0100
0010
0000
1000
0000
0100
0000
0001
0000
,
1000
0010
0001
0100
1000
0100
0010
1020
,
0000
0000
0130
0000
0001
0000
1000
0100
0010
0000
0001
0000
0100
0000
2000
0000
,
0000
0000
3001
0000
0010
0000
0100
0010
1000
0000
0001
0000
0010
0000
0200
0000
,
0000
0000
1300
0000
0001
0000
0000
0100
0010
0000
0010
0000
1000
0000
0200
0000
,
0000
0000
0310
0000
0001
0000
1000
0000
0010
0100
0010
0000
1000
0000
0001
1000
,
0100
0000
0000
0000
1100
0000
0000
0100
0010
0000
0010
0000
0001
0000
0000
0000
,
1000
0000
0000
0000
1010
0000
0000
0010
0100
0000
0100
0000
0001
0000
0000
0000
,
2000
0100
3100
0000
2000
0001
3001
0000
,
0100
0010
1000
0100
0001
0100
2000
0000
,
3001
0000
0000
0000
0101
0000
0000
0100
0010
0000
0010
0000
1000
0000
0000
0000
,
0001
0000
0000
0000
0011
0000
0000
0010
0100
0000
0100
0000
1000
0000
0000
0000
,
0001
0000
1000
0000
0010
0000
0000
0010
0100
0000
1000
0000
0100
0000
0002
0000
,
0000
0000
1003
0000
0100
0000
0100
0010
0001
0000
1000
0010
1000
0000
0001
0100
,
0001
1000
1000
0001
1000
1000
0100
0010
,
0001
0000
1000
0000
1000
0000
0001
0000
1000
0000
1000
0000
0010
0000
0100
0010
,
0100
0010
1000
0100
0010
0001
1000
0010
,
0100
0001
1000
0100
0001
0100
0010
0000
,
0001
1000
1000
0001
1000
1000
0010
0100
,
0001
0000
1000
0000
1000
0000
0001
0000
1000
0000
1000
0000
0001
0000
0010
0100
,
0010
0000
0001
0000
1000
0000
0010
0100
0001
0000
1000
0000
1000
0000
0200
0000
,
0000
0000
0310
0000
0001
0000
1000
0010
1000
0010
1000
0000
0001
0000
0001
1000
,
0010
0010
0110
2002
0000
0000
3003
1020
,
0000
0000
0130
0000
0001
0000
1000
0100
0010
0000
0001
0000
1000
0000
0010
0000
,
0010
0000
1000
0000
0001
0000
0010
0100
1000
0000
0001
0000
0100
0000
0020
0000
,
0000
1030
0001
0010
1000
0010
0100
2000
,
0000
0000
3001
0000
0100
0000
0000
0100
0010
0000
1000
0000
0001
0000
0021
0000
,
0000
0000
0130
0000
1000
0000
0001
0100
0010
0000
1000
0000
0001
0000
0010
0000
,
0010
0000
0001
0000
1000
0000
0010
0100
0001
0000
1000
0000
0100
0000
0020
0000
,
0000
0031
1000
0010
0100
1000
0100
0002
,
0000
0000
1000
0000
1003
0000
0000
0100
0010
0000
0001
0000
0001
0000
0201
0000
,
0000
0000
0310
0000
1000
0000
0001
0010
0100
0000
1000
0000
1000
0000
0001
0100
,
0010
0000
0100
0000
0100
0000
0001
1000
0100
0000
0010
0000
0001
0000
0200
0000
,
0000
0310
1000
0001
0010
1000
0010
0002
,
0000
0000
1003
0000
0010
0000
0000
0010
0100
0000
0001
0000
1000
0000
1200
0000
,
0000
0000
0310
0000
0001
0000
1000
0010
0100
0000
0001
0000
0001
0000
1000
0100
,
0010
0000
0100
0000
0100
0000
1000
0001
0100
0000
0010
0000
1000
0000
0200
0000
,
0000
0310
0001
1000
0010
0001
0010
0200
,
0000
0000
0301
0000
1000
0000
0000
0100
0010
0000
0001
1000
0001
1000
0001
1000
,
0010
0000
0110
0000
0100
1000
0100
0002
,
0000
1000
1003
0000
0000
0000
0000
0000
,
1000
0001
1000
0001
0010
0000
0100
0010
0001
0000
1000
0000
0010
0000
0002
0000
,
0000
0000
0013
0000
0100
0000
0010
0000
1000
0000
0001
0000
0010
0100
1000
0000
,
0001
1000
0001
1000
0010
0000
0100
0010
1000
0000
0001
0000
0010
0000
2000
0000
,
0000
3010
0100
1000
0001
0100
0100
0000
,
0001
1000
0001
1000
0100
0000
0010
0100
1000
0000
0001
0000
0100
0000
2000
0000
,
0000
0000
3100
0000
0010
0000
0100
0000
0001
0000
1000
0000
0100
0010
0001
0000
,
1000
0001
1000
0001
0100
0000
0010
0100
0001
0000
1000
0000
0100
0000
0002
0000
,
0000
0000
0103
0000
0010
0000
0001
0000
1000
0010
0100
0001
1000
0000
0000
0000
,
0100
0000
0010
0100
0010
0000
0001
1000
0001
0000
0100
0000
0010
0000
2002
0000
,
0000
0000
0000
3003
,
0001
1000
0001
1000
0100
0010
0100
0010
0001
0000
0000
0000
1001
0000
2020
0000
,
0000
0000
0000
0000
,
0000
0000
0000
0000
,
0000
0000
0000
0000
,
0000
0000
0000
0000
,
0000
0000
0000
3030
;
