#VERSION:0.83;
#TITLE:Opaque Couché;
#SUBTITLE:;
#ARTIST:siqlo;
#TITLETRANSLIT:;
#SUBTITLETRANSLIT:;
#ARTISTTRANSLIT:;
#GENRE:;
#ORIGIN:;
#CREDIT:;
#BANNER:banner.png;
#BACKGROUND:bg.png;
#PREVIEWVID:;
#JACKET:jacket.jpg;
#CDIMAGE:;
#DISCIMAGE:;
#LYRICSPATH:;
#CDTITLE:;
#MUSIC:Opaque Couche.ogg;
#OFFSET:1.365000;
#SAMPLESTART:71.896004;
#SAMPLELENGTH:12.468000;
#SELECTABLE:YES;
#DISPLAYBPM:154.000000;
#BPMS:0.000=154.000,
250.000=30.800,
252.000=154.000;
#STOPS:;
#DELAYS:;
#WARPS:;
#TIMESIGNATURES:0.000=4=4;
#TICKCOUNTS:0.000=4;
#COMBOS:0.000=1;
#SPEEDS:0.000=1.000=0.000=0,
250.000=1.100=0.000=0,
250.021=1.000=0.000=0,
250.042=1.100=0.000=0,
250.063=1.000=0.000=0,
250.083=1.100=0.000=0,
250.104=1.000=0.000=0,
250.125=1.100=0.000=0,
250.146=1.000=0.000=0,
250.167=1.100=0.000=0,
250.188=1.000=0.000=0,
250.208=1.100=0.000=0,
250.229=1.000=0.000=0,
250.250=1.100=0.000=0,
250.271=1.000=0.000=0,
250.292=1.100=0.000=0,
250.313=1.000=0.000=0,
250.333=1.100=0.000=0,
250.354=1.000=0.000=0,
250.375=1.100=0.000=0,
250.396=1.000=0.000=0,
250.417=1.100=0.000=0,
250.438=1.000=0.000=0,
250.458=1.100=0.000=0,
250.479=1.000=0.000=0,
250.500=1.100=0.000=0,
250.521=1.000=0.000=0,
250.542=1.100=0.000=0,
250.563=1.000=0.000=0,
250.583=1.100=0.000=0,
250.604=1.000=0.000=0,
250.625=1.100=0.000=0,
250.646=1.000=0.000=0,
250.667=1.100=0.000=0,
250.688=1.000=0.000=0,
250.708=1.100=0.000=0,
250.729=1.000=0.000=0,
250.750=1.100=0.000=0,
250.771=1.000=0.000=0,
250.792=1.100=0.000=0,
250.813=1.000=0.000=0,
250.833=1.100=0.000=0,
250.854=1.000=0.000=0,
250.875=1.100=0.000=0,
250.896=1.000=0.000=0,
250.917=1.100=0.000=0,
250.938=1.000=0.000=0,
250.958=1.100=0.000=0,
250.979=1.000=0.000=0,
251.000=1.100=0.000=0,
251.021=1.000=0.000=0,
251.042=1.100=0.000=0,
251.063=1.000=0.000=0,
251.083=1.100=0.000=0,
251.104=1.000=0.000=0,
251.125=1.100=0.000=0,
251.146=1.000=0.000=0,
251.167=1.100=0.000=0,
251.188=1.000=0.000=0,
251.208=1.100=0.000=0,
251.229=1.000=0.000=0,
251.250=1.100=0.000=0,
251.271=1.000=0.000=0,
251.292=1.100=0.000=0,
251.313=1.000=0.000=0,
251.333=1.100=0.000=0,
251.354=1.000=0.000=0,
251.375=1.100=0.000=0,
251.396=1.000=0.000=0,
251.417=1.100=0.000=0,
251.438=1.000=0.000=0,
251.458=1.100=0.000=0,
251.479=1.000=0.000=0,
251.500=1.100=0.000=0,
251.521=1.000=0.000=0,
251.542=1.100=0.000=0,
251.563=1.000=0.000=0,
251.583=1.100=0.000=0,
251.604=1.000=0.000=0,
251.625=1.100=0.000=0,
251.646=1.000=0.000=0,
251.667=1.100=0.000=0,
251.688=1.000=0.000=0,
251.708=1.100=0.000=0,
251.729=1.000=0.000=0,
251.750=1.100=0.000=0,
251.771=1.000=0.000=0,
251.792=1.100=0.000=0,
251.813=1.000=0.000=0,
251.833=1.100=0.000=0,
251.854=1.000=0.000=0,
251.875=1.100=0.000=0,
251.896=1.000=0.000=0,
251.917=1.100=0.000=0,
251.938=1.000=0.000=0,
251.958=1.100=0.000=0,
251.979=1.000=0.000=0,
252.000=2.000=0.500=0,
252.500=1000000000.000=0.000=0,
252.979=2.000=0.000=0,
253.000=3.400=0.500=0,
253.500=1000000000.000=0.000=0,
253.979=3.400=0.000=0,
254.000=5.800=0.500=0,
254.500=1000000000.000=0.000=0,
254.979=5.800=0.000=0,
255.000=10.000=1.000=0;
#SCROLLS:0.000=1.000,
34.000=0.000,
35.000=0.500,
36.000=1.000,
250.000=0.500,
252.000=0.100;
#FAKES:;
#LABELS:0.000=Song Start;
#BGCHANGES:;
#KEYSOUNDS:;
#ATTACKS:
;

//---------------dance-single - ----------------
#NOTEDATA:;
#CHARTNAME:;
#STEPSTYPE:dance-single;
#DESCRIPTION:;
#CHARTSTYLE:;
#DIFFICULTY:Beginner;
#METER:7;
#RADARVALUES:0.264569,0.323021,0.100495,0.258416,0.000000,258.000000,244.000000,14.000000,36.000000,0.000000,0.000000,0.000000,0.000000,0.000000,0.264569,0.323021,0.100495,0.258416,0.000000,258.000000,244.000000,14.000000,36.000000,0.000000,0.000000,0.000000,0.000000,0.000000;
#CREDIT:Talkion;
#OFFSET:1.365000;
#BPMS:0.000000=154.000000
;
#STOPS:;
#DELAYS:;
#WARPS:;
#TIMESIGNATURES:0.000000=4=4
;
#TICKCOUNTS:0.000000=4
;
#COMBOS:0.000000=1
;
#SPEEDS:0.000000=1.000000=0.000000=0
;
#SCROLLS:0.000000=1.000000
;
#FAKES:;
#LABELS:0.000000=Song Start
;
#DISPLAYBPM:154.000000;
#NOTES:
// measure 0
0000
0000
0000
0000
,  // measure 1
0000
0000
0000
0000
,  // measure 2
0000
0000
0000
0000
,  // measure 3
0000
0000
0000
0000
,  // measure 4
0000
0000
0000
0000
,  // measure 5
2001
0000
3100
1002
,  // measure 6
0000
0100
1003
0000
,  // measure 7
2001
0000
3010
1002
,  // measure 8
0000
0010
1003
0000
,  // measure 9
2002
3003
0220
0330
,  // measure 10
2002
3003
0020
0030
,  // measure 11
1000
0010
0001
0100
,  // measure 12
2000
0000
0000
3000
,  // measure 13
1000
0000
0000
0000
,  // measure 14
0000
0000
0000
0000
,  // measure 15
0001
0100
0010
0000
,  // measure 16
1000
0020
0100
1030
,  // measure 17
0001
0001
0010
0000
,  // measure 18
0100
0010
2000
3010
,  // measure 19
0100
0100
0000
1000
,  // measure 20
0001
0200
0010
0301
,  // measure 21
1000
1000
0100
0100
,  // measure 22
0010
0010
0010
0010
,  // measure 23
0000
0100
0010
0000
,  // measure 24
0001
0020
0100
0031
,  // measure 25
1000
1000
0010
0000
,  // measure 26
0100
0010
0002
0013
,  // measure 27
0100
0100
0000
0001
,  // measure 28
1000
0200
0010
1300
,  // measure 29
0001
0001
0100
0000
,  // measure 30
0010
0010
0010
0000
,  // measure 31
1000
0001
0010
0001
,  // measure 32
1000
1000
2000
3000
,  // measure 33
0001
1000
0010
1000
,  // measure 34
0002
0013
2000
3010
,  // measure 35
0001
1000
0100
1000
,  // measure 36
0001
0001
0001
0100
,  // measure 37
0010
1000
0010
0100
,  // measure 38
0001
0001
0001
0000
,  // measure 39
1000
0100
0000
0100
,  // measure 40
0010
0001
0000
0001
,  // measure 41
2000
3010
0002
0013
,  // measure 42
1001
0000
0110
0000
,  // measure 43
0001
0010
0000
0010
,  // measure 44
0100
1000
0000
1000
,  // measure 45
0002
0103
2000
3100
,  // measure 46
1001
0000
1000
1000
,  // measure 47
0001
0010
0001
0010
,  // measure 48
0100
1000
0100
1000
,  // measure 49
0002
0103
2000
3100
,  // measure 50
0001
0001
0001
0001
,  // measure 51
1000
0100
1000
0100
,  // measure 52
0010
0001
0010
0001
,  // measure 53
2000
3010
0002
0013
,  // measure 54
1001
0000
0110
0000
,  // measure 55
1001
0000
0000
0000
,  // measure 56
0000
0000
0000
0000
,  // measure 57
0000
0000
0000
0000
,  // measure 58
0000
0000
0000
0000
,  // measure 59
0000
0000
0000
0000
,  // measure 60
0000
0000
0000
0000
,  // measure 61
0000
0000
0000
0000
,  // measure 62
0000
0000
0002
0000
,  // measure 63
0000
0000
0000
0000
,  // measure 64
0000
0000
0000
0000
,  // measure 65
0003
0000
0000
0000
,  // measure 66
1000
0100
0010
0100
,  // measure 67
1000
0100
0001
0100
,  // measure 68
1000
0001
0010
0001
,  // measure 69
1000
1000
1000
0000
,  // measure 70
0001
0100
0010
0100
,  // measure 71
0001
0100
1000
0100
,  // measure 72
0001
1000
0010
1000
,  // measure 73
0001
0001
0001
0000
,  // measure 74
1001
0000
0000
0000
,  // measure 75
0000
0000
0000
0000
,  // measure 76
1000
0100
0010
0001
,  // measure 77
1000
0100
0010
0001
,  // measure 78
1000
0010
0100
0001
,  // measure 79
1000
0010
0100
0001
,  // measure 80
1000
0100
0010
1000
,  // measure 81
0001
0100
0010
0001
,  // measure 82
1000
0010
0020
0030
,  // measure 83
0001
0010
0020
0030
,  // measure 84
1000
0010
0020
0030
,  // measure 85
1000
1000
1000
1000
,  // measure 86
0001
0100
0200
0300
,  // measure 87
1000
0100
0200
0300
,  // measure 88
0001
0100
0200
0300
,  // measure 89
0001
0001
0001
0001
,  // measure 90
1000
0000
0000
0000
;

//---------------dance-single - ----------------
#NOTEDATA:;
#CHARTNAME:;
#STEPSTYPE:dance-single;
#DESCRIPTION:;
#CHARTSTYLE:;
#DIFFICULTY:Easy;
#METER:11;
#RADARVALUES:0.466585,0.568516,0.416338,0.150743,0.032302,455.000000,397.000000,58.000000,21.000000,0.000000,0.000000,0.000000,0.000000,0.000000,0.466585,0.568516,0.416338,0.150743,0.032302,455.000000,397.000000,58.000000,21.000000,0.000000,0.000000,0.000000,0.000000,0.000000;
#CREDIT:Kingly;
#DISPLAYBPM:154.000000;
#NOTES:
0000
0000
0000
0000
,
0000
0000
0000
0000
,
0000
0000
0000
0000
,
0000
0000
0000
0000
,
0000
0000
0000
0000
,
1000
0000
0100
0000
0010
0000
0001
1000
,
0001
0000
0100
0000
0010
0100
0010
0000
,
1000
0000
0001
0000
0010
0000
0100
1000
,
0001
1000
0020
0000
,
0130
0001
1000
0000
0100
1000
0001
0000
,
0100
0001
1000
0000
0200
0000
0300
0000
,
0010
0001
0010
0001
1000
0010
1000
0010
,
0100
0000
0000
0000
,
0001
1000
0001
1000
,
0100
0010
0002
0003
,
1001
0000
0000
0000
1000
0000
0000
0100
0000
0000
1000
0000
0001
0000
0000
0000
,
0100
0010
1000
0000
0001
0000
0010
0000
,
0001
0000
1000
0010
1000
0000
0100
0000
,
0010
0001
0010
0000
0200
0000
1300
0001
,
1000
0000
0000
0000
0001
0000
0000
0100
0000
0000
0001
0000
1000
0000
0000
0000
,
0100
0010
0001
0000
1000
0000
0010
0000
,
1000
0000
0001
0010
0001
1000
0010
0000
,
0110
0000
0110
0000
1000
1000
0001
0001
,
0010
0000
0000
0000
0011
0000
0000
1000
0000
0000
0010
0000
0100
0000
0000
0000
,
0001
0010
0001
0000
1000
0000
0010
0000
,
0100
0000
0001
1000
0001
0010
0100
0000
,
1000
0010
1000
0000
0002
0000
0013
0100
,
1000
0000
0000
0000
1001
0000
0000
1001
0000
0000
0001
0000
0100
0000
0010
0000
,
1000
0000
0001
0100
0001
0000
1000
0000
,
0100
0000
0010
0001
0010
0100
1000
0000
,
0101
1001
1010
0110
,
0002
0000
1003
0100
0010
0100
1000
0100
,
0020
0032
0203
0320
,
2030
0000
3001
0100
0010
0100
0001
0100
,
0010
1010
0101
0011
,
1200
0000
0310
0001
0100
0001
0010
0001
,
1000
0010
1000
0010
0100
0000
0001
0010
,
0002
0000
2003
0000
3100
0010
0001
0010
,
0100
1100
0101
0110
,
1000
0100
0010
0002
0000
1003
0010
0000
,
1000
0100
0010
0002
0000
1003
0010
0000
,
0100
0001
1000
0000
0001
0010
0100
0000
,
1000
0000
0000
0010
0000
0000
1000
0000
0001
0000
0000
0010
0000
0000
0001
0000
,
1000
0010
0100
0002
0000
1003
0100
0000
,
1000
0010
0001
0020
0000
0130
0001
0000
,
1000
0100
0010
0000
0001
0100
0010
0000
,
1000
0000
0000
1000
0000
0000
1000
0000
0001
0000
0010
0000
0001
0000
0010
0000
,
0100
0000
1100
0000
0001
0100
0001
0000
,
0010
0000
0110
0000
1000
0001
1000
0000
,
0101
1100
0011
1010
,
0002
0000
0023
0000
0130
1000
0100
1000
,
0010
0000
1010
0000
0001
0010
0100
0000
,
1000
0000
1010
0000
0001
0100
0010
0000
,
1000
0001
0010
0000
0001
0100
1000
0100
,
0010
0000
0000
0010
0000
0000
0010
0000
1000
0000
0000
0001
0000
0000
1000
0000
,
0000
0000
0000
0000
,
0000
0000
0000
0000
,
0000
0000
0000
0000
,
0000
0000
0000
0000
,
0000
0000
0000
0000
,
0000
0000
0000
0000
,
0000
0000
0000
0000
,
0000
0000
0000
0000
,
0000
0000
0000
0000
,
1000
0001
0010
0000
0001
1000
0010
0000
,
1000
0001
0010
0000
1000
0010
0001
1000
,
0001
1000
0010
0000
1000
0001
0010
0000
,
0110
1100
0101
0110
,
1000
0100
0010
0000
0001
0100
0010
0000
,
1000
0100
0010
0000
1000
0010
0001
1000
,
0010
0100
0001
0000
0010
0100
1000
0000
,
1001
0101
0110
1001
,
1000
1000
1000
1000
,
1000
0000
1000
0000
0001
0010
0001
0010
,
0011
1100
0101
1010
,
0001
0010
0011
0000
1100
0000
0001
0100
,
0101
1010
0011
0110
,
1100
0000
1010
0000
1001
0000
0001
0100
,
0101
0110
1001
1100
,
0001
0100
0010
0100
1000
0100
0010
0100
,
0001
0000
1000
0100
1000
0000
0010
0000
,
0100
0001
0100
0000
0010
0000
1000
0001
,
1000
0000
0100
0000
0010
0001
0010
0000
,
0011
1100
0101
1010
,
0001
0000
0010
0100
0010
0000
0001
0000
,
1000
0010
0200
0000
0301
0000
1000
0100
,
1000
0000
0001
0000
0100
0010
0100
0010
,
1000
1010
0011
0110
,
1100
0000
0000
0000
;

//---------------dance-single - ----------------
#NOTEDATA:;
#CHARTNAME:;
#STEPSTYPE:dance-single;
#DESCRIPTION:;
#CHARTSTYLE:;
#DIFFICULTY:Medium;
#METER:13;
#RADARVALUES:0.588615,0.694853,0.466585,0.330199,0.200991,574.000000,509.000000,65.000000,46.000000,0.000000,0.000000,0.000000,0.000000,0.000000,0.588615,0.694853,0.466585,0.330199,0.200991,574.000000,509.000000,65.000000,46.000000,0.000000,0.000000,0.000000,0.000000,0.000000;
#CREDIT:Talkion;
#DISPLAYBPM:154.000000;
#NOTES:
0000
0000
0000
0000
,
0000
0000
0000
0000
,
0000
0000
0000
0000
,
0000
0000
0000
0000
,
0000
0000
0000
0000
,
1100
0100
0010
0100
0001
0000
1100
0100
,
1000
0001
0100
0010
2000
0000
0000
3000
,
0011
0010
0100
0010
1000
0000
0011
0010
,
0001
1000
0010
0100
0002
0000
0000
0000
,
1003
0100
0010
0100
0001
0100
0010
0100
,
1000
0010
0100
0010
0002
0000
0000
0013
,
2000
0000
0000
0000
,
3001
0000
0000
0000
0000
0000
1000
2100
,
3001
0001
0001
0001
,
0100
0000
0100
0000
0200
0320
0030
0000
,
1010
0000
0000
0000
1001
0000
0000
1000
0000
0000
0100
0000
1000
0000
0001
0000
,
0000
0010
0000
0010
0200
0000
0000
0000
0301
0000
0100
0000
0010
0000
0001
0000
,
1000
0000
1010
0000
0010
0100
0001
1000
,
0000
0100
0000
0100
0010
0000
0000
0000
0021
0000
0000
0000
0130
0000
0000
0000
,
1100
0000
0000
0000
1001
0000
0000
1000
0000
0000
0010
0000
1000
0000
0001
0000
,
0000
0100
0000
0100
0020
0000
0000
0000
0031
0000
0010
0000
0100
0000
0001
0000
,
1000
0000
1100
0000
0100
0010
0100
0010
,
0001
0100
0010
0100
0001
0001
1000
1000
,
0100
0000
0000
0000
1001
0000
0000
0001
0000
0000
0100
0000
0001
0000
1000
0000
,
0000
0010
0000
0010
0200
0000
0000
0000
1300
0000
0100
0000
0010
0000
1000
0000
,
0001
0000
0011
0000
0010
0100
1000
0001
,
0000
0100
0000
0100
0010
0000
0000
0000
1020
0000
0000
0000
0130
0000
0000
0000
,
0101
0000
0000
0000
1001
0000
0000
0001
0000
0000
0010
0000
0001
0000
1000
0000
,
0000
0100
0000
0100
0020
0000
0000
0000
1030
0000
0010
0000
0120
0000
0000
0000
,
0031
0000
0101
0000
0100
0010
1000
0001
,
0011
0000
1100
0000
1001
0000
0101
0100
,
0010
0000
0100
0000
0001
0000
0000
1001
0000
1001
0000
0000
1000
0000
0100
0000
,
0010
0100
2000
0000
3002
0000
0103
0010
,
0100
0000
0001
0000
1000
0000
0000
1100
0000
1100
0000
0000
0100
0000
0010
0000
,
0012
0000
0103
0010
2010
0000
3100
0000
,
0010
0000
0100
0000
1000
0000
0000
1001
0000
1001
0000
0000
0001
0000
0100
0000
,
0010
1000
0010
0100
0001
0000
0001
1000
,
0100
0000
1000
0000
0001
0000
0000
0101
0000
0101
0000
0000
0100
0000
0010
0000
,
1010
0101
1002
0013
,
0001
0000
1000
0000
0100
0000
0020
0000
0000
0000
0031
0000
1000
0100
1000
0000
,
0001
0000
0100
0000
0010
0000
1000
0001
0000
1000
0001
0000
0010
0000
0100
0000
,
0001
0100
0010
0000
0001
0100
0010
0000
,
1010
0000
0000
1002
0000
0000
0013
0000
0011
0000
0000
2001
0000
0000
3010
0000
,
1000
0000
0001
0000
0010
0000
0200
0000
0000
0000
1300
0000
0001
0010
0001
0000
,
1000
0000
0010
0000
0100
0000
0001
1000
0000
1000
0000
0000
0001
0000
0010
0000
,
1000
0010
0001
0000
1000
0010
0001
0000
,
0110
0000
0000
2001
0000
0000
3100
0000
0010
0000
0010
0000
0010
0000
0010
0000
,
0001
1000
0010
0100
0010
1000
1001
0001
,
1000
0100
0010
0001
1000
0001
0101
0100
,
1000
0100
0010
1000
0100
0010
1000
0010
,
0110
0000
0000
0000
1001
0000
0000
0000
1000
0100
1000
0000
0001
0100
0010
0000
,
1000
0001
0010
0100
0010
0001
1001
1000
,
0001
0100
0010
1000
0001
1000
1100
0100
,
0001
0100
1000
0001
1000
0010
0001
0010
,
1010
0000
0000
1002
0000
0000
0013
0000
0011
0000
0000
2001
0000
0000
3010
0000
,
0100
0000
0000
0000
,
0000
0000
0000
0000
,
0000
0000
0000
0000
,
0000
0000
0000
0000
,
0000
0000
0000
0000
,
0000
0000
0000
0000
,
0000
0000
0000
0000
,
0001
0001
0002
0000
,
0000
0000
0000
0000
0000
0000
0000
0003
,
1001
1000
0010
0100
1001
0001
0010
0100
,
1001
1000
0010
0100
1000
0100
0010
1000
,
1001
0001
0010
0100
1001
1000
0010
0100
,
0001
0000
1000
0100
1000
0000
0001
0100
0001
0000
1000
0100
0010
0000
0020
0000
,
0031
2000
3010
2000
3001
2000
3100
2000
,
3001
0200
0310
0200
1300
0200
0310
0200
,
0301
2000
3010
2000
3001
2000
3100
2000
,
3001
0000
0010
0100
0010
0000
0001
1000
0001
0000
0100
0010
0100
0000
0001
0000
,
1000
1000
1000
1000
,
1000
0000
1000
0000
1000
0100
0010
0001
,
1000
0001
0100
1000
0100
0001
0100
1000
,
0100
0100
0100
0010
1000
0001
0010
0010
,
0010
1000
0010
0001
0010
1000
0010
0001
,
0010
1000
0010
0001
0010
1000
0010
0010
,
0010
0100
1000
0001
0100
1000
0100
0001
,
1000
0000
0001
0010
0001
0000
1000
0010
1000
0000
0001
0010
0100
0000
1000
0000
,
1001
0000
0000
0000
0001
0000
0001
0000
0100
0010
0000
0100
0020
0000
0000
0000
,
1030
0000
0001
0000
1000
0000
1000
0000
0100
0010
0100
0000
2000
0000
0000
0000
,
3001
0000
0100
0000
0010
0000
0010
0000
1000
0001
0000
1000
0002
0000
0000
0000
,
0013
0011
1100
1001
,
1000
0000
0001
0000
1000
0000
1000
0000
0010
0100
0000
0010
0200
0000
0000
0000
,
0301
0000
1000
0000
0001
0000
0001
0000
0010
0100
0010
0000
0002
0000
0000
0000
,
1003
0000
0010
0000
0100
0000
0100
0000
0001
1000
0000
0001
2000
0000
0000
0000
,
3100
1100
0011
1001
,
0101
0000
0000
0000
;

//---------------dance-single - ----------------
#NOTEDATA:;
#CHARTNAME:;
#STEPSTYPE:dance-single;
#DESCRIPTION:;
#CHARTSTYLE:;
#DIFFICULTY:Hard;
#METER:15;
#RADARVALUES:0.737307,0.822357,0.437872,0.244060,0.656809,719.000000,658.000000,61.000000,34.000000,0.000000,0.000000,0.000000,0.000000,0.000000,0.737307,0.822357,0.437872,0.244060,0.656809,719.000000,658.000000,61.000000,34.000000,0.000000,0.000000,0.000000,0.000000,0.000000;
#CREDIT:Kingly;
#DISPLAYBPM:154.000000;
#NOTES:
0000
0000
0000
0000
,
0000
0000
0000
0000
,
0000
0000
0000
0000
,
0000
0000
0000
0000
,
0000
0000
0000
0000
,
1001
0000
0001
0100
0000
0001
0010
0000
0200
0000
0000
0000
1300
0001
1000
0000
,
0010
0000
1000
0100
0000
1000
0010
0000
0100
0000
0001
1000
0002
0000
0003
0000
,
1000
0000
0001
0010
0000
0001
0100
0000
0020
0000
0030
0000
1000
0001
1000
0000
,
0100
0000
1000
0010
0000
1000
0100
0000
0020
0000
0000
0000
0000
0000
0030
0000
,
0100
0000
1000
0001
0000
1000
0010
0000
0100
0000
0001
1000
0000
0001
0010
0000
,
0100
0000
1000
0001
0000
1000
0010
0000
0200
0000
0000
0000
0300
0000
0001
0000
,
1000
0100
1000
0000
0001
0100
0001
0000
1000
0010
1000
0000
0001
0010
0001
0000
,
0200
0000
0000
0000
0300
0000
0000
0000
0000
0000
0000
0000
0001
1000
0100
0000
,
0010
0001
0010
0001
1000
0010
1000
0010
,
0100
0001
0100
0001
2000
3200
0300
0000
,
1000
0010
0000
0000
1010
0000
0001
0010
0000
0001
0010
0000
0100
0000
1000
0000
,
0001
0100
0000
0001
2000
0000
0000
0000
3100
0010
0100
0000
1000
0010
1000
0000
,
0001
0010
0000
0001
0010
0000
0100
0000
1000
0001
1000
0000
0010
0000
0100
0000
,
0001
0010
0000
0001
2000
0000
0000
0000
3010
0200
0000
0000
0301
0000
1000
0000
,
0001
0010
0000
0000
0011
0000
0000
1100
0000
0000
0001
0000
0100
0000
0010
0000
,
1000
0100
0000
1000
0001
0000
1000
0010
1000
0000
0001
0010
0001
0000
0100
0000
,
0010
1000
0000
0000
1010
0000
0001
0000
0010
0100
1000
0000
0001
0000
1000
0000
,
0010
0000
0100
0001
0100
0000
0010
1000
0010
0000
0100
0000
0001
0000
0001
0000
,
1000
0100
0000
0000
1100
0000
0001
0100
0000
0001
0100
0000
0010
0000
1000
0000
,
0001
0010
0000
0001
2000
0000
0000
0000
3010
0100
0010
0000
1000
0100
1000
0000
,
0001
0100
0000
0001
0100
0000
0010
0000
1000
0001
1000
0000
0100
0000
0010
0000
,
0001
0100
0000
0001
2000
0000
0000
0000
3100
0020
0000
0000
0031
0000
1000
0000
,
0001
0100
0000
0000
0101
0000
0000
1010
0000
0000
0001
0000
0010
0000
0100
0000
,
1000
0010
0000
1000
0001
0000
1000
0100
1000
0000
0001
0100
0001
0000
0010
0000
,
0100
1000
0000
0000
1100
0000
0001
0000
0100
0010
1000
0000
0001
0000
2000
0000
,
0100
0000
0001
0000
3010
0100
0001
0001
,
1000
0100
0000
0000
1100
0000
0000
0001
0000
0100
0000
0001
1000
0000
0100
0000
,
0001
0000
0100
0000
0010
0000
0001
0000
1000
0010
1000
0000
0100
0000
0010
0000
,
0001
0100
0000
0000
0101
0000
0000
1000
0000
0100
0000
1000
0001
0000
0100
0000
,
1000
0100
0010
1000
2002
3003
2002
3003
,
0001
0010
0000
0000
0011
0000
0000
1000
0000
0010
0000
1000
0001
0000
0010
0000
,
1000
0000
0010
0000
0100
0000
1000
0000
0001
0100
0001
0000
0010
0000
0100
0000
,
1000
0010
0000
0000
1010
0000
0000
0001
0000
0010
0000
0001
1000
0000
0010
0000
,
0001
0010
0100
0001
1000
0100
0020
0000
,
0031
0000
0100
0000
0010
0000
2000
0000
3000
0001
0100
0001
1000
0000
0100
0000
,
0001
0000
0100
0000
0010
0000
0001
1000
0000
0001
1000
0000
0010
0100
0001
0000
,
1000
0100
0010
0001
0000
1000
0010
0000
1000
0100
0010
0001
0000
1000
0010
0100
,
0001
0000
0000
0011
0000
0000
1100
0000
1001
0000
0000
1010
0000
0000
0101
0000
,
1000
0000
0100
0000
0010
0000
0002
0000
0003
1000
0100
1000
0001
0000
0100
0000
,
1000
0000
0100
0000
0010
0000
1000
0001
0000
0010
0000
0001
1000
0000
0010
0000
,
0100
0001
0010
0000
0001
0000
1000
0000
0100
0010
0001
0000
0100
0010
1000
0000
,
1001
0000
0000
1100
0000
0000
0101
0000
1000
0000
1000
0000
1000
0000
1000
0000
,
1001
0000
0001
0000
0100
0000
0020
0000
0030
1000
0100
1000
0001
0000
0100
0000
,
0101
0000
0001
0000
0010
0000
0200
0000
0300
1000
0001
1000
0010
0000
0100
0000
,
0101
0001
1000
0100
1100
0001
1000
0010
,
1010
0000
0000
0000
0101
0000
0000
0000
1000
0100
1000
0100
0010
0000
0001
0000
,
1001
0000
1000
0000
0100
0000
0020
0000
0030
0001
0100
0001
1000
0000
0100
0000
,
1100
0000
1000
0000
0010
0000
0200
0000
0300
0001
1000
0001
0010
0000
0100
0000
,
1000
0010
1000
0000
0001
0000
0100
0000
0001
0010
0001
0000
0100
0010
1000
0100
,
0010
0000
0000
0011
0000
0000
1010
0000
1001
0000
0000
1100
0000
0000
0101
0000
,
2000
0000
0000
0000
,
0000
0000
0000
0000
,
0000
0000
0000
0000
,
0000
0000
0000
0000
,
0000
0000
0000
0000
,
0000
0000
0000
0000
,
0000
0000
0000
0000
0000
3000
0000
0000
,
0001
0010
0200
0000
,
0300
0000
0000
0000
,
1001
0000
1000
0100
0000
1000
0010
0000
0110
0000
0001
0100
0000
0001
0010
0000
,
0110
0000
1000
0100
0000
1000
0010
0000
0011
0000
1000
0100
0000
0100
0001
0000
,
1001
0000
0001
0010
0000
0001
0100
0000
0110
0000
1000
0010
0000
1000
0100
0010
,
0001
0000
1000
0010
0100
0000
0001
1000
0100
0000
0010
0001
0100
0000
0100
0000
,
1001
0000
0001
0100
0000
0001
0010
0000
0110
0000
1000
0100
0000
1000
0010
0000
,
0110
0000
0001
0100
0000
0001
0010
0000
1010
0000
0001
0100
0000
0100
1000
0000
,
1001
0000
1000
0010
0000
1000
0100
0000
0110
0000
0001
0010
0000
0001
0100
0010
,
1000
0000
0001
0010
0100
0000
1000
0001
0100
0000
0010
1000
0100
0000
0100
0000
,
0010
0010
0010
0010
,
0010
0000
0000
0000
0010
0000
0000
0000
0001
0100
0010
1000
0001
0100
0010
1000
,
0100
0000
0010
0001
0100
0000
0010
1000
0100
0000
0010
0001
0100
0000
0010
1000
,
0100
0000
0010
0000
0001
0000
0100
0001
0010
0000
0100
1000
0010
0000
0100
0000
,
0001
0000
0010
0001
0100
0000
0010
1000
0100
0000
0010
0001
0100
0000
0010
1000
,
0100
0000
0010
0001
0100
0000
0010
1000
0100
0000
0010
0001
0100
0000
0010
0000
,
1000
0000
0100
1000
0010
0000
0100
0001
0010
0000
0100
1000
0010
0000
1000
0100
,
0001
0000
1000
0010
0001
0000
1000
0100
0001
0000
1000
0010
0001
0000
1000
0000
,
1001
0000
0001
0100
0001
0000
1000
0000
0100
0000
0001
0000
0100
0000
0010
0000
,
0001
0100
0020
0000
2030
0000
0100
3100
,
1001
0000
0001
0100
0001
0000
0010
0000
0100
0000
0001
0000
0100
0000
1000
0000
,
1100
0011
1010
0110
,
1001
0000
1000
0100
1000
0000
0001
0000
0100
0000
1000
0000
0100
0000
0010
0000
,
1000
0100
0020
0000
0032
0000
0100
0103
,
1001
0000
1000
0100
1000
0000
0010
0000
0100
0000
1000
0000
0100
0000
0001
0000
,
0101
1010
0011
0110
,
2002
3003
0000
0000
0000
0000
0000
0000
;

//---------------dance-single - FS XO SS-----------------
#NOTEDATA:;
#CHARTNAME:;
#STEPSTYPE:dance-single;
#DESCRIPTION:FS XO SS-;
#CHARTSTYLE:;
#DIFFICULTY:Challenge;
#METER:17;
#RADARVALUES:0.862414,0.948200,0.473764,0.215347,1.109037,841.000000,775.000000,66.000000,30.000000,32.000000,0.000000,0.000000,0.000000,0.000000,0.862414,0.948200,0.473764,0.215347,1.109037,841.000000,775.000000,66.000000,30.000000,32.000000,0.000000,0.000000,0.000000,0.000000;
#CREDIT:Kingly & Talkion;
#DISPLAYBPM:154.000000;
#NOTES:
0000
0000
0000
0000
,
0000
0000
0000
0000
,
0000
0000
0000
0000
,
0000
0000
0000
0000
,
0000
0000
0000
0000
,
1000
0001
1000
0100
0000
0010
0100
0000
1001
0000
0000
0000
1000
0010
0100
0000
,
0001
0000
0010
0100
1000
0001
1000
0000
0010
0000
0010
0000
0100
0000
0100
0000
,
0001
1000
0001
0010
0000
0100
0010
0000
1001
0000
0000
0000
0001
0100
0010
0100
,
0001
0000
1000
0100
0010
0100
1000
0000
0020
0000
0000
0000
0000
0000
0000
0000
,
0130
0010
0100
0001
0000
0010
0100
0000
0010
0001
1000
0001
0000
0100
0010
0000
,
1000
0010
1000
0001
0000
0010
0100
0000
1000
0001
1000
0001
1000
0001
0200
0000
,
0310
1000
0001
1000
0100
0010
0001
1000
0001
0100
0010
1000
0100
0010
0001
0100
,
0010
0100
0001
0000
0010
0100
0000
0010
0001
0000
0100
0000
1000
0100
0001
0000
,
1000
0000
0100
0000
1000
0000
0100
0000
1000
0000
0100
0000
1000
0000
0100
0010
,
0001
1000
0001
1000
0020
0230
0300
0000
,
0001
0000
0010
0000
0000
0M00
0000
0000
1010
0000
0000
0000
0010
0000
0100
0000
0000
0000
0010
0000
1000
0000
0000
0000
0001
0000
0000
0000
0010
0000
0000
0000
,
0100
0001
0000
0100
0020
0000
0000
0000
1030
0010
0100
0000
1000
0001
1000
0000
,
0001
0100
00M0
0100
1000
0000
0100
0000
0010
0100
1000
0000
0001
0000
0100
0000
,
0010
0001
0000
0010
0200
0000
0301
0000
0010
0200
0000
0300
0010
0001
1000
0000
,
0001
0000
0010
0000
0000
0M00
0000
0000
1010
0000
0000
0000
0000
0000
0101
0000
0000
0000
0100
0000
0010
0000
0000
0000
1000
0000
0000
0000
0001
0000
0000
0000
,
0010
1000
0000
0010
0100
0000
0010
0001
1000
0010
0100
0000
0001
1000
0001
0000
,
1000
0100
00M0
0100
0001
0000
0100
0000
0010
0100
0001
0000
1000
0000
0001
0000
,
0010
0M00
0010
1000
0010
0M00
0010
0001
1000
0001
0100
0000
0110
0000
0110
0000
,
1000
0000
0010
0000
0000
0M00
0000
0000
0011
0000
0000
0000
0010
0000
0100
0000
0000
0000
0010
0000
0001
0000
0000
0000
1000
0000
0000
0000
0010
0000
0000
0000
,
0100
1000
0000
0100
0020
0000
0000
0000
0031
0010
0100
0000
0001
1000
0001
0000
,
1000
0100
00M0
0100
0001
0000
0100
0000
0010
0100
0001
0000
1000
0000
0100
0000
,
0010
1000
0000
0010
0200
0000
1300
0000
0010
0200
0000
0300
0010
1000
0001
0000
,
1000
0000
0010
0000
0000
0M00
0000
0000
0011
0000
0000
0000
0000
0000
1100
0000
0000
0000
0100
0000
0010
0000
0000
0000
0001
0000
0000
0000
1000
0000
0000
0000
,
0010
0001
0000
0010
0100
0000
0010
1000
0001
0010
0100
0000
1002
0000
0103
0000
,
0001
0100
00M0
0100
1000
0000
0100
0000
0010
0100
1000
0000
0001
0000
0100
0000
,
0110
0000
0010
0100
0001
0000
0010
0100
1000
0001
1000
0000
1010
0000
0101
0000
,
0001
0000
1000
0000
0100
0000
0010
0000
1000
0000
0000
000M
0000
0000
1100
0000
0000
0000
0101
0000
0000
0000
0100
0000
0010
0000
0000
0000
0100
0000
0000
0000
,
0001
0000
0100
0010
1000
0000
0100
0000
0010
0100
0001
0000
0100
0010
0001
0000
,
1000
0000
0001
0000
0100
0000
0010
0000
0001
0000
0000
M000
0000
0000
0101
0000
0000
0000
1100
0000
0000
0000
0100
0000
0010
0000
0000
0000
0100
0000
0000
0000
,
2000
3010
1100
0000
0012
0003
0101
0000
,
0100
0000
1000
0000
0000
000M
0000
0000
1010
0000
0000
0000
0000
0000
1001
0000
0000
0000
0011
0000
0000
0000
0010
0000
0100
0000
0010
0000
0001
0000
0000
0000
,
1000
0000
0010
0100
0010
0000
0100
0000
1000
0100
0010
0000
1000
0001
1000
0000
,
0100
0000
0001
0000
0000
M000
0000
0000
0011
0000
0000
0000
0000
0000
1001
0000
0000
0000
1010
0000
0000
0000
0010
0000
0100
0000
0000
0000
0001
0000
0000
0000
,
1001
0000
0110
0000
1002
0013
0100
0000
,
1000
0000
0001
0000
0100
0000
0020
0000
0000
1030
0001
1000
0100
0010
0100
1000
,
0001
0000
0100
0000
0010
0000
1000
0001
0000
0001
1000
0100
0010
0001
1000
0010
,
0100
0010
1000
0001
0000
0001
0010
0000
0100
0010
0001
1000
0000
1000
0010
0100
,
0001
0000
0010
1000
0000
1000
0010
0100
1000
0000
0010
0001
0000
0001
0010
0100
,
0001
0000
1000
0000
0100
0000
0020
0000
0000
0031
1000
0001
0100
0010
0100
0001
,
1000
0000
0100
0000
0001
0000
0100
0010
0000
0010
0000
0010
0001
1000
0100
1000
,
0001
0100
0010
0001
0000
1000
0100
0010
1000
0001
1000
0100
0010
0001
0010
0100
,
1000
0000
0000
1001
0000
0000
0102
0000
1000
0000
1000
0000
0010
0000
0013
0000
,
0011
0000
0001
0000
0100
0000
0120
0000
0030
1000
0001
1000
0100
0010
0100
1000
,
0001
0000
0100
0000
0010
0000
1020
0000
0000
1030
0001
0010
0100
1000
0001
0100
,
0010
0100
0001
1000
0100
0000
1000
0100
0010
0100
1000
0001
0100
0000
0010
0100
,
1000
0000
0100
0010
1000
0000
0000
0000
0001
0100
0001
1000
0001
0010
0100
1000
,
0001
0000
1000
0000
0010
0000
0120
0000
0000
1030
0001
0010
0001
1000
0100
0010
,
1000
0000
0010
0000
0100
0000
1200
0000
0000
1300
0001
0100
0010
1000
0001
0010
,
0100
0010
1000
0001
0000
0100
0010
0100
1000
0001
0100
0010
1000
0100
0010
0001
,
1000
0000
0000
1010
0000
0000
0101
0000
1001
0000
0000
0011
0000
0000
1100
0000
,
1001
0000
0000
0000
,
0000
0000
0000
0000
,
0000
0000
0000
0000
,
0000
0000
0000
0000
,
0000
0000
0000
0000
,
0000
0000
0000
0000
,
0000
0000
0000
0000
,
1000
1000
2000
0000
,
0000
0000
0000
0000
0000
0000
0000
3000
,
1010
0000
0010
1000
0100
0010
0001
0000
1010
0000
0010
1000
0100
0010
0001
0000
,
1010
0000
0010
1000
0100
0010
0100
0000
0101
0000
1000
0010
0000
0010
0001
0000
,
0011
0000
0010
0001
0000
0001
0100
0000
0011
0000
0010
0001
0000
0001
0100
0010
,
1000
0000
1000
0100
0010
0000
0010
0001
0100
0000
0100
0010
1000
0000
1000
0000
,
0101
0000
0100
0001
0010
0100
1000
0000
0101
0000
0100
0001
0010
0100
1000
0000
,
0101
0000
0100
0001
0010
0100
0010
0000
1010
0000
0001
0100
0000
0100
1000
0000
,
1010
0000
0010
1000
0000
1000
0100
0000
1010
0000
0010
1000
0000
1000
0100
0010
,
0001
0000
0001
0100
0010
0000
0010
1000
0100
0000
0100
0010
0001
0000
0001
0000
,
1000
1000
1000
1000
,
1000
0000
0000
0000
1000
0000
0000
0000
1000
0100
0010
0001
1000
0001
0100
0010
,
1000
0000
0010
1000
0100
00M0
0100
0001
0010
0M00
0010
1000
0100
00M0
0100
0001
,
0010
0001
1000
0010
0100
000M
0100
1000
0010
0M00
0010
0001
0100
0001
1000
0100
,
0010
000M
0010
1000
0100
00M0
0100
0001
0010
0M00
0010
1000
0100
00M0
0100
0001
,
0010
0M00
0010
1000
0100
00M0
0100
0001
0010
0M00
0010
1000
0100
1000
0001
0100
,
0010
M000
0010
0001
0100
00M0
0100
1000
0010
0M00
0010
0001
0100
00M0
0100
1000
,
0010
0000
1000
0010
0001
0M00
0001
0100
1000
00M0
1000
0010
0100
0000
0001
0000
,
1001
0000
1000
0000
0100
0001
0100
0010
0100
1000
0000
1000
0002
0000
0013
0000
,
0001
0000
0100
0000
1000
0100
0010
0100
0001
1000
0010
0100
0002
0000
1003
0000
,
0100
0000
0010
0000
1000
0010
0100
0010
0001
1000
0000
1000
0002
0000
0103
0000
,
0101
1001
1100
0011
,
1001
0000
0001
0000
0100
1000
0100
0010
0100
0001
0000
0001
2000
0000
3010
0000
,
1000
0000
0100
0000
0001
0100
0010
0100
1000
0001
0010
0100
2000
0000
3001
0000
,
0100
0000
0010
0000
0001
0010
0100
0010
1000
0001
0000
0001
2000
0000
3100
0000
,
1100
1001
0101
1010
,
2002
3003
0000
0000
0000
0000
0000
0000
0000
0000
0000
0000
0000
0000
0000
0000
;
