#VERSION:0.83;
#TITLE:Only You;
#SUBTITLE:;
#ARTIST:HyeNRG;
#TITLETRANSLIT:;
#SUBTITLETRANSLIT:;
#ARTISTTRANSLIT:;
#GENRE:RAVE BREAKS;
#ORIGIN:;
#CREDIT:;
#BANNER:;
#BACKGROUND:;
#PREVIEWVID:;
#JACKET:;
#CDIMAGE:;
#DISCIMAGE:;
#LYRICSPATH:;
#CDTITLE:;
#MUSIC:onlyyou.ogg;
#OFFSET:-0.052085;
#SAMPLESTART:38.120998;
#SAMPLELENGTH:13.241000;
#SELECTABLE:YES;
#BPMS:0.000=145.005;
#STOPS:;
#DELAYS:;
#WARPS:;
#TIMESIGNATURES:0.000=4=4;
#TICKCOUNTS:0.000=4;
#COMBOS:0.000=1;
#SPEEDS:0.000=1.000=0.000=0;
#SCROLLS:0.000=1.000;
#FAKES:;
#LABELS:0.000=Song Start;
#BGCHANGES:;
#KEYSOUNDS:;
#ATTACKS:
;

//---------------dance-single - ----------------
#NOTEDATA:;
#CHARTNAME:;
#STEPSTYPE:dance-single;
#DESCRIPTION:;
#CHARTSTYLE:;
#DIFFICULTY:Hard;
#METER:14;
#RADARVALUES:0.503043,0.829162,0.321030,0.240773,0.426369,351.000000,319.000000,32.000000,24.000000,6.000000,0.000000,0.000000,0.000000,0.000000,0.503043,0.829162,0.321030,0.240773,0.426369,351.000000,319.000000,32.000000,24.000000,6.000000,0.000000,0.000000,0.000000,0.000000;
#CREDIT:TonyAkita;
#NOTES:
0000
0000
0000
0000
,
0000
0000
0000
0000
,
0000
0000
0000
0000
,
0000
0000
0000
0000
,
1000
0020
0000
0001
0000
1000
0030
0010
,
0100
0002
0000
0010
0000
1000
0000
0010
,
0013
0000
0000
0000
1100
0000
0000
0001
0000
0000
1000
0000
0101
0000
0000
0000
,
0010
0000
0000
0000
1100
0000
0000
0000
1000
0000
0001
0000
1000
0001
1000
0001
,
0020
0000
0000
0000
,
0032
0000
0000
0000
,
2003
0000
0000
0000
,
3020
0000
0000
0000
,
0230
0000
0000
0000
,
0302
0000
0000
0000
,
2003
0000
0000
3000
,
0220
0000
0330
0000
,
0011
0000
0000
0000
1000
0000
0000
0100
0000
0000
1000
0000
0000
0010
0000
0000
,
0101
0000
0000
0000
0100
0000
0000
1000
0000
0000
0100
0000
0000
0001
0000
0000
,
0101
0000
0000
0000
0001
0000
0000
0100
0000
0000
0001
0000
0000
0010
0000
0000
,
1100
0000
0000
0000
0100
0000
0000
0001
0000
0000
0100
0000
0000
1000
0000
0000
,
1100
0000
0000
0000
0001
0000
0000
0100
0000
0000
1000
0000
0000
0100
0000
0000
,
0101
0000
0000
0000
1000
0000
0000
0100
0000
0000
0001
0000
0000
0100
0000
0000
,
1100
0000
0000
0000
0001
0000
0000
0100
0000
0000
0010
0000
0000
1000
0000
0000
,
2002
0000
3003
0000
,
1010
0000
0000
0000
0010
0000
0100
0001
0000
0100
0001
0000
0010
0100
0000
0000
,
1100
0000
0000
0000
1000
0000
0001
0100
0000
0001
0100
0000
0010
1000
0000
0000
,
0011
0000
0000
0000
0010
0000
0100
1000
0000
0100
1000
0000
0010
0100
0000
0000
,
0101
0000
0000
0000
0001
0000
1000
0100
0000
1000
0100
0000
0010
0001
0000
0000
,
1010
0000
0000
0000
0001
0000
0100
0010
0000
0100
0001
0000
1000
0100
0000
0000
,
0011
0000
0000
0000
1000
0000
0100
0010
0000
0100
1000
0000
0001
0100
0000
0000
,
0020
0000
0000
0000
1000
0000
0000
1030
0000
0000
0001
0000
0101
0000
0000
0000
,
0020
0000
0000
0000
0001
0000
0000
0031
0000
0000
1000
0000
2200
0000
0000
0000
,
3300
0000
0000
0000
1010
0000
0100
0001
0000
0001
0010
0000
1000
0000
0010
0000
,
0001
0000
1000
0000
0100
0000
0001
0100
0000
0010
0100
0000
2200
0000
0000
0000
,
3300
0000
0000
0000
0011
0000
0100
1000
0000
1000
0010
0000
0001
0000
0010
0000
,
1000
0000
0001
0000
0100
0000
1000
0100
0000
0010
0100
0000
0101
0000
0000
0000
,
0001
M010
0010
1000
001M
0010
0001
1000
,
0001
M100
0100
1000
010M
0100
0001
1000
,
0100
M001
0001
0100
100M
1000
0100
0010
,
0001
0000
1000
0010
0100
0000
0001
0000
1000
0000
0001
0000
1001
0000
0000
0000
,
1000
0000
0001
0000
0010
0000
0100
0001
0000
1000
0010
0000
0001
0000
0100
0010
,
1000
0000
0010
0000
0001
0010
0000
0100
0000
0001
1000
0000
0100
0000
1000
0000
,
0001
0000
0100
0000
0010
0001
0000
1000
0000
0100
0001
0000
0010
0000
0100
1000
,
0010
0000
0001
0010
0000
0100
0010
0000
1000
0010
0000
0100
0001
0010
0100
1000
,
0001
0100
0001
0000
1000
0100
1000
0000
0001
1000
0001
1000
0000
0010
0100
0000
,
0001
0000
0010
1000
0000
0010
0001
0000
1000
0100
1000
0000
0001
0100
0001
0000
,
1000
0100
1000
0100
1000
0001
1000
0001
1000
0010
1000
0010
0100
0001
0010
0100
,
1000
0010
0100
0000
1000
0000
0100
0000
0001
0000
0010
0000
0100
0000
0000
0000
,
1000
0020
0000
0001
0000
1000
0030
0010
,
0100
0002
0000
0010
0000
1000
0000
0010
,
0013
0000
0000
0000
1100
0000
0000
0001
0000
0000
1000
0000
0101
0000
0000
0000
,
0010
0000
0000
0000
1100
0000
0000
1000
0000
0000
0001
0000
0011
0000
0000
0000
,
0001
0020
0000
1000
0000
0001
0030
0010
,
0100
2000
0000
0010
0000
0001
0000
0010
,
3010
0000
0000
0000
0101
0000
0000
1000
0000
0000
0001
0000
1100
0000
0000
0000
,
0010
0000
0000
0000
0101
0000
0000
0000
0001
0000
1000
0000
0001
1000
0001
1000
,
0020
0000
0000
0000
,
0030
0000
0000
0000
;

//---------------dance-single - ----------------
#NOTEDATA:;
#CHARTNAME:;
#STEPSTYPE:dance-single;
#DESCRIPTION:;
#CHARTSTYLE:;
#DIFFICULTY:Medium;
#METER:11;
#RADARVALUES:0.391256,0.486060,0.260837,0.190612,0.170547,273.000000,247.000000,26.000000,19.000000,4.000000,0.000000,0.000000,0.000000,0.000000,0.391256,0.486060,0.260837,0.190612,0.170547,273.000000,247.000000,26.000000,19.000000,4.000000,0.000000,0.000000,0.000000,0.000000;
#CREDIT:TonyAkita;
#NOTES:
// measure 0
0000
0000
0000
0000
,  // measure 1
0000
0000
0000
0000
,  // measure 2
0000
0000
0000
0000
,  // measure 3
0000
0000
0000
0000
,  // measure 4
2000
0010
0000
0010
0000
3010
0000
0100
,  // measure 5
0002
0010
0000
0010
0000
0013
0000
0000
,  // measure 6
1100
0000
0000
0000
1001
0000
0000
0001
0000
0000
1000
0000
0010
0000
0000
0000
,  // measure 7
0101
0000
1001
0000
0001
1000
0001
1000
,  // measure 8
0020
0000
0000
0000
,  // measure 9
2030
0000
0000
0000
,  // measure 10
3002
0000
0000
0000
,  // measure 11
0023
0000
0000
0000
,  // measure 12
0230
0000
0000
0000
,  // measure 13
2300
0000
0000
0000
,  // measure 14
3002
0000
0000
0003
,  // measure 15
0220
0000
0330
0000
,  // measure 16
1010
0000
0000
0000
1000
0000
0000
0100
0000
0000
1000
0000
0000
0100
0000
0000
,  // measure 17
0010
0000
0000
0000
0001
0000
0000
0100
0000
0000
0001
0000
0000
0100
0000
0000
,  // measure 18
0010
0000
0000
0000
1000
0000
0000
0010
0000
0000
1000
0000
0000
0100
0000
0000
,  // measure 19
0010
0000
0000
0000
0001
0000
0000
0010
0000
0000
0001
0000
0000
0100
0000
0000
,  // measure 20
0010
0000
0000
0000
1000
0000
0000
0010
0000
0000
0001
0000
0000
0010
0000
0000
,  // measure 21
1000
0000
0000
0000
0001
0000
0000
0010
0000
0000
1000
0000
0000
0010
0000
0000
,  // measure 22
0001
0000
0000
0000
1000
0000
0000
0010
0000
0000
0100
0000
0000
0001
0000
0000
,  // measure 23
0020
0000
0030
0000
,  // measure 24
0001
0000
0010
0000
0001
0000
0000
1000
0000
0000
1000
0000
1100
0000
0000
0000
,  // measure 25
1000
0000
0010
0000
1000
0000
0000
0001
0000
0000
0001
0000
0101
0000
0000
0000
,  // measure 26
1000
0000
0001
0000
0010
0000
0000
0100
0000
0000
0100
0000
1100
0000
0000
0000
,  // measure 27
0001
0000
1000
0000
0010
0000
0000
0100
0000
0000
0100
0000
0101
0000
0000
0000
,  // measure 28
1000
0000
0100
0000
0001
0000
0000
0100
0000
0000
0100
0000
0110
0000
0000
0000
,  // measure 29
0001
0000
0100
0000
1000
0000
0000
0100
0000
0000
0100
0000
0110
0000
0000
0000
,  // measure 30
2000
0000
0000
3001
0010
0000
1100
0000
,  // measure 31
0002
0000
0000
1003
0010
0000
0000
0000
,  // measure 32
0101
0000
0000
0000
1000
0000
0000
0100
0000
0000
1000
0000
0010
0000
0000
0000
,  // measure 33
0101
0000
0000
0000
0001
0000
0000
0100
0000
0000
0001
0000
0010
0000
0000
0000
,  // measure 34
1100
0000
0000
0000
1000
0000
0000
0010
0000
0000
0001
0000
0010
0000
0000
0000
,  // measure 35
0101
0000
0000
0000
0001
0000
0000
0010
0000
0000
0100
0000
1000
0000
0000
0000
,  // measure 36
1000
001M
0000
M010
0001
0000
0001
1000
,  // measure 37
0001
M100
0000
010M
1000
0000
0001
0100
,  // measure 38
0010
1000
0000
0001
1000
0000
0100
0010
,  // measure 39
0001
1000
0000
0001
0001
0001
0011
0000
,  // measure 40
1000
0000
0010
0000
0001
0000
0000
0010
0000
0000
0100
0000
0001
0000
1000
0000
,  // measure 41
0100
0000
0001
0000
0100
0000
0000
0010
0000
0000
0001
0000
1000
0000
0000
0000
,  // measure 42
0001
0000
0100
0000
1000
0000
0000
0100
0000
0000
0010
0000
1000
0000
0001
0000
,  // measure 43
0010
0000
0000
1000
0000
0000
0010
0000
0000
0100
0000
0000
0010
0000
0001
0000
,  // measure 44
1000
0010
0001
0010
0100
0001
0010
0100
,  // measure 45
1000
0000
0000
1000
0000
0000
1000
0000
0001
0000
0100
0000
0010
0000
1000
0000
,  // measure 46
0001
0010
0001
1000
0001
0100
0010
1000
,  // measure 47
0001
0010
0100
1000
0010
0010
0010
0000
,  // measure 48
2000
0010
0000
0010
0000
3010
0000
0100
,  // measure 49
0002
0010
0000
0010
0000
0013
0000
0000
,  // measure 50
1100
0000
0000
0000
1001
0000
0000
0001
0000
0000
1000
0000
0010
0000
0000
0000
,  // measure 51
0101
0000
0000
0000
1001
0000
0000
1000
0000
0000
0001
0000
0010
0000
0000
0000
,  // measure 52
0200
1000
0000
1000
0000
1300
0000
1000
,  // measure 53
0002
0100
0000
0100
0000
0103
0000
0000
,  // measure 54
1010
0000
0000
0000
1001
0000
0000
0001
0000
0000
1000
0000
0100
0000
0000
0000
,  // measure 55
0011
0000
1001
0000
1000
0001
1000
0001
,  // measure 56
0020
0000
0000
0000
,  // measure 57
0030
0000
0000
0000
;
