#TITLE:On The Floor (CupcakKe Remix) ;
#SUBTITLE:;
#ARTIST:Jennifer Lopez ft. Pitbull ;
#TITLETRANSLIT:;
#SUBTITLETRANSLIT:;
#ARTISTTRANSLIT:;
#GENRE:;
#CREDIT:#yass queen cupcakKe;
#MUSIC:On the Floor (CupcakKe Remix).ogg;
#BANNER:On The Floor (CupcakKe Remix).png;
#BACKGROUND:On The Floor (CupcakKe Remix) bg.png;
#CDTITLE:;
#SAMPLESTART:94.193;
#SAMPLELENGTH:14.769;
#SELECTABLE:YES;
#OFFSET:-0.039;
#BPMS:0.000=130.000;
#STOPS:;
#BGCHANGES:;
#FGCHANGES:;

//--------------- dance-single - female dogs ----------------
#NOTES:
     dance-single:
     female dogs:
     Hard:
     13:
     0,0,0,0,0:
0000
0000
0000
0000
,
0000
0000
0000
0000
,
0000
0000
0000
0000
,
0000
0000
0000
0000
,
0000
0000
0000
0000
,
2000
0000
0000
3100
1000
0100
0020
0000
,
0031
0100
0010
1000
0100
1000
0010
0100
,
0002
0000
0000
1000
0000
0000
1003
0000
0000
0000
0010
0000
1000
0000
0100
0000
,
2000
0000
0000
0010
0000
0000
3010
0000
0000
0000
0100
0000
0010
0000
1000
0000
,
0100
0000
0000
1000
0000
0000
1000
0000
0000
0000
0100
0000
0010
0000
0001
0000
,
0010
0000
0000
0100
0000
0000
0100
0000
0000
0000
0010
0000
0001
0000
0100
0000
,
0010
0000
1000
0010
0100
0000
0010
0100
,
0001
0000
0000
0010
0000
0000
0010
0000
0000
0000
0001
0000
1000
0000
0001
0000
,
0100
0000
0000
0100
0000
0000
0010
0000
0200
0000
0000
0000
0000
0000
0000
0000
,
0310
0000
0000
0000
0110
0000
0000
0000
1001
0000
0000
0000
1100
0000
1000
0100
,
1000
0000
0100
0010
0100
0000
0010
0001
1000
0000
1000
0000
0001
0000
0100
0010
,
0100
0000
0001
1000
0001
0000
0100
0010
0100
0000
0001
0000
0001
0000
0010
0001
,
0100
0000
0010
1000
0010
0000
1000
0100
1000
0000
M0MM
0000
0100
0000
1000
0001
,
1000
0000
0010
0100
0001
0000
1000
0010
1000
0000
0001
0000
1001
0000
0000
0000
,
1000
0001
0000
1000
0001
0000
0100
0000
0010
0000
1000
0100
0000
1000
0100
0000
,
1000
0000
0001
0100
0000
0001
0100
0000
0001
0000
1000
0010
0000
1000
0000
0000
,
0010
0000
0000
1000
0000
0001
0010
0000
0001
0000
0010
0100
0000
0100
0000
0000
,
1000
0010
0100
0000
0010
0000
1000
0100
1000
0000
0001
0100
0000
0001
0100
0000
,
0010
0000
0100
0002
0000
0000
0013
0000
0001
0000
0001
2000
0000
0000
3001
0000
,
0100
0000
0010
0200
0000
0000
0301
0000
1000
0000
0010
0200
0000
0000
0310
0000
,
1000
0010
2000
0000
3100
1000
M2M0
0000
,
0310
0000
0001
0000
0100
0000
0001
0000
0010
0001
0000
1000
0100
0000
1000
0000
,
0001
0100
0000
0010
0100
0000
0010
0000
1000
0100
0000
0100
0000
0000
1000
0000
,
0001
0100
0001
0000
1000
0001
1000
0000
0100
0010
0000
0010
0000
0000
0100
0000
,
1000
0000
0000
0010
0000
0000
0100
0000
0010
0000
0100
0001
0000
0000
0010
0000
,
0001
0000
0100
0010
0000
0000
1000
0000
0100
0000
0010
0001
0000
0000
1000
0000
,
0010
1000
0000
0010
1000
0000
0100
0000
0010
0000
0000
0110
0000
0000
0001
0000
,
0100
0010
0000
0100
0010
0000
1000
0000
0010
0000
0000
1001
0000
0000
1000
0000
,
0010
0100
0000
0010
0100
0000
0001
0000
1000
0000
0000
1100
0000
0000
0100
0000
,
1000
0100
0000
1000
0100
0000
0010
0000
0100
0000
0000
0011
0000
0000
0010
0000
,
0001
0000
0000
0100
0000
0000
0010
0000
0100
0000
0000
0000
0101
0000
0000
0000
,
1000
0000
0000
0010
0000
0000
1000
0000
0100
0000
0000
0000
1010
0000
0000
0000
,
1000
0000
0001
1000
0000
0000
0010
0000
0100
0000
0000
0010
0000
0000
0100
0000
,
0001
0000
0010
0001
0000
0000
0010
0000
0100
0000
0000
0000
0010
0000
0001
0000
,
0200
0000
0000
0000
,
0000
0000
0000
0300
,
0020
0000
0000
1030
0100
0001
0100
0000
,
1000
0010
0110
0100
0001
1000
0001
1000
,
0010
0000
0000
0100
0000
0000
0100
0000
0000
0000
0010
0000
0000
0000
1000
0000
,
0100
0000
0000
0010
0000
0000
0010
0000
0000
0000
0001
0000
0000
0000
0000
0000
,
0200
0000
0000
0301
0100
1000
0100
0000
,
0001
0010
0010
0100
1000
0100
0100
0010
,
0001
0000
0000
1000
0000
0000
1000
0000
0000
0000
0010
0000
0000
0000
0100
0000
,
0010
0000
0000
1000
0000
0000
1000
0000
0000
0000
0001
0000
0000
0000
1000
0000
,
0010
1000
1010
0000
0001
0100
0101
0000
,
0001
0010
0011
0000
0001
0100
0101
0000
,
0002
0000
0000
0203
2300
3200
0302
0000
,
2003
3200
0302
0203
2300
3020
0032
0023
,
1030
0010
0100
1000
0100
0001
1000
0010
,
M2M0
0000
0000
0310
0000
0000
0100
0000
0110
0000
0000
0000
0010
0100
0010
0000
,
2000
0000
0000
3020
0032
0023
2030
0000
,
3002
0023
2030
3020
0032
0203
2300
3200
,
0301
0100
0010
0001
0010
1000
0001
0100
,
0M2M
0000
0000
0130
0000
0000
0010
0000
0110
0000
0000
0000
0100
0010
0100
0000
,
0002
0000
0000
0203
2300
3002
0023
0000
,
2030
3002
0203
2300
3002
0023
2030
3020
,
0230
0302
1003
0100
0010
1000
0010
0001
,
M2M0
0000
0000
0310
0000
0000
0100
0000
0101
0000
0000
0000
0001
1000
0001
0000
,
2000
0000
0000
3020
0032
2003
3200
0000
,
0302
2003
3020
0032
2003
3200
0302
0203
,
0320
2030
3001
0010
0100
0001
0100
1000
,
0M2M
0000
0000
0130
0000
0000
0010
0000
2020
0000
0000
0000
0000
0000
0000
0000
,
0000
0000
0000
0000
,
3030
0000
0000
0000
;
