#VERSION:0.83;
#TITLE:OBEY;
#SUBTITLE:;
#ARTIST:N O W A V E;
#TITLETRANSLIT:;
#SUBTITLETRANSLIT:;
#ARTISTTRANSLIT:;
#GENRE:;
#ORIGIN:;
#CREDIT:;
#BANNER:bn.png;
#BACKGROUND:bg.png;
#PREVIEWVID:;
#JACKET:jacket.png;
#CDIMAGE:;
#DISCIMAGE:;
#LYRICSPATH:;
#CDTITLE:cdtitle.png;
#MUSIC:OBEY.ogg;
#OFFSET:0.000000;
#SAMPLESTART:10.084999;
#SAMPLELENGTH:10.740017;
#SELECTABLE:YES;
#DISPLAYBPM:95.000000;
#BPMS:0.000=95.000,
51.500=190.000,
52.000=95.000,
95.250=190.000,
96.000=95.000,
131.250=190.000,
132.000=95.000,
303.000=190.000,
304.000=95.000,
304.688=190.000,
305.000=95.000;
#STOPS:51.500=0.020,
51.562=0.020,
51.625=0.020,
51.688=0.020,
51.750=0.020,
51.812=0.020,
51.875=0.020,
51.938=0.020,
95.250=0.079,
95.500=0.079,
95.750=0.079,
131.250=0.079,
131.500=0.079,
131.750=0.079,
303.000=0.020,
303.062=0.020,
303.125=0.020,
303.188=0.020,
303.250=0.039,
303.375=0.039,
303.500=0.039,
303.625=0.039,
303.750=0.039,
303.875=0.039,
304.688=0.020,
304.750=0.020,
304.812=0.019,
304.875=0.020,
304.938=0.020;
#DELAYS:;
#WARPS:23.021=4.000,
27.125=4.000,
31.250=4.000,
35.375=4.000,
39.500=4.000,
59.021=4.000,
63.125=4.000,
67.250=4.000,
71.375=4.000,
75.500=4.000,
107.021=4.000,
111.125=4.000,
115.250=4.000,
119.375=4.000,
123.500=4.000,
140.021=4.000,
171.521=4.000,
175.625=4.000,
187.521=4.000,
191.625=4.000,
206.521=4.000,
210.625=4.000,
215.750=4.000,
219.875=4.000,
235.021=4.000,
239.125=4.000,
243.250=4.000,
247.375=4.000,
251.500=4.000,
271.021=4.000,
275.125=4.000,
279.250=4.000,
283.375=4.000,
287.500=4.000,
305.750=4.000,
309.875=4.000;
#TIMESIGNATURES:0.000=4=4;
#TICKCOUNTS:0.000=4;
#COMBOS:0.000=1;
#SPEEDS:0.000=1.000=0.000=0,
23.000=0.250=0.000=0,
43.500=1.000=0.000=0,
51.500=0.750=0.000=0,
51.750=1.000=0.000=0,
59.000=0.250=0.000=0,
79.500=1.000=0.000=0,
107.000=0.250=0.000=0,
127.500=1.000=0.000=0,
140.000=0.250=0.000=0,
143.500=1.000=0.000=0,
172.000=0.250=0.000=0,
179.500=1.000=0.000=0,
187.500=0.250=0.000=0,
195.500=1.000=0.000=0,
206.500=0.250=0.000=0,
214.500=1.000=0.000=0,
215.750=0.250=0.000=0,
223.750=1.000=0.000=0,
228.500=3.000=0.947=1,
230.000=1.000=0.750=1,
235.000=0.250=0.000=0,
255.500=1.000=0.000=0,
271.000=0.250=0.000=0,
291.500=1.000=0.000=0,
303.000=0.750=0.000=0,
304.000=1.000=0.000=0,
304.688=0.500=0.000=0,
305.000=1.000=0.000=0,
305.750=0.250=0.000=0,
313.750=1.000=0.000=0;
#SCROLLS:0.000=1.000,
52.000=0.500,
53.000=1.000,
84.000=0.500,
88.000=1.000,
100.000=0.333,
101.000=1.000,
103.000=0.750,
103.500=0.500,
104.000=1.000,
136.000=1.250,
136.500=1.000,
152.000=0.500,
168.000=1.000,
267.000=0.500,
268.000=1.000;
#FAKES:23.021=20.479,
52.021=0.021,
53.021=0.021,
59.021=20.479,
84.021=0.021,
88.021=0.021,
100.021=0.021,
101.021=0.021,
103.021=0.021,
103.521=0.021,
104.021=0.021,
107.021=20.479,
136.021=0.021,
136.521=0.021,
152.021=0.021,
152.250=7.500,
160.250=7.250,
168.021=0.021,
171.521=7.979,
187.521=7.979,
206.521=7.979,
215.521=7.479,
235.021=20.479,
267.021=0.021,
268.021=0.021,
271.021=20.479,
303.000=0.938,
304.688=0.271,
305.750=8.000,
330.750=4.000;
#LABELS:0.000=Song Start;
#BGCHANGES:;
#KEYSOUNDS:;
#ATTACKS:
;

//---------------dance-single - ----------------
#NOTEDATA:;
#CHARTNAME:;
#STEPSTYPE:dance-single;
#DESCRIPTION:;
#CHARTSTYLE:;
#DIFFICULTY:Hard;
#METER:13;
#RADARVALUES:0.526016,1.247377,0.389773,0.058051,1.928133,444.000000,397.000000,47.000000,7.000000,0.000000,0.000000,0.000000,0.000000,856.000000,0.526016,1.247377,0.389773,0.058051,1.928133,444.000000,397.000000,47.000000,7.000000,0.000000,0.000000,0.000000,0.000000,856.000000;
#CREDIT:pinklemonade;
#DISPLAYBPM:95.000000;
#NOTES:
// measure 0
0000
0000
0000
0000
,  // measure 1
0000
0000
0000
0000
,  // measure 2
0000
0000
0000
0000
,  // measure 3
0000
0000
0000
0000
,  // measure 4
1001
0000
0000
0000
1000
0000
0001
0010
0000
0010
0001
0000
0100
0010
0000
0000
,  // measure 5
0100
0000
0000
0000
0000
0000
0000
0000
0000
0000
0000
0000
0010
0000
0000
0000
0000
0000
0000
0000
0000
0000
0000
0000
0001
0000
0000
0000
0000
0000
0000
0000
0000
0000
0000
0000
0010
0000
0000
0000
0000
0000
0000
0000
0000
0000
0000
0000
1000
0000
0000
0000
0000
0000
0000
0000
0000
0000
0000
0000
0000
0000
0000
0000
0000
0000
0000
0000
0000
0000
0000
0000
0100
0000
0000
0000
0000
0000
0000
0000
0000
0000
0000
0000
1000
0000
0000
0000
0000
0000
0000
0000
0000
0000
0000
0000
0000
0000
0000
0000
0000
0000
0000
0000
0000
0000
0000
0000
1000
0000
0000
0000
0000
0000
0000
0000
0000
0000
0000
0000
0001
0000
0000
0000
0000
0000
0000
0000
0000
0000
0000
0000
0000
0000
0000
0000
0000
0000
0000
0000
0000
0000
0000
0000
1000
0000
00M0
0000
0000
0000
0000
0000
0000
0000
0000
0000
00M0
0000
0000
0000
0000
0000
0000
0000
0000
0000
0000
0000
M000
0000
0000
0000
0000
0000
0000
0000
0000
0000
0000
0000
0M00
0000
0000
0000
0000
0000
0000
0000
0000
0000
0000
0000
,  // measure 6
1000
M000
00MM
0M00
000M
M000
00M0
0M00
100M
M000
0M00
00M0
000M
00M0
0M00
M00M
,  // measure 7
10M0
0M00
000M
M000
00M0
0M00
M000
000M
1M00
M0M0
000M
00M0
MM00
00M0
00M0
0M0M
,  // measure 8
1000
00M0
0M0M
M000
000M
0M00
00M0
M00M
10M0
0M00
0M0M
00M0
0M00
M000
000M
00M0
,  // measure 9
1M00
0000
0000
M0M0
0000
0000
000M
0000
0000
0000
0000
0000
0M00
0000
0000
MMM0
0000
0000
000M
0000
0000
00M0
0000
0000
1M00
0000
0000
M0MM
0000
0000
0000
0000
0000
0M00
0000
0000
00M0
0000
0000
0M0M
M000
0000
0000
0000
0000
00M0
0000
0000
,  // measure 10
1M00
00M0
000M
M0M0
0M00
M00M
0M00
00M0
M00M
00M0
0M00
M000
000M
M000
0000
0000
,  // measure 11
1000
0000
0001
0100
0001
0000
1000
0010
0000
0010
1000
0000
0100
0010
0000
0000
,  // measure 12
0100
0010
1000
0010
0001
0000
0100
0010
0000
0010
1000
0000
0001
0000
2000
0000
,  // measure 13
3010
0M00
0000
0000
0000
0000
0000
0000
0000
0000
0000
0000
0000
0000
0000
0000
0000
0000
0000
0000
0000
0000
0000
0000
0000
0000
0000
0000
0000
0000
0000
0000
0000
0000
0000
0000
0000
0000
0000
0000
0000
0000
0000
0000
0000
0000
0000
0000
1000
0MM0
0000
0000
0000
0000
0000
0000
0000
0000
0000
0000
0000
0000
0000
0000
0000
0000
0000
0000
0000
0000
0000
0000
0001
0000
0000
0000
0000
0000
0000
0000
0000
0000
0000
0000
0100
0000
0000
0000
0000
0000
0000
0000
0000
0000
0000
0000
0000
0000
0000
0000
0000
0000
0000
0000
0000
0000
0000
0000
0100
0000
0000
0000
0000
0000
0000
0000
0000
0000
0000
0000
0001
0000
0000
0000
0000
0000
0000
0000
0000
0000
0000
0000
0000
0000
0000
0000
0000
0000
0000
0000
0000
0000
0000
0000
0010
0000
0000
0000
0000
0000
0000
0000
0000
0000
0000
0000
0100
0000
0000
0000
0000
0000
0000
0000
0000
0000
0000
0000
0000
0000
0000
0000
0000
0000
0000
0000
0000
0000
0000
0000
0000
0000
0000
0000
0000
0000
0000
0000
0000
0000
0000
0000
,  // measure 14
0010
0000
0000
0000
0000
0000
0000
0000
0000
0000
0000
0000
0100
0000
0000
0000
0000
0000
0000
0000
0000
0000
0000
0000
0001
0000
0000
0000
0000
0000
0000
0000
0000
0000
0000
0000
0100
0000
0000
0000
0000
0000
0000
0000
0000
0000
0000
0000
1000
0000
0000
0000
0000
0000
0000
0000
0000
0000
0000
0000
0000
0000
0000
0000
0000
0000
0000
0000
0000
0000
0000
0000
0010
0000
0000
0000
0000
0000
0000
0000
0000
0000
0000
0000
0100
0000
0000
0000
0000
0000
0000
0000
0000
0000
0000
0000
0000
0000
0000
0000
0000
0000
0000
0000
0000
0000
0000
0000
0100
0000
0000
0000
0000
0000
0000
0000
0000
0000
0000
0000
0001
0000
0000
0000
0000
0000
0000
0000
0000
0000
0000
0000
0000
0000
0000
0000
0000
0000
0000
0000
0000
0000
0000
0000
1000
0000
0M00
0000
0000
0000
0000
0000
0000
0000
0000
0000
0M00
0000
0000
0000
0000
0000
0000
0000
0000
0000
0000
0000
000M
0000
0000
0000
0000
0000
0000
0000
0000
0000
0000
0000
00M0
0000
0000
0000
0000
0000
0000
0000
0000
0000
0000
0000
,  // measure 15
1M00
000M
MM00
00M0
1M0M
00M0
M000
0M0M
10M0
000M
00M0
0M00
1000
0M00
00M0
000M
,  // measure 16
1M00
00M0
M000
000M
1M00
M0M0
000M
M000
10M0
0M00
M00M
0M00
10M0
M000
0M00
00M0
,  // measure 17
100M
0M00
00M0
M000
100M
00M0
0M00
M000
1M00
00M0
M03M
0M00
10M0
00M0
M00M
0M00
,  // measure 18
10M0
0M00
000M
M000
10M0
0M00
000M
0M00
10M0
M000
000M
00M0
1M00
M000
00MM
0M00
,  // measure 19
10M0
M000
000M
0M00
10M0
000M
00M0
0M00
M000
0M00
00M0
000M
M000
000M
0000
0000
,  // measure 20
1000
0000
0001
0010
0001
0000
1000
0010
0000
0010
0100
0000
0001
1000
0000
0000
,  // measure 21
0001
0M00
0000
0000
0000
0000
0000
0000
0000
0000
0000
0000
0000
0000
0000
0000
0000
0000
0000
0000
0000
0000
0000
0000
0010
0000
0000
0000
0000
0000
0000
0000
0000
0000
0000
0000
0000
0000
0000
0000
0000
0000
0000
0000
0000
0000
0000
0000
0100
0000
0000
0000
0000
0000
0000
0000
0000
0000
0000
0000
0000
0000
0000
0000
0000
0000
0000
0000
0000
0000
0000
0000
1000
0000
0000
0000
0000
0000
0000
0000
0000
0000
0000
0000
0010
0000
0000
0000
0000
0000
0000
0000
0000
0000
0000
0000
0000
0000
0000
0000
0000
0000
0000
0000
0000
0000
0000
0000
0010
0000
0000
0000
0000
0000
0000
0000
0000
0000
0000
0000
0100
0000
0000
0000
0000
0000
0000
0000
0000
0000
0000
0000
0000
0000
0000
0000
0000
0000
0000
0000
0000
0000
0000
0000
0001
0000
0000
0000
0000
0000
1000
0000
0000
0000
0000
0000
0001
0000
0000
0000
0000
0000
1000
0000
0000
0000
0000
0000
0001
0000
0000
0000
0000
0000
0000
0000
0000
0000
0000
0000
0000
0000
0000
0000
0000
0000
0000
0000
0000
0000
0000
0000
,  // measure 22
1001
0MM0
0000
0000
0000
0000
0000
0000
0000
0000
0000
0000
0000
0000
0000
0000
0000
0000
0000
0000
0000
0000
0000
0000
1000
0000
0000
0000
0000
0000
0000
0000
0000
0000
0000
0000
0000
0000
0000
0000
0000
0000
0000
0000
0000
0000
0000
0000
0010
0000
0000
0000
0000
0000
0000
0000
0000
0000
0000
0000
0100
0000
0000
0000
0000
0000
0000
0000
0000
0000
0000
0000
1000
0000
0000
0000
0000
0000
0000
0000
0000
0000
0000
0000
0100
0000
0000
0000
0000
0000
0000
0000
0000
0000
0000
0000
0001
0000
0000
0000
0000
0000
0000
0000
0000
0000
0000
0000
1000
0000
0000
0000
0000
0000
0100
0000
0000
0000
0000
0000
0010
0000
0000
0000
0000
0000
0000
0000
0000
0000
0000
0000
0000
0000
0000
0000
0000
0000
0000
0000
0000
0000
0000
0000
0001
0000
0000
0000
0000
0000
0000
0000
0000
0000
0000
0000
0100
0000
0000
0000
0000
0000
0000
0000
0000
0000
0000
0000
0010
0000
0000
0000
0000
0000
0000
0000
0000
0000
0000
0000
0000
0000
0000
0000
0000
0000
0000
0000
0000
0000
0000
0000
,  // measure 23
2000
0000
0000
0030
3301
0010
1000
0010
0001
1000
0100
0000
1000
0010
0100
0100
,  // measure 24
0001
0000
0000
0000
0001
0000
0000
0000
0010
0000
0100
0000
0001
0000
0100
0000
1000
0000
0001
0100
0010
0000
0000
0000
1000
0000
0100
0000
0010
0000
0000
0000
,  // measure 25
0011
0M00
0000
0000
0000
0000
0000
0000
0000
0000
0000
0000
0000
0000
0000
0000
0000
0000
0000
0000
0000
0000
0000
0000
0000
0000
0000
0000
0000
0000
0000
0000
0000
0000
0000
0000
0000
0000
0000
0000
0000
0000
0000
0000
0000
0000
0000
0000
1000
0M0M
0000
0000
0000
0000
0000
0000
0000
0000
0000
0000
0010
0000
0000
0000
0000
0000
0000
0000
0000
0000
0000
0000
0001
0000
0000
0000
0000
0000
0000
0000
0000
0000
0000
0000
0010
0000
0000
0000
0000
0000
0000
0000
0000
0000
0000
0000
1000
0000
0000
0000
0000
0000
0000
0000
0000
0000
0000
0000
0001
0000
0000
0000
0000
0000
0000
0000
0000
0000
0000
0000
0100
0000
0000
0000
0000
0000
0000
0000
0000
0000
0000
0000
0000
0000
0000
0000
0000
0000
0000
0000
0000
0000
0000
0000
0002
0M00
0000
0000
0000
0000
0000
0000
0000
0000
0000
0000
0000
0000
0000
0000
0000
0000
0033
0000
0000
0000
0000
0000
0203
M000
0000
0000
0000
0000
0000
0000
0000
0000
0000
0000
0000
0000
0000
0000
0000
0000
0300
0000
0000
0000
0000
0000
,  // measure 26
0010
M00M
0000
0000
0000
0000
0000
0000
0000
0000
0000
0000
0000
0000
0000
0000
0000
0000
0000
0000
0000
0000
0000
0000
1000
0000
0000
0000
0000
0000
0000
0000
0000
0000
0000
0000
1000
0000
0000
0000
0000
0000
0000
0000
0000
0000
0000
0000
0001
0000
0000
0000
0000
0000
0000
0000
0000
0000
0000
0000
0001
0000
0000
0000
0000
0000
0000
0000
0000
0000
0000
0000
0001
0000
0000
0000
0000
0000
0000
0000
0000
0000
0000
0000
0001
0000
0000
0000
0000
0000
0000
0000
0000
0000
0000
0000
0010
0000
0000
0000
0000
0000
0000
0000
0000
0000
0000
0000
0010
0000
0000
0000
0000
0000
0000
0000
0000
0000
0000
0000
0010
0000
0000
0000
0000
0000
0000
0000
0000
0000
0000
0000
0010
0000
0000
0000
0000
0000
0000
0000
0000
0000
0000
0000
0001
0000
0M00
0000
0000
0000
0000
0000
0000
0000
0000
0000
0M00
0000
0000
0000
0000
0000
0000
0000
0000
0000
0000
0000
M0M0
0000
0000
0000
0000
0000
0000
0000
0000
0000
0000
0000
0M30
0000
0000
0000
0000
0000
0000
0000
0000
0000
0000
0000
,  // measure 27
0001
000M
0M00
00M0
M001
000M
0M00
00M0
MM01
000M
00M0
0M00
M001
0M00
M0M0
000M
,  // measure 28
0M01
00M0
MM00
000M
0M01
00M0
0M0M
M000
00M1
0M00
M00M
0M00
00M1
M000
0M0M
00M0
,  // measure 29
M001
0M00
00MM
M000
0001
00M0
0M0M
M000
0M01
00M0
M03M
0M00
00M1
0000
M00M
0M00
,  // measure 30
00M1
0M00
000M
M000
00M1
0M00
000M
0M00
00M1
M000
000M
00M0
0M01
M000
000M
0M00
,  // measure 31
00M1
M000
000M
0M00
00M0
000M
00M0
0M00
M000
0M00
00M0
000M
M000
000M
0000
0000
,  // measure 32
0002
0000
0000
0000
0000
0000
0000
0000
0013
0000
0100
0000
0001
0000
0100
0000
1000
0000
0001
0100
0010
0000
0000
0000
1000
0000
0010
0000
0010
0000
0100
0000
,  // measure 33
0001
0000
0001
0000
0100
0010
0001
0010
1000
0001
0100
0000
0001
0010
0100
0000
,  // measure 34
0010
M00M
0000
0000
0000
0000
0000
0000
0000
0000
0000
0000
0001
0000
0000
0000
0000
0000
0300
0000
0000
0000
0000
0000
1000
0M00
0000
0000
0000
0000
0000
0000
0000
0000
0000
0000
3003
0000
0000
0000
0000
0000
0030
0000
0000
0000
0000
0000
0010
0000
0000
0000
0000
0000
0000
0000
0000
0000
0000
0000
0100
0000
0000
0000
0000
0000
0000
0000
0000
0000
0000
0000
1000
0000
0000
0000
0000
0000
0000
0000
0000
0000
0000
0000
0100
0000
0000
0000
0000
0000
0000
0000
0000
0000
0000
0000
0001
0000
0000
0000
0000
0000
0000
0000
0000
0000
0000
0000
1000
0000
0000
0000
0000
0000
0010
0000
0000
0000
0000
0000
0100
0000
0000
0000
0000
0000
0000
0000
0000
0000
0000
0000
0000
0000
0000
0000
0000
0000
0000
0000
0000
0000
0000
0000
0001
0000
0000
0000
0000
0000
0000
0000
0000
0000
0000
0000
0000
0000
0000
0000
0000
0000
0000
0000
0000
0000
0000
0000
0010
0000
0000
0000
0000
0000
0000
0000
0000
0000
0000
0000
0000
0000
0000
0000
0000
0000
0000
0000
0000
0000
0000
0000
,  // measure 35
0001
0M00
0000
0000
0000
0000
0000
0000
0000
0000
0000
0000
0M00
0000
0000
0000
0000
0000
0000
0000
0000
0000
0000
0000
0001
0000
0000
0000
0000
0000
0000
0000
0000
0000
0000
0000
0000
0000
0000
0000
0000
0000
0000
0000
0000
0000
0000
0000
0000
0000
0000
0000
0000
0000
0000
0000
0000
0000
0000
0000
MMMM
0000
0000
0000
0000
0000
0000
0000
0000
0000
0000
0000
0000
0000
0000
0000
0000
0000
0000
0000
0000
0000
0000
0000
MMMM
0000
0000
0000
0000
0000
0000
0000
0000
0000
0000
0000
0000
0000
0000
0000
0000
0000
0000
0000
0000
0000
0000
0000
MMMM
0000
0000
0000
0000
0000
0000
0000
0000
0000
0000
0000
0000
0000
0000
0000
0000
0000
0000
0000
0000
0000
0000
0000
MMMM
0000
0000
0000
0000
0000
0000
0000
0000
0000
0000
0000
0000
0000
0000
0000
0000
0000
0000
0000
0000
0000
0000
0000
MMMM
0000
0000
0000
0000
0000
0000
0000
0000
0000
0000
0000
0000
0000
0000
0000
0000
0000
0000
0000
0000
0000
0000
0000
MMMM
0000
0000
0000
0000
0000
0000
0000
0000
0000
0000
0000
,  // measure 36
0000
0001
0001
0001
0001
0001
0001
0001
,  // measure 37
0001
0010
0100
1000
0001
0010
0100
1000
0010
0000
0000
0000
0100
0000
0000
0000
,  // measure 38
0002
M000
0000
0000
0000
0000
0000
0000
0000
0000
0000
0000
0000
0000
0000
0000
0000
0000
0000
0000
0000
0000
0000
0000
0M00
0000
0000
0000
0000
0000
0000
0000
0000
0000
0000
0000
0000
0000
0000
0000
0000
0000
0000
0000
0000
0000
0000
0000
MMM0
0000
0000
0000
0000
0000
0000
0000
0000
0000
0000
0000
0000
0000
0000
0000
0000
0000
0000
0000
0000
0000
0000
0000
0M00
0000
0000
0000
0000
0000
0000
0000
0000
0000
0000
0000
0000
0000
0000
0000
0000
0000
0000
0000
0000
0000
0000
0000
00M0
0000
0000
0000
0000
0000
0000
0000
0000
0000
0000
0000
0M00
0000
0000
0000
0000
0000
0000
0000
0000
0000
0000
0000
00M0
0000
0000
0000
0000
0000
0000
0000
0000
0000
0000
0000
0000
0000
0000
0000
0000
0000
0000
0000
0000
0000
0000
0000
MMM0
0000
0000
0000
0000
0000
0000
0000
0000
0000
0000
0000
0000
0000
0000
0000
0000
0000
0000
0000
0000
0000
0000
0000
0M00
0000
0000
0000
0000
0000
0000
0000
0000
0000
0000
0000
0000
0000
0000
0000
0000
0000
0000
0000
0000
0000
0000
0000
,  // measure 39
00M0
0000
0M00
0000
MMM0
0000
0M30
0000
00M0
0M00
00M0
0000
MMM0
0000
0M00
0033
,  // measure 40
2303
0000
00M0
0000
0MMM
0000
00M0
0000
0M00
00M0
0M00
0000
0MMM
0000
00M0
0000
,  // measure 41
0M00
0000
00M0
0000
0MMM
0000
03M0
0000
0M00
0000
0000
0000
0000
0000
0000
3003
,  // measure 42
0110
M00M
0000
0000
0000
0000
0000
0000
0000
0000
0000
0000
0000
0000
0000
0000
0000
0000
0000
0000
0000
0000
0000
0000
0010
0000
0000
0000
0000
0000
0000
0000
0000
0000
0000
0000
0000
0000
0000
0000
0000
0000
0000
0000
0000
0000
0000
0000
0010
0000
0000
0000
0000
0000
0000
0000
0000
0000
0000
0000
0000
0000
0000
0000
0000
0000
0000
0000
0000
0000
0000
0000
0010
0000
0000
0000
0000
0000
0000
0000
0000
0000
0000
0000
0000
0000
0000
0000
0000
0000
0000
0000
0000
0000
0000
0000
0010
0000
0000
0000
0000
0000
0000
0000
0000
0000
0000
0000
0000
0000
0000
0000
0000
0000
0000
0000
0000
0000
0000
0000
0010
0000
0000
0000
0000
0000
0000
0000
0000
0000
0000
0000
0000
0000
0000
0000
0000
0000
0000
0000
0000
0000
0000
0000
0010
0000
0000
0000
0000
0000
0000
0000
0000
0000
0000
0000
0000
0000
0000
0000
0000
0000
0000
0000
0000
0000
0000
0000
0010
M000
0000
0000
0000
0000
0000
0000
0000
0000
0000
0000
M000
0000
0000
0000
0000
0000
0000
0000
0000
0000
0000
0000
,  // measure 43
00F0
0000
M000
0M00
00M0
000M
0M00
00M0
M000
000M
0M00
00M0
M000
000M
00M0
0000
,  // measure 44
0M00
M000
00M0
000M
0M00
00M0
M000
000M
0M00
00M0
M000
000M
0M00
00M0
M000
0000
,  // measure 45
0010
0010
0010
0010
0010
0010
0010
0010
,  // measure 46
0110
0000
0000
0000
0000
0000
0000
0000
0000
0000
0000
0000
0000
0000
0000
0000
0000
0000
0000
0000
0000
0000
0000
0000
0100
0000
0000
0000
0000
0000
0000
0000
0000
0000
0000
0000
0000
0000
0000
0000
0000
0000
0000
0000
0000
0000
0000
0000
0100
0000
0000
0000
0000
0000
0000
0000
0000
0000
0000
0000
0000
0000
0000
0000
0000
0000
0000
0000
0000
0000
0000
0000
0100
0000
0000
0000
0000
0000
0000
0000
0000
0000
0000
0000
0000
0000
0000
0000
0000
0000
0000
0000
0000
0000
0000
0000
0100
0000
0000
0000
0000
0000
0000
0000
0000
0000
0000
0000
0000
0000
0000
0000
0000
0000
0000
0000
0000
0000
0000
0000
0100
0000
0000
0000
0000
0000
0000
0000
0000
0000
0000
0000
0000
0000
0000
0000
0000
0000
0000
0000
0000
0000
0000
0000
0100
0000
0000
0000
0000
0000
0000
0000
0000
0000
0000
0000
0000
0000
0000
0000
0000
0000
0000
0000
0000
0000
0000
0000
0100
000M
0000
0000
0000
0000
0000
0000
0000
0000
0000
0000
001M
0000
0000
0000
0000
0000
0000
0000
0000
0000
0000
0000
,  // measure 47
0100
0000
M000
0M00
00M0
000M
0M00
00M0
M000
000M
0M00
00M0
M000
000M
00M0
0000
,  // measure 48
0M00
M000
00M0
000M
0M00
00M0
M000
000M
0M00
00M0
M000
000M
0M00
00M0
M000
0010
,  // measure 49
0100
0100
0100
0100
0100
0100
0100
0100
,  // measure 50
1001
0001
0101
0100
0101
0001
1001
1000
,  // measure 51
1010
0000
0000
0000
0000
0000
0000
0000
0000
0000
0000
0000
0000
0000
0000
0000
0000
0000
0000
0000
0000
0000
0000
0000
0010
0000
0000
0000
0000
0000
0000
0000
0000
0000
0000
0000
0000
0000
0000
0000
0000
0000
0000
0000
0000
0000
0000
0000
1010
0000
0000
0000
0000
0000
0000
0000
0000
0000
0000
0000
0000
0000
0000
0000
0000
0000
0000
0000
0000
0000
0000
0000
1000
0000
0000
0000
0000
0000
0000
0000
0000
0000
0000
0000
0000
0000
0000
0000
0000
0000
0000
0000
0000
0000
0000
0000
1001
0000
0000
0000
0000
0000
0000
0000
0000
0000
0000
0000
0000
0000
0000
0000
0000
0000
0000
0000
0000
0000
0000
0000
0010
000M
0000
0000
0000
0000
0000
0000
0000
0000
0000
0000
001M
0000
0000
0000
0000
0000
0000
0000
0000
0000
0000
0000
1001
0000
0000
0000
0000
0000
0000
0000
0000
0000
0000
0000
1000
0000
0000
0000
0000
0000
0000
0000
0000
0000
0000
0000
M000
0000
0000
0000
0000
0000
0000
0000
0000
0000
0000
0000
0M00
0000
0000
0000
0000
0000
0000
0000
0000
0000
0000
0000
,  // measure 52
00M0
000M
0M00
00M0
M000
000M
0M00
00M0
M000
000M
00M0
0000
0M00
M000
00M0
000M
,  // measure 53
0M00
0000
0000
0000
0000
0000
0000
0000
0000
0000
0000
0000
00M0
0000
0000
0000
0000
0000
0000
0000
0000
0000
0000
0000
M000
0000
0000
0000
0000
0000
0000
0000
0000
0000
0000
0000
000M
0000
0000
0000
0000
0000
0000
0000
0000
0000
0000
0000
0M00
0000
0000
0000
0000
0000
0000
0000
0000
0000
0000
0000
00M0
0000
0000
0000
0000
0000
0000
0000
0000
0000
0000
0000
M000
0000
0000
0000
0000
0000
0000
0000
0000
0000
0000
0000
000M
0000
0000
0000
0000
0000
0000
0000
0000
0000
0000
0000
0M00
0000
0000
0000
0000
0000
0000
0000
0000
0000
0000
0000
00M0
0000
0000
0000
0000
0000
0000
0000
0000
0000
0000
0000
M000
0000
0000
0000
0000
0000
0000
0000
0000
0000
0000
0000
0010
0000
0000
0000
0000
0000
0000
0000
0000
0000
0000
0000
1001
0000
0000
0000
0000
0000
0000
0000
0000
0000
0000
0000
1000
0000
0000
0000
0000
0000
0000
0000
0000
0000
0000
0000
0010
000M
0000
0000
0000
0000
0000
0000
0000
0000
0000
0000
000M
0000
0000
0000
0000
0000
0000
0000
0000
0000
0000
0000
,  // measure 54
0110
0100
0010
0000
0M00
00M0
M000
000M
0M00
00M0
M000
000M
00M0
0000
0M00
M000
,  // measure 55
00M0
000M
0M00
00M0
M000
000M
0M00
00M0
M000
000M
0M00
00M0
M000
0000
0000
0000
,  // measure 56
0110
0100
0010
0100
0010
0100
0010
0100
0010
0100
0010
0100
0010
0100
0010
0100
,  // measure 57
0001
1000
0001
1000
0001
1000
0001
1000
0001
1000
0001
1000
0001
1000
0001
1000
3301
0000
0000
0000
0000
0000
0000
0000
0000
0000
0000
0000
0000
0000
0000
0000
,  // measure 58
1001
0000
0000
0000
0000
0000
0000
0000
0000
0000
0000
0000
0000
0000
0000
0000
0000
0000
0000
0000
0000
0000
0000
0000
1000
0000
0000
0000
0000
0000
0000
0000
0000
0000
0000
0000
0000
0000
0000
0000
0000
0000
0000
0000
0000
0000
0000
0000
1001
0000
0000
0000
0000
0000
0000
0000
0000
0000
0000
0000
0000
0000
0000
0000
0000
0000
0000
0000
0000
0000
0000
0000
0001
0000
0000
0000
0000
0000
0000
0000
0000
0000
0000
0000
0000
0000
0000
0000
0000
0000
0000
0000
0000
0000
0000
0000
0101
0000
0000
0000
0000
0000
0000
0000
0000
0000
0000
0000
0000
0000
0000
0000
0000
0000
0000
0000
0000
0000
0000
0000
0100
0000
0000
0000
0000
0000
0000
0000
0000
0000
0000
0000
0000
0000
0000
0000
0000
0000
0000
0000
0000
0000
0000
0000
1100
000M
0000
0000
0000
0000
0000
0000
0000
0000
0000
0000
000M
0000
0000
0000
0000
0000
0000
0000
0000
0000
0000
0000
000M
0000
0000
0000
0000
0000
0000
0000
0000
0000
0000
0000
03M0
0000
0000
0000
0000
0000
0000
0000
0000
0000
0000
0000
,  // measure 59
110M
1M00
10M0
0M00
M00M
MM00
00M0
0M00
110M
10M0
1M00
00M0
M00M
0MM0
0M00
M00M
,  // measure 60
11M0
1M00
10MM
M000
0MM0
0M00
M0M0
000M
1100
10M0
1M00
00MM
0M00
M00M
00M0
0M00
,  // measure 61
110M
10M0
1M00
000M
M0M0
0M00
M0M0
000M
11M0
1M00
130M
00M0
MM00
00M0
0M0M
00M0
,  // measure 62
1100
10M0
1000
00MM
0M00
M0M0
M000
00M0
110M
100M
10M0
0M00
00M0
M00M
M000
00M0
,  // measure 63
0M00
000M
M000
00M0
0M0M
M000
0M00
00M0
000M
00M0
0M00
M000
000M
M000
0000
0000
,  // measure 64
1100
1000
1000
0000
1001
0000
0001
0000
0101
0000
0100
0000
0001
0001
1000
0100
,  // measure 65
1001
0001
0011
0010
0110
0100
1100
1000
,  // measure 66
1001
0000
0000
0000
0000
0000
0000
0000
0000
0000
0000
0000
0000
0000
0000
0000
0000
0000
0010
0000
0000
0000
0000
0000
0000
0000
0000
0000
0000
0000
0000
0000
0000
0000
0000
0000
0100
0000
0000
0000
0000
0000
0000
0000
0000
0000
0000
0000
1001
0000
0000
0000
0000
0000
0000
0000
0000
0000
0000
0000
0000
0000
0000
0000
0000
0000
0000
0000
0000
0000
0000
0000
1000
0000
0000
0000
0000
0000
0000
0000
0000
0000
0000
0000
0003
0000
0000
0000
0000
0000
0000
0000
0000
0000
0000
0000
1100
0000
0000
0000
0000
0000
0000
0000
0000
0000
0000
0000
0000
0000
0000
0000
0000
0000
0000
0000
0000
0000
0000
0000
0100
0000
0000
0000
0000
0000
0000
0000
0000
0000
0000
0000
0000
0000
0000
0000
0000
0000
0000
0000
0000
0000
0000
0000
0101
M000
0000
0000
0000
0000
0000
0000
0000
0000
0000
0000
0000
0000
0000
0000
0000
0000
0000
0000
0000
0000
0000
0000
0000
0000
0000
0000
0000
0000
0000
0000
0000
0000
0000
0000
0000
0000
0000
0000
0000
0000
0000
0000
0000
0000
0000
0000
,  // measure 67
1001
0MM0
0000
0000
0000
0000
0000
0000
0000
0000
0000
0000
0000
0000
0000
0000
0000
0000
0000
0000
0000
0000
0000
0000
1000
0000
0000
0000
0000
0000
0000
0000
0000
0000
0000
0000
0000
0000
0000
0000
0000
0000
0000
0000
0000
0000
0000
0000
1001
0000
0000
0000
0000
0000
0000
0000
0000
0000
0000
0000
0000
0000
0000
0000
0000
0000
0000
0000
0000
0000
0000
0000
0001
0000
0000
0000
0000
0000
0000
0000
0000
0000
0000
0000
0000
0000
0000
0000
0000
0000
0000
0000
0000
0000
0000
0000
0101
0000
0000
0000
0000
0000
0000
0000
0000
0000
0000
0000
0000
0000
0000
0000
0000
0000
0000
0000
0000
0000
0000
0000
0100
0000
0000
0000
0000
0000
0000
0000
0000
0000
0000
0000
0000
0000
0000
0000
0000
0000
0000
0000
0000
0000
0000
0000
1100
0000
00M0
0000
0000
0000
0000
0000
0000
0000
0000
0000
00M0
0000
0000
0000
0000
0000
0000
0000
0000
0000
0000
0000
000M
0000
0000
0000
0000
0000
0000
0000
0000
0000
0000
0000
00M0
0000
0000
0000
0000
0000
0000
0000
0000
0000
0000
0000
,  // measure 68
1100
100M
1M00
00M0
M000
000M
MM00
00M0
1100
100M
10M0
0M00
M00M
0M00
00M0
000M
,  // measure 69
1100
10M0
1M00
000M
MM00
00M0
000M
M000
11M0
1M00
100M
0M00
00M0
M00M
0M00
00M0
,  // measure 70
110M
1M00
10M0
M000
0M0M
00M0
0M00
M00M
1100
10M0
103M
0M00
M0M0
0000
M00M
0M00
,  // measure 71
11M0
1M00
100M
M000
00M0
0M00
M00M
0M00
11M0
1000
1M0M
00M0
0M00
M000
00MM
0M00
,  // measure 72
00M0
MM00
000M
0M00
M0M0
000M
00M0
0M00
M00M
0M00
00M0
0M0M
M000
000M
0000
0000
,  // measure 73
1100
1000
1000
0000
1001
0000
0001
0000
0101
0000
0100
0000
0110
0010
0100
0000
,  // measure 74
1001
1000
1100
0100
0110
0010
0011
0001
,  // measure 75
1000
0000
0000
0000
0000
0000
0100
0000
0000
0000
0000
0000
0001
0000
0000
0000
1000
0000
0000
0000
0000
0000
0010
0000
0000
0000
0000
0000
0001
0000
0000
0000
1000
0000
0000
0000
0000
0000
0010
0000
0000
0000
0000
0000
0100
0000
0000
0000
000M
M000
000M
M000
00M0
0000
0M00
0000
000M
0000
M000
0000
0M00
0000
M000
0000
,  // measure 76
0011
0000
0000
0000
0000
0000
0000
0000
0011
0000
0000
M000
0M00
00M0
000M
00M0
1100
0000
0000
0000
0000
0000
0000
0000
1100
0000
0000
0000
0M00
0000
0000
0000
0M11
0000
0000
0000
0000
0000
0000
0000
0011
0000
0000
0000
M000
0000
0000
0000
00M0
0000
0000
0000
0M00
0000
0000
0000
000M
0000
0000
0000
M000
0000
0000
0000
,  // measure 77
00M0
0M00
000M
M000
0M00
0000
00M0
000M
0M00
M000
00M0
0M00
000M
M000
00M0
0M00
,  // measure 78
000M
0000
0000
M000
0000
0000
00M0
0000
0000
0M00
0000
0000
000M
0000
0000
M000
0000
0000
00M0
0000
0000
0000
0000
0000
0011
0000
0000
0000
0000
0000
0011
0000
0000
0000
0000
0000
0001
0000
1000
0000
0001
0000
1000
0000
0001
0000
1000
0000
,  // measure 79
0001
0010
0001
0010
0001
1000
0001
1000
0001
0000
0000
0000
0000
0000
0000
0000
1000
0000
0000
0000
0001
0000
0010
0000
0000
0000
0010
0000
0100
0000
0000
0000
,  // measure 80
0100
1000
0000
0000
0000
0000
0000
0000
0001
0000
0100
0010
0000
0010
0100
0000
,  // measure 81
0000
0000
0000
0000
0001
0000
0100
0000
0010
0000
1000
0100
0000
0100
0010
0000
,  // measure 82
0010
0001
0000
0001
1000
0000
1000
0100
0000
0100
0010
0000
00M0
000M
0000
000M
,  // measure 83
M000
0000
M000
0M00
0000
0M00
00M0
0000
00M0
000M
0000
0000
0000
0000
0000
0000
;
