#VERSION:0.83;
#TITLE:ノンフィクション!!;
#SUBTITLE:;
#ARTIST:Liella!;
#TITLETRANSLIT:Nonfiction!!;
#SUBTITLETRANSLIT:;
#ARTISTTRANSLIT:;
#GENRE:;
#ORIGIN:;
#CREDIT:;
#BANNER:Nonfiction.png;
#BACKGROUND:Nonfiction-bg.png;
#PREVIEWVID:;
#JACKET:Nonfiction-jacket.png;
#CDIMAGE:;
#DISCIMAGE:;
#LYRICSPATH:;
#CDTITLE:;
#MUSIC:Nonfiction.ogg;
#OFFSET:0.000000;
#SAMPLESTART:54.827587;
#SAMPLELENGTH:17.586000;
#SELECTABLE:YES;
#BPMS:0.000=116.000;
#STOPS:;
#DELAYS:;
#WARPS:;
#TIMESIGNATURES:0.000=4=4;
#TICKCOUNTS:0.000=4;
#COMBOS:0.000=1;
#SPEEDS:0.000=1.000=0.000=0;
#SCROLLS:0.000=1.000;
#FAKES:;
#LABELS:0.000=Song Start;
#BGCHANGES:;
#KEYSOUNDS:;
#ATTACKS:
;

//---------------dance-single - ----------------
#NOTEDATA:;
#CHARTNAME:;
#STEPSTYPE:dance-single;
#DESCRIPTION:;
#CHARTSTYLE:;
#DIFFICULTY:Hard;
#METER:13;
#RADARVALUES:0.496242,0.575424,0.105721,0.626775,0.536157,460.000000,446.000000,14.000000,83.000000,0.000000,0.000000,0.000000,0.000000,0.000000,0.496242,0.575424,0.105721,0.626775,0.536157,460.000000,446.000000,14.000000,83.000000,0.000000,0.000000,0.000000,0.000000,0.000000;
#CREDIT:Kekkle;
#NOTES:
0000
0000
0000
0000
,
0000
0000
0000
0000
,
0000
0000
0000
0000
,
0000
0000
0000
0000
,
0000
0000
0000
0000
,
1001
0000
0000
0001
0000
0000
0000
0000
0000
1000
0000
0000
0100
0000
0010
0000
0000
0000
0001
0000
0000
1000
0000
0001
,
0000
0000
0000
0200
0000
0000
0000
0000
0320
0000
0000
0000
1030
0000
0000
0001
0000
0010
0100
0000
0000
0010
0000
0000
,
0000
0000
0000
2002
0000
0000
0000
0000
0000
3003
0000
0000
0001
0000
0000
0100
0000
0000
0010
0000
0000
1000
0000
0001
,
0000
0020
0000
0130
0002
0000
0203
0000
,
0300
0000
0000
0000
0000
0000
0000
1000
,
1001
0000
0001
0000
0100
0010
0100
0000
0010
0000
1000
0001
0000
0001
0000
0010
,
0100
0010
0000
1000
0010
0000
0100
0010
0000
0001
2000
0000
0000
0000
3001
0000
,
0000
0000
0010
0001
1000
0001
0010
0000
0100
0000
1000
0001
0000
0001
0000
0100
,
0010
0100
0001
1000
0100
0000
0010
0100
0000
0010
0002
0000
0000
0000
1003
0000
,
1001
0000
0000
0000
0000
0000
0001
0000
0000
0100
0000
0000
0010
0000
0000
1000
0000
0000
0001
0000
0000
0000
0000
0000
1000
0000
0000
0000
0100
0000
0000
0000
0000
0000
0010
0000
0000
0000
0000
0000
0001
0000
1000
0000
0000
0000
0000
0000
,
0001
0000
0000
0000
0000
0000
0100
0000
0000
0010
0000
0000
1000
0000
0000
0000
0010
0000
0100
0000
0000
0000
0002
0000
0000
0000
0000
0000
0000
0000
0000
0000
0000
0000
0000
0000
1003
0000
0000
0000
0000
0000
0010
0000
0000
1000
0000
0000
,
0001
0010
0100
1000
0010
0100
0001
0010
0100
2000
0000
0000
,
3001
0000
0000
0000
0000
0000
0100
0000
0000
0010
0000
0000
1000
0000
0000
0000
0001
0000
0010
0000
0000
0000
0100
0000
0010
0000
0000
0000
0000
0000
0001
0000
0000
0000
2000
0000
0000
0000
0000
0000
0000
0000
0000
0000
0000
0000
0000
0000
,
3001
0000
0000
1000
0000
0000
0010
0000
0000
0100
0000
2000
0000
0000
0000
3100
0000
0000
0001
0000
0000
1000
0000
0000
,
0200
0000
0000
0000
2300
0000
0000
3002
0000
0000
0000
0000
1003
0000
0010
0000
,
0200
0000
0000
1300
0000
0000
0100
0000
0020
0000
0000
0031
0000
0000
0010
0000
,
2000
0000
0000
3002
0000
0000
0023
0000
0100
0000
0000
0130
0000
0000
0000
0000
,
1001
0000
0000
0001
0000
0000
0100
0000
0000
0010
0000
0002
0000
0000
0000
0013
0000
0000
1000
0000
0000
0001
0000
0000
,
0020
0000
0000
0000
0032
0000
0000
2003
0000
0000
0000
0000
3001
0000
0100
0000
,
0020
0000
0000
0031
0000
0000
0010
0000
0200
0000
0000
1300
0000
0000
0100
0000
,
0002
0000
0000
0000
0000
0000
1003
0000
0100
0010
0000
0000
0100
0000
0000
1000
0000
0000
0002
0000
0000
0000
0000
0000
,
1003
0010
0100
0000
0001
0010
0100
0000
1000
0001
0100
0010
2000
0000
3002
0000
,
0013
0000
0000
0100
0000
0000
1000
0000
0001
0000
0000
2000
0000
0000
0000
3010
0000
0000
0100
0000
0000
0001
0000
0000
,
1000
0000
0000
0100
0000
0020
0000
0000
0001
0000
0000
0100
0000
0000
1000
0000
0000
0230
0000
0000
0000
1300
0000
0000
,
0100
0000
0000
0010
0000
0000
0001
0000
1000
0000
0000
0002
0000
0000
0000
0103
0000
0000
0010
0000
0000
1000
0000
0000
,
0001
0000
0000
0010
0000
0200
0000
0000
0001
0000
0000
0010
0000
0000
1000
0000
0000
0320
0000
0000
0000
0031
0000
0000
,
1001
0000
1000
0000
0020
0000
0000
0031
0000
0000
1000
0000
0200
0000
0000
0301
,
0000
0000
1000
0000
0200
0000
0000
0301
0000
0000
2000
0000
3020
0000
0000
0200
,
0000
0000
0330
1000
0001
0100
1000
0100
,
0020
0000
0000
0000
0000
0000
2030
0000
0000
0000
0000
0000
3001
0000
0010
0100
0000
0000
0010
0000
0001
1000
0000
0000
,
1001
0000
0000
0002
0000
0000
0100
0000
0000
0103
0000
0000
0010
0000
1000
0000
0000
0010
0000
0000
0000
2000
0000
0000
,
0100
0000
0000
3100
0000
0000
0010
0000
0001
0000
0000
0010
0000
0000
0000
0200
0000
0000
0000
0000
0000
0310
0000
0000
,
0001
0000
0000
2000
0000
0000
0010
0000
0000
3010
0000
0000
0100
0000
0001
0000
0000
0100
0000
0000
0000
0002
0000
0000
,
0010
0000
0000
0013
0000
0000
0100
0000
1000
0000
0000
0200
0000
0000
0000
0000
0000
0000
0310
0000
0000
0000
0000
0000
,
1002
0000
0000
0000
,
0023
0000
0230
0000
,
2300
0100
0001
0010
,
3002
0100
1000
0010
,
1003
0000
0000
0000
0000
0000
0010
0000
0000
0000
0000
0000
0100
0000
0000
0000
0001
0000
0100
0000
0000
0000
0000
0000
0020
0000
0000
0000
0000
0000
0000
0000
0000
0000
1030
0000
0000
0000
0000
0001
0000
0000
0000
0000
0000
1000
0000
0000
,
0100
0000
0000
0010
0000
0000
0001
0000
0000
0000
0000
0000
2000
0000
0000
0000
0000
0000
3010
0000
0000
0000
0100
0000
0000
0000
0000
0000
0000
0000
0000
0000
0000
0000
0000
0000
0001
0000
0000
0000
0000
0000
0100
0000
0000
0000
0000
0000
,
0020
0001
1030
0001
0020
1000
0031
1000
,
0001
0000
0100
0010
0000
0000
1000
0000
0100
0010
0000
0000
0002
0000
0000
1003
0000
0010
0000
0000
0000
0000
0000
0000
,
0100
0010
2000
0000
3001
0010
0100
1000
0010
0100
0001
1000
0200
0000
0320
0000
,
0031
0000
0000
1000
0000
0000
0010
0000
0100
0000
0000
0020
0000
0000
0000
1030
0000
0000
0010
0000
0000
0100
0000
0000
,
0001
0000
0000
1000
0000
0200
0000
0000
0001
0000
0000
0010
0000
0000
1000
0000
0000
0320
0000
0000
0000
0031
0000
0000
,
1001
0000
0000
1000
0000
0000
0100
0000
0010
0000
0000
0200
0000
0000
0000
1300
0000
0000
0100
0000
0000
0010
0000
0000
,
0001
0000
0000
1000
0000
0020
0000
0000
0001
0000
0000
0100
0000
0000
1000
0000
0000
0130
0000
0000
0001
1000
0000
0000
,
1001
0000
0001
0000
0020
0000
0000
1030
0000
0000
0001
0000
0200
0000
0000
1300
,
0000
0000
0001
0000
0200
0000
0000
1300
0000
0000
0002
0000
0023
0000
0000
0130
,
0000
2002
3003
0001
1000
0100
0001
0100
,
0010
0000
0000
0000
0000
0000
0001
0000
0000
0000
1000
0000
0010
0000
0000
0000
0000
0000
0100
0000
0000
0000
0001
0000
1000
0000
0000
0100
0000
0000
0010
0000
0000
0001
0000
0000
0100
0000
0000
0010
0000
0000
0100
0000
0000
0000
0000
0000
,
1001
0000
0000
0002
0000
0000
0010
0000
0000
1003
0000
0000
0001
0000
0010
0000
0000
0100
0000
0000
0000
2000
0000
0000
,
0010
0000
0000
3001
0000
0000
1000
0000
0010
0000
0000
0100
0000
0000
0000
0002
0000
0000
0000
0000
0000
1003
0000
0000
,
1001
0000
0000
0002
0000
0000
0100
0000
0000
1003
0000
0000
0001
0000
0100
0000
0000
0010
0000
0000
0000
2000
0000
0000
,
0100
0000
0000
3001
0000
0000
1000
0000
0100
0000
0000
0020
0000
0000
0000
0000
0000
0000
0031
0000
0000
1000
0000
0000
,
1001
0000
0000
0001
0000
0000
0100
0000
0000
0100
0000
0000
0010
0000
1000
0010
0000
0000
0100
0000
0001
1000
0000
0000
,
0100
0000
0000
0100
0000
0000
0010
0000
0000
0001
0000
0000
1000
0000
0100
1000
0000
0000
0001
0000
0100
0010
0000
0000
,
1000
0000
0000
0001
0000
0010
0100
0000
0000
1000
0000
0010
0100
0000
0000
0001
0000
1000
0100
0000
0010
0100
0000
0010
,
0001
0000
0000
0001
0000
1000
0000
0001
0000
0000
2000
0000
3000
0000
0000
0000
0000
0000
0000
0000
0000
0000
0000
0000
;

//---------------dance-single - ----------------
#NOTEDATA:;
#CHARTNAME:;
#STEPSTYPE:dance-single;
#DESCRIPTION:;
#CHARTSTYLE:;
#DIFFICULTY:Challenge;
#METER:16;
#RADARVALUES:0.679635,0.815185,0.113273,0.694738,1.008125,630.000000,615.000000,15.000000,92.000000,0.000000,0.000000,0.000000,0.000000,0.000000,0.679635,0.815185,0.113273,0.694738,1.008125,630.000000,615.000000,15.000000,92.000000,0.000000,0.000000,0.000000,0.000000,0.000000;
#CREDIT:Kekkle;
#NOTES:
0000
0000
0000
0000
,
0000
0000
0000
0000
,
0000
0000
0000
0000
,
0000
0000
0000
0000
,
0000
0000
0000
0000
,
1001
0000
0000
0001
0000
0000
0000
0000
0100
0010
0000
0000
1000
0000
0001
0000
0000
0010
0100
0000
1000
0001
0000
0100
,
0000
0000
0000
0002
0000
0000
0103
0000
2000
0000
0000
3100
0010
0000
0100
1000
0000
0100
0010
0000
0100
0001
0000
0000
,
1001
0000
0000
2000
0000
0000
0000
0000
3100
0010
0000
0001
0010
0000
0100
0001
0000
0100
0010
0000
0001
1000
0000
0010
,
0000
0000
0000
2000
0000
0000
3010
0000
0001
0010
0000
0100
0020
0000
0000
0000
0000
0000
0230
0000
0000
0000
0000
0000
,
0301
0000
0000
0000
0001
0000
0000
0000
1000
0000
0100
0000
0010
0000
0001
1000
0001
0000
0100
0000
0020
0000
0000
0000
0000
0000
0000
0000
0130
0000
0000
0000
,
1001
0000
0001
0000
0010
1000
0010
0001
0020
0000
0130
1000
0000
0001
0000
0100
,
1000
0100
0000
0010
0001
0000
0010
1000
0000
0001
0020
0000
0000
0000
0130
0000
,
0000
0000
1000
0001
0100
1000
0100
0010
0200
0000
0301
1000
0000
0100
0000
0010
,
1000
0010
0001
1000
0010
0100
0010
0001
0000
0010
0200
0000
0000
0000
0310
0000
,
1001
0000
0000
0000
0000
0000
1000
0000
0000
0100
0000
0000
0010
0000
0000
0100
0000
0000
0001
0000
0000
1000
0000
0000
0010
0000
0000
0000
0001
0000
0000
0000
0000
0000
1000
0000
0000
0000
0000
0000
0010
0000
0100
0000
0000
0000
0001
0000
,
1000
0000
0000
0000
0000
0000
0001
0000
0000
0010
0000
0000
1000
0000
0000
0000
0010
0000
0001
0000
0000
0000
1000
0000
0000
0000
0000
0000
0010
0000
0100
0000
0000
0000
0000
0000
0110
0000
0000
0000
0000
0000
0010
0000
0000
1000
0000
0000
,
0001
0010
1000
0001
0100
1000
0001
0100
1000
0200
0000
0000
,
0310
0000
0000
0000
0000
0000
1000
0000
0000
0001
0000
0000
0010
0000
0000
0000
0100
0000
0001
0000
0000
0000
0100
0000
0020
0000
0000
0000
0000
0000
0031
0000
0000
0000
1000
0000
0010
0000
0000
0000
0100
0000
0001
0000
0000
0000
1000
0000
,
0100
0000
0000
0010
0000
0000
0001
0000
0000
1000
0000
0020
0000
0000
0000
0001
0000
0000
0100
0000
0000
1030
0000
0000
,
0020
0000
0000
0000
0000
0000
0000
0000
0000
0000
0000
0000
0032
0000
0000
0000
0000
0000
0000
0000
0000
0023
0000
0000
0000
0000
0000
0000
1030
0000
0000
0000
0000
0000
0000
0000
1000
0000
0000
0000
0000
0000
0001
0000
0000
0000
0010
0000
,
0200
0000
0000
0000
0000
0000
0000
0000
0000
0301
0000
0000
0000
0000
0000
0000
0000
0000
0100
0000
0000
0000
0000
0000
0020
0000
0000
0000
0000
0000
0000
0000
0000
1030
0000
0000
0000
0000
0000
0000
0010
0000
0100
0000
0000
0000
0000
0000
,
0020
0000
0000
0000
0000
0000
0000
0000
0000
0032
0000
0000
0000
0000
0000
0000
0000
0000
1003
0000
0000
0000
0000
0000
0010
0000
0000
0000
1000
0000
0100
0000
0000
0000
0000
0000
0010
0000
0000
0000
0001
0000
0100
0000
0000
0000
0000
0000
,
1001
0000
0000
0001
0000
0000
1000
0000
0000
0010
0000
0200
0000
0000
0000
1000
0000
0000
0010
0000
0000
0301
0000
0000
,
0200
0000
0000
0000
0000
0000
0000
0000
0000
0000
0000
0000
2300
0000
0000
0000
0000
0000
0000
0000
0000
3200
0000
0000
0000
0000
0000
0000
0301
0000
0000
0000
0000
0000
0000
0000
0001
0000
0000
0000
1000
0000
0000
0000
0000
0000
0000
0000
,
1002
0000
0000
0023
0000
0000
1030
0000
0002
0000
0000
0203
0000
0000
1300
0000
,
0001
0000
0000
0100
0000
0010
1000
0000
0001
0010
0000
0000
0100
0000
1000
0001
0000
0100
0010
1000
0001
1000
0100
0010
,
0001
0000
0001
0000
2000
0000
0000
0000
3010
0000
0000
0000
0010
0000
0100
0000
0001
0000
0001
0000
1000
0000
0001
0010
0100
0000
1000
0000
0001
1000
0001
1000
,
0001
0000
0000
0100
0000
0000
0010
0000
0001
0000
0000
0020
0000
0000
0000
1030
0000
0000
0001
0000
0010
0100
0000
0000
,
1000
0000
0000
0001
0000
0200
0000
0000
0320
0000
0000
0032
0000
0000
2003
0000
0000
3200
0000
0000
0000
0310
0000
0000
,
1000
0000
0000
0001
0000
0000
0010
0000
1000
0000
0000
0020
0000
0000
0000
0031
0000
0000
1000
0000
0010
0100
0000
0000
,
0001
0000
0000
1000
0000
0200
0000
0000
0320
0000
0000
2030
0000
0000
3001
0100
0010
0100
0010
0000
0001
1000
0000
0010
,
0100
0000
0000
0000
0000
0000
0002
0000
0000
0000
0000
0000
2003
0000
0000
0000
0000
0000
3100
0000
0000
0010
0000
0000
0000
0000
0000
0000
0000
0000
0001
0000
0000
0000
1000
0000
0002
0000
0000
0000
0000
0000
0103
0000
0000
0010
0000
0000
,
0000
0000
0000
0000
0000
0000
1000
0000
0000
0000
0001
0000
2000
0000
0000
0000
0000
0000
3100
0000
0000
0010
0000
0000
0000
0000
0000
0000
0000
0000
0002
0000
0000
0000
0000
0000
0203
0000
0000
0000
0000
0000
0000
0000
0000
0020
0000
0000
,
0000
0000
0330
0100
1000
0100
0001
0100
,
0020
0000
0000
0031
0000
0000
0020
0000
0000
1030
0000
0000
0010
0000
0100
0001
0000
1000
0100
0010
0001
1000
0001
0100
,
0010
0000
0000
0200
0000
0000
1000
0000
0000
1300
0000
0000
0100
0000
0001
0000
0000
0100
0000
0000
0010
1000
0000
0001
,
0020
0000
0000
1030
0000
0000
0010
0000
0001
0000
0000
1000
0000
0000
0000
0020
0000
0000
0130
0000
0000
0001
0000
1000
,
0100
0000
0000
0020
0000
0000
1000
0000
0000
1030
0000
0000
0010
0000
0001
0000
0000
0010
0100
0000
1000
0001
1000
0010
,
0200
0000
0000
1300
0000
0000
0100
0000
0001
0000
0000
0200
0000
0000
0000
0301
0000
1000
0100
0000
0010
0100
0000
0000
,
1001
1000
0100
0001
0100
0010
0001
0100
0010
2000
0000
0000
,
3001
0100
0010
0001
0010
0100
0001
0010
0100
2000
0000
0000
,
3001
0000
0000
0000
0000
0100
0010
0000
0000
0000
0100
0000
1000
0000
0000
0000
0100
0000
0002
0000
0000
0000
0000
0000
,
1003
0100
0000
0001
0100
0000
0010
0001
0000
2000
0000
0000
,
3001
0000
0000
0000
0000
0000
0100
0000
0000
0000
0010
0000
1000
0000
0000
0000
0001
0000
0010
0000
0000
0000
0100
0000
0002
0000
0000
0000
0000
0000
0103
0000
0000
0000
0010
0000
0000
0000
0000
0001
0000
0000
0000
0000
0000
1000
0000
0000
,
0001
0000
0000
0100
0000
0000
0010
0000
0000
0100
0000
0000
2000
0000
0000
0000
0000
0000
3100
0000
0000
0000
0010
0000
0000
0000
0000
0000
1000
0000
0001
0000
0000
0000
0000
0000
1001
0000
0000
0000
0000
0000
1000
0000
0000
0000
0000
0000
,
0200
0000
0000
0001
0000
0000
0310
0000
0000
0001
0000
1000
0020
0000
0000
0001
0000
0000
0130
0000
0000
0001
0000
1000
,
0100
0000
0010
0100
0000
1000
0001
0000
0100
0010
0000
0100
2000
0000
0000
3100
0000
0010
0200
0000
0000
0000
0000
0000
,
0301
0000
0001
0000
2000
0000
0000
0000
3100
0000
0100
0000
0010
0000
0001
1000
0010
0000
0100
0000
0001
1000
0001
1000
0200
0000
0000
0000
0000
0000
0000
0000
,
1300
0000
0000
0001
0000
0000
0100
0000
1000
0000
0000
0200
0000
0000
0000
0301
0000
0000
1000
0000
0100
0010
0000
0000
,
0001
0000
0000
1000
0000
0020
0000
0000
0230
0000
0000
2300
0000
0000
3100
0000
0000
0101
0000
0000
0001
1000
0000
0000
,
1001
0000
0000
0001
0000
0000
0010
0000
1000
0000
0000
0020
0000
0000
0000
0031
0000
0000
1000
0000
0010
0100
0000
0000
,
0001
0000
0000
1001
0000
2000
0000
0000
3200
0000
0000
0310
0001
1000
0001
0100
0010
0100
0001
1000
0001
0010
0100
1000
,
0001
0000
0000
0000
0000
0000
2000
0000
0000
0000
0000
0000
3200
0000
0000
0000
0000
0000
0310
0000
0000
0001
0000
0000
0000
0000
0000
0000
0000
0000
1000
0000
0000
0000
0010
0000
0200
0000
0000
0000
0000
0000
0310
0000
0000
1000
0000
0000
,
0000
0000
0000
0000
0000
0000
0001
0000
0000
0000
0010
0000
0200
0000
0000
0000
0000
0000
0310
0000
0000
0001
0000
0000
0000
0000
0000
0000
0000
0000
2000
0000
0000
0000
0000
0000
3020
0000
0000
0000
0000
0000
0000
0000
0000
0130
0000
0000
,
0000
2002
3003
0001
1000
0010
0001
0010
,
0100
0000
0000
0000
0001
0000
1000
0000
0100
0000
0010
0000
0001
0000
0000
0000
1000
0000
0010
0000
0100
0000
0001
0000
1000
0000
0001
0000
0010
0000
0100
0000
1000
0000
0001
0000
0100
0000
0000
0010
0000
0000
0100
0000
0000
0000
0000
0000
,
0110
0000
0000
0020
0000
0000
0001
0000
0000
0031
0000
0000
0010
0000
1000
0000
0000
0010
0000
0000
0100
0001
0000
1000
,
0200
0000
0000
0301
0000
0000
0100
0000
0010
0000
0000
0001
0000
0000
0000
2000
0000
0000
3010
0000
0100
0001
0000
1000
,
0100
0000
0000
0020
0000
0000
1000
0000
0000
1030
0000
0000
0010
0000
0001
0000
0000
0010
0100
0000
1000
0001
1000
0010
,
0200
0000
0000
1300
0000
0000
0100
0000
0010
0000
0000
2000
0000
0000
3001
0010
0000
0100
0010
0000
0001
1000
0000
0000
,
1001
0000
0000
0001
0000
0100
0020
0000
0000
0130
0000
0000
0001
0000
1000
0100
0000
0000
1000
0000
0001
0100
0000
0010
,
2000
0000
0000
3001
0000
0010
0100
0000
0000
0010
0000
0000
0001
0000
1000
0010
0000
0000
1000
0000
0001
0010
0000
0100
,
1000
0000
0000
0001
0000
0100
0010
0000
1000
0010
0000
0100
0001
0000
1000
0100
0000
0010
0001
0010
0100
1000
0010
0100
,
0002
0000
0000
1003
0000
0100
0000
0010
0000
0000
0200
0000
0300
0000
0000
0000
0000
0000
0000
0000
0000
0000
0000
0000
;

//---------------dance-double - ----------------
#NOTEDATA:;
#CHARTNAME:;
#STEPSTYPE:dance-double;
#DESCRIPTION:;
#CHARTSTYLE:;
#DIFFICULTY:Challenge;
#METER:16;
#RADARVALUES:0.661296,0.791209,0.098170,0.747599,0.974144,613.000000,600.000000,13.000000,99.000000,0.000000,0.000000,0.000000,0.000000,0.000000,0.661296,0.791209,0.098170,0.747599,0.974144,613.000000,600.000000,13.000000,99.000000,0.000000,0.000000,0.000000,0.000000,0.000000;
#CREDIT:Kekkle;
#NOTES:
00000000
00000000
00000000
00000000
,
00000000
00000000
00000000
00000000
,
00000000
00000000
00000000
00000000
,
00000000
00000000
00000000
00000000
,
00000000
00000000
00000000
00000000
,
10010000
00000000
00000000
10000000
00000000
00000000
00000000
00000000
01000000
00100000
00000000
00000000
00010000
00000000
10000000
00000000
00000000
00000000
00100000
00000000
00010000
00001000
00000000
00010000
,
00000000
00000000
00000000
00000200
00000000
00000000
00000000
00000000
00000320
00000000
00000000
00000000
00000031
00000000
00001000
00000010
00000000
00000100
00000010
00000000
00000000
00000100
00000000
00000000
,
00001000
00000000
00000000
00022000
00000000
00000000
00033000
00000000
00000000
00000000
00000000
00001000
00010000
00000000
00001000
01000000
00000000
00100000
01000000
00000000
00010000
10000000
00000000
01000000
,
00000000
00000000
00000000
00020000
00000000
00000000
00000000
00000000
00031000
00000010
00000000
00000100
00000020
00000000
00000000
00000000
00000000
00000000
00000032
00000000
00000000
00000000
00000000
00000000
,
00001003
00000000
00000000
00000000
00001000
00000000
00000010
00000000
00000100
00000000
00000010
00000000
00010000
00000000
00001000
00010000
00001000
00000000
00100000
00000000
00020000
00000000
00000000
00000000
00000000
00000000
00000000
00000000
10030000
00000000
00000000
00000000
,
10010000
00000000
00010000
00000000
01000000
10000000
01000000
00010000
02000000
00000000
03100000
10000000
00000000
00010000
00000000
00100000
,
01000000
00010000
00000000
00001000
00000010
00000000
00001000
00010000
00000000
00100000
00020000
00000000
00000000
00000000
00031000
00000000
,
00000000
00000000
00010000
00000010
00000100
00000001
00000100
00001000
00000200
00000000
00000310
00001000
00000000
00000001
00000000
00000010
,
00001000
00010000
00000010
00010000
00001000
00000100
00001000
00010000
00000000
00100000
00020000
00000000
00000000
00000000
00031000
00000000
,
00011000
00000000
00000000
00000000
00000000
00000000
00010000
00000000
00000000
00100000
00000000
00000000
01000000
00000000
00000000
00010000
00000000
00000000
10000000
00000000
00000000
01000000
00000000
00000000
00010000
00000000
00000000
00000000
01000000
00000000
00000000
00000000
00000000
00000000
10000000
00000000
00000000
00000000
00000000
00000000
00010000
00000000
01000000
00000000
00000000
00000000
00001000
00000000
,
00010000
00000000
00000000
00000000
00000000
00000000
00001000
00000000
00000000
00000010
00000000
00000000
00000001
00000000
00000000
00000000
00001000
00000000
00000010
00000000
00000000
00000000
00000001
00000000
00000000
00000000
00000000
00000000
00000010
00000000
00000100
00000000
00000000
00000000
00000000
00000000
00000110
00000000
00000000
00000000
00000000
00000000
00000010
00000000
00000000
00001000
00000000
00000000
,
00000001
00000010
00001000
00010000
01000000
10000000
00010000
01000000
10000000
02000000
00000000
00000000
,
03100000
00000000
00000000
00000000
00000000
00000000
10000000
00000000
00000000
00010000
00000000
00000000
00100000
00000000
00000000
00000000
01000000
00000000
00010000
00000000
00000000
00000000
00001000
00000000
00020000
00000000
00000000
00000000
00000000
00000000
00031000
00000000
00000000
00000000
00000100
00000000
00000010
00000000
00000000
00000000
00001000
00000000
00000010
00000000
00000000
00000000
00000100
00000000
,
00000001
00000000
00000000
00001000
00000000
00000000
00000100
00000000
00000000
00000010
00000000
00002000
00000000
00000000
00000000
00100000
00000000
00000000
00010000
00000000
00000000
00103000
00000000
00000000
,
00002000
00000000
00000000
00000000
00000000
00000000
00000000
00000000
00000000
00000000
00000000
00000000
00023000
00000000
00000000
00000000
00000000
00000000
00000000
00000000
00000000
00230000
00000000
00000000
00000000
00000000
00000000
00000000
10300000
00000000
00000000
00000000
00000000
00000000
00000000
00000000
10000000
00000000
00000000
00000000
00000000
00000000
00010000
00000000
00000000
00000000
00100000
00000000
,
02000000
00000000
00000000
03010000
00000000
00000000
00001000
00000000
00000200
00000000
00000000
00001300
00000000
00000000
00010000
00000000
,
00000020
00000000
00000000
00000000
00000000
00000000
00000000
00000000
00000000
00002030
00000000
00000000
00000000
00000000
00000000
00000000
00000000
00000000
00003001
00000000
00000000
00000000
00000000
00000000
00000010
00000000
00000000
00000000
00001000
00000000
00010000
00000000
00000000
00000000
00000000
00000000
01000000
00000000
00000000
00000000
00000000
00000000
00100000
00000000
00000000
00000000
00000000
00000000
,
10010000
00000000
00000000
00010000
00000000
00000000
01000000
00000000
00000000
00100000
00000000
00020000
00000000
00000000
00000000
00000010
00000000
00000000
00001000
00000000
00000000
00030010
00000000
00000000
,
00020000
00000000
00000000
00000000
00000000
00000000
00000000
00000000
00000000
00000000
00000000
00000000
00032000
00000000
00000000
00000000
00000000
00000000
00000000
00000000
00000000
00003010
00000000
00000000
00000000
00000000
00000000
00000000
00000001
00000000
00000000
00000000
00000000
00000000
00000000
00000000
00000001
00000000
00000000
00000000
00001000
00000000
00000000
00000000
00000000
00000000
00000000
00000000
,
00000002
00000000
00000000
00000203
00000000
00000000
00001300
00000000
00020000
00000000
00000000
00230000
00000000
00000000
10300000
00000000
,
00010000
00000000
00000000
00100000
00000000
01000000
00100000
00000000
00001000
00100000
00000000
00000000
00001000
00000000
00010000
00001000
00000000
00000100
00000010
00001000
00000001
00001000
00000100
00000010
,
00000100
00000000
00000100
00000000
00002000
00000000
00000000
00000000
00003002
00000000
00000000
00000000
00000103
00000000
00000000
00000000
00000010
00000000
00000100
00000000
00001000
00000000
00010000
00001000
00010000
00000000
00001000
00000000
00100000
00010000
00100000
00010000
,
00100000
00000000
00000000
00001000
00000000
00000000
00010000
00000000
01000000
00000000
00000000
00020000
00000000
00000000
00000000
01030000
00000000
00000000
10000000
00000000
00010000
01000000
00000000
00000000
,
00100000
00000000
00000000
00010000
00000000
00002000
00000000
00000000
00003200
00000000
00000000
00000302
00000000
00000000
00000023
00000000
00000000
00000230
00000000
00000000
00000000
00001300
00000000
00000000
,
00000010
00000000
00000000
00010000
00000000
00000000
00001000
00000000
00000100
00000000
00000000
00002000
00000000
00000000
00000000
00003100
00000000
00000000
00000001
00000000
00001000
00000100
00000000
00000000
,
00000010
00000000
00000000
00001000
00000000
00020000
00000000
00000000
02030000
00000000
00000000
03200000
00000000
00000000
00310000
10000000
00010000
01000000
00100000
00000000
01000000
00001000
00000000
00010000
,
00001000
00000000
00000000
00000000
00000000
00000000
00000100
00000000
00000000
00000000
00000000
00000000
00000010
00000000
00000000
00000000
00000000
00000000
00010000
00000000
00000000
00001000
00000000
00000000
00000000
00000000
00000000
00000000
00000000
00000000
00010000
00000000
00000000
00000000
01000000
00000000
10000000
00000000
00000000
00000000
00000000
00000000
01000000
00000000
00000000
00010000
00000000
00000000
,
00000000
00000000
00000000
00000000
00000000
00000000
00001000
00000000
00000000
00000000
00000010
00000000
00000001
00000000
00000000
00000000
00000000
00000000
00000010
00000000
00000000
00001000
00000000
00000000
00000000
00000000
00000000
00000000
00000000
00000000
00020000
00000000
00000000
00000000
00000000
00000000
00230000
00000000
00000000
00000000
00000000
00000000
00000000
00000000
00000000
02000000
00000000
00000000
,
00000000
00000000
03300000
00100000
00010000
00100000
10000000
00100000
,
00020000
00000000
00000000
00031000
00000000
00000000
00000200
00000000
00000000
00000301
00000000
00000000
00001000
00000000
00000100
00000010
00000000
00000001
00001000
00000010
00000100
00000010
00001000
00000010
,
00010000
00000000
00000000
00002000
00000000
00000000
00023000
00000000
00000000
02030000
00000000
00000000
03100000
00000000
00010000
00000000
00000000
10000000
00000000
00000000
00100000
01000000
00000000
00001000
,
00020000
00000000
00000000
00032000
00000000
00000000
00003100
00000000
00000001
00000000
00000000
00001000
00000000
00000000
00000000
00000200
00000000
00000000
00000310
00000000
00000000
00000001
00000000
00001000
,
00000010
00000000
00000000
00020000
00000000
00000000
00032000
00000000
00000000
00003200
00000000
00000000
00000301
00000000
00001000
00000000
00000000
00000100
00010000
00000000
00000000
00002000
00000000
00000000
,
00023000
00000000
00000000
02030000
00000000
00000000
03100000
00000000
00010000
00000000
00000000
20000000
00000000
00000000
00000000
30100000
00000000
01000000
00010000
00000000
10000000
01000000
00000000
00000000
,
10010000
10000000
00100000
00010000
00100000
01000000
00001000
00010000
00000010
00000200
00000000
00000000
,
00000301
00001000
00000100
00000001
00000100
00001000
00000010
00010000
00001000
00200000
00000000
00000000
,
00310000
00000000
00000000
00000000
00000000
10000000
00100000
00000000
00000000
00000000
01000000
00000000
00100000
00000000
00000000
00000000
00010000
00000000
00002000
00000000
00000000
00000000
00000000
00000000
,
00003100
00000001
00000000
00001000
00000100
00000000
00000010
00001000
00000000
00020000
00000000
00000000
,
00031000
00000000
00000000
00000000
00000000
00000000
01000000
00000000
00000000
00000000
00100000
00000000
10000000
00000000
00000000
00000000
00100000
00000000
01000000
00000000
00000000
00000000
00100000
00000000
00020000
00000000
00000000
00000000
00000000
00000000
00031000
00000000
00000000
00000000
00100000
00000000
00000000
00000000
00000000
00001000
00000000
00000000
00000000
00000000
00000000
00010000
00000000
00000000
,
00000100
00000000
00000000
00001000
00000000
00000000
00000100
00000000
00000000
00000010
00000000
00000000
00002000
00000000
00000000
00000000
00000000
00000000
00003010
00000000
00000000
00000000
00000001
00000000
00000000
00000000
00000000
00000000
00001000
00000000
00000010
00000000
00000000
00000000
00000000
00000000
00000100
00000000
00000000
00000000
00000000
00000000
00001000
00000000
00000000
00000000
00000000
00000000
,
00020000
00000000
00000000
00230000
00000000
00000000
20300000
00000000
00000000
00000000
00000000
30010000
00200000
00000000
00000000
02300000
00000000
00000000
03020000
00000000
00000000
00000000
00000000
00031000
,
00000010
00000000
00000100
00000010
00000000
00000001
00001000
00000000
00000010
00000100
00000000
00000010
00000002
00000000
00000000
00000013
00000000
00001000
00000010
00000000
00010000
00001000
00000000
00000000
,
00010000
00000000
00010000
00000000
00002000
00000000
00000000
00000000
00103000
00000000
01000000
00000000
10000000
00000000
00010000
01000000
00100000
00000000
10000000
00000000
00010000
10000000
00010000
10000000
02000000
00000000
00000000
00000000
00000000
00000000
00000000
00000000
,
03100000
00000000
00000000
00001000
00000000
00000000
00010000
00000000
01000000
00000000
00000000
00020000
00000000
00000000
00000000
01030000
00000000
00000000
10000000
00000000
00010000
01000000
00000000
00000000
,
00100000
00000000
00000000
00010000
00000000
00002000
00000000
00000000
00003200
00000000
00000000
00000320
00000000
00000000
00010030
00000000
00000000
00011000
00000000
00000000
00001000
00000100
00000000
00000000
,
00000101
00000000
00000000
00000001
00000000
00000000
00000100
00000000
00001000
00000000
00000000
00000200
00000000
00000000
00000000
00000310
00000000
00000000
00001000
00000000
00000001
00000010
00000000
00000000
,
00001000
00000000
00000000
00011000
00000000
00020000
00000000
00000000
02030000
00000000
00000000
03200000
00000000
00000000
00310000
10000000
01000000
10000000
00010000
01000000
00001000
00010000
00000100
00001000
,
00000001
00000000
00000000
00000000
00000000
00000000
00000100
00000000
00000000
00000000
00000000
00000000
00000010
00000000
00000000
00000000
00000000
00000000
00010000
00000000
00000000
00001000
00000000
00000000
00000000
00000000
00000000
00000000
00000000
00000000
00010000
00000000
00000000
00000000
01000000
00000000
10000000
00000000
00000000
00000000
00000000
00000000
01000000
00000000
00000000
00010000
00000000
00000000
,
00000000
00000000
00000000
00000000
00000000
00000000
00001000
00000000
00000000
00000000
00000100
00000000
00000001
00000000
00000000
00000000
00000000
00000000
00000100
00000000
00000000
00001000
00000000
00000000
00000000
00000000
00000000
00000000
00000000
00000000
00020000
00000000
00000000
00000000
00000000
00000000
02030000
00000000
00000000
00000000
00000000
00000000
00000000
00000000
00000000
03100000
00000000
00000000
,
00000000
20020000
30030000
10000000
00010000
01000000
10000000
01000000
,
00010000
00000000
00000000
00000000
10000000
00000000
01000000
00000000
00100000
00000000
00010000
00000000
10000000
00000000
00000000
00000000
00010000
00000000
01000000
00000000
00001000
00000000
00010000
00000000
00000100
00000000
00000010
00000000
00000100
00000000
00001000
00000000
00000001
00000000
00000100
00000000
00000010
00000000
00000000
00010000
00000000
00000000
00001000
00000000
00000000
00000000
00000000
00000000
,
00011000
00000000
00000000
00020000
00000000
00000000
02030000
00000000
00000000
03200000
00000000
00000000
00310000
00000000
10000000
00000000
00000000
00100000
00000000
00000000
01000000
00001000
00000000
00010000
,
00000200
00000000
00000000
00000320
00000000
00000000
00000031
00000000
00001000
00000000
00000000
00000010
00000000
00000000
00000000
00000200
00000000
00000000
00000301
00000000
00001000
00000100
00000000
00010000
,
00001000
00000000
00000000
00020000
00000000
00000000
00230000
00000000
00000000
02300000
00000000
00000000
03010000
00000000
10000000
00000000
00000000
01000000
00000000
00000000
00100000
00001000
00010000
00000100
,
00000020
00000000
00000000
00000230
00000000
00000000
00001300
00000000
00000001
00000000
00000000
00000200
00000000
00000000
00000310
00001000
00000000
00000001
00000010
00000000
00000100
00010000
00000000
00000000
,
00011000
00000000
00000000
00001000
00000000
01000000
00100000
00000000
00000000
01000000
00000000
00000000
00010000
00000000
10000000
01000000
00000000
00000000
00100000
00000000
01000000
00010000
00000000
00001000
,
00010000
00000000
00000000
00001000
00000000
00000100
00000010
00000000
00000000
00000100
00000000
00000000
00000001
00000000
00001000
00000100
00000000
00000000
00000010
00000000
00001000
00010000
00000000
00000010
,
00010000
00000000
00000000
00001000
00000000
01000000
00010000
00000000
01000000
00100000
00000000
10000000
00010000
00000000
00100000
01000000
00000000
00100000
00001000
00010000
00000010
00001000
00000100
00000010
,
00000001
00000000
00000000
00001000
00000000
00000010
00000000
00000100
00000000
00000000
00000020
00000000
00000030
00000000
00000000
00000000
00000000
00000000
00000000
00000000
00000000
00000000
00000000
00000000
;

//---------------dance-double - ----------------
#NOTEDATA:;
#CHARTNAME:;
#STEPSTYPE:dance-double;
#DESCRIPTION:;
#CHARTSTYLE:;
#DIFFICULTY:Hard;
#METER:12;
#RADARVALUES:0.474666,0.551448,0.105721,0.604120,0.487072,440.000000,426.000000,14.000000,80.000000,0.000000,0.000000,0.000000,0.000000,0.000000,0.474666,0.551448,0.105721,0.604120,0.487072,440.000000,426.000000,14.000000,80.000000,0.000000,0.000000,0.000000,0.000000,0.000000;
#CREDIT:Kekkle;
#NOTES:
00000000
00000000
00000000
00000000
,
00000000
00000000
00000000
00000000
,
00000000
00000000
00000000
00000000
,
00000000
00000000
00000000
00000000
,
00000000
00000000
00000000
00000000
,
00001001
00000000
00000000
00000001
00000000
00000000
00000000
00000000
00000000
00001000
00000000
00000000
00000100
00000000
00010000
00000000
00000000
00000000
00001000
00000000
00000000
00100000
00000000
00010000
,
00000000
00000000
00000000
20000000
00000000
00000000
00000000
00000000
30200000
00000000
00000000
00000000
00310000
00000000
00000000
00001000
00000000
00000000
00100000
00000000
00000000
00001000
00000000
00000000
,
00000000
00000000
00000000
00022000
00000000
00000000
00000000
00000000
00000000
00033000
00000000
00000000
00010000
00000000
00000000
00001000
00000000
00000000
00000010
00000000
00000000
00000100
00000000
00001000
,
00000000
00000002
00000000
00000103
00002000
00000000
00020000
00000000
,
00033000
00000000
00000000
00000000
00000000
00000000
00000000
00001000
,
00011000
00000000
00010000
00000000
01000000
00100000
01000000
00000000
00100000
00000000
00010000
10000000
00000000
00010000
00000000
00000000
,
01000000
00100000
00000000
01000000
00001000
00000000
00010000
00001000
00000000
00010000
00000200
00000000
00000000
00000000
00000310
00000000
,
00000000
00000000
00000001
00001000
00000001
00000100
00000010
00000000
00000100
00000000
00001000
00010000
00000000
00001000
00000000
00000000
,
00100000
00010000
10000000
00100000
01000000
00000000
00010000
10000000
00000000
01000000
00200000
00000000
00000000
00000000
00310000
00000000
,
00000000
00000000
00000000
00000000
00000000
00000000
00100000
00000000
00000000
00001000
00000000
00000000
00010000
00000000
00000000
00001000
00000000
00000000
00100000
00000000
00000000
00000000
00000000
00000000
00001000
00000000
00000000
00000000
00010000
00000000
00000000
00000000
00000000
00000000
00001000
00000000
00000000
00000000
00000000
00000000
00000000
00000000
00000100
00000000
00000000
00000000
00000000
00000000
,
00000010
00000000
00000000
00000000
00000000
00000000
00001000
00000000
00000000
00000000
00000000
00000000
00000001
00000000
00000000
00000000
00000000
00000000
00000010
00000000
00000000
00000000
00000200
00000000
00000000
00000000
00000000
00000000
00000000
00000000
00000000
00000000
00000000
00000000
00000000
00000000
00010300
00000000
00000000
00000000
00000000
00000000
00001000
00000000
00000000
00100000
00000000
00000000
,
00010000
10000000
00100000
01000000
00010000
00100000
01000000
00100000
00001000
00020000
00000000
00000000
,
00030100
00000000
00000000
00000000
00000000
00000000
00001000
00000000
00000000
00000001
00000000
00000000
00000100
00000000
00000000
00000000
00000000
00000000
00000010
00000000
00000000
00000000
00001000
00000000
00000010
00000000
00000000
00000000
00000000
00000000
00010000
00000000
00000000
00000000
00002000
00000000
00000000
00000000
00000000
00000000
00000000
00000000
00000000
00000000
00000000
00000000
00000000
00000000
,
00013000
00000000
00000000
00001000
00000000
00000000
01000000
00000000
00000000
00000000
00000000
01000000
00000000
00000000
00000000
00100000
00000000
00000000
10000000
00000000
00000000
00010000
00000000
00000000
,
00200000
00000000
00000000
00000000
00302000
00000000
00000000
00023000
00000000
00000000
00000000
00000000
00031000
00000000
00000100
00000000
,
00000002
00000000
00000000
00001003
00000000
00000000
00000100
00000000
00000020
00000000
00000000
00001030
00000000
00000000
00010000
00000000
,
02000000
00000000
00000000
03100000
00000000
00000000
00010000
00000000
20000000
00000000
00000000
30010000
00000000
00000000
00000000
00000000
,
10010000
00000000
00000000
00010000
00000000
00000000
01000000
00000000
00000000
00000000
00000000
01000000
00000000
00000000
00000000
00010000
00000000
00000000
10000000
00000000
00000000
01000000
00000000
00000000
,
00020000
00000000
00000000
00000000
00032000
00000000
00000000
00003020
00000000
00000000
00000000
00000000
00000031
00000000
00001000
00000000
,
00000010
00000000
00000000
00000100
00000000
00000000
00001000
00000000
00010000
00000000
00000000
00100000
00000000
00000000
01000000
00000000
,
00020000
00000000
00000000
00000000
00000000
00000000
00000000
00000000
00000000
00000000
00000000
00000000
10030000
00000000
00000000
01000000
00000000
00100000
02000000
00000000
00000000
00000000
00000000
00000000
,
13000000
00010000
10000000
00000000
00100000
00000000
01000000
00001000
00010000
00000000
00000100
00001000
00000100
00000010
00000001
00001000
,
00000010
00000000
00000000
00000100
00000000
00000000
00001000
00000000
00010000
00000000
00000000
00002000
00000000
00000000
00000000
00013000
00000000
00000000
00100000
00000000
00000000
10000000
00000000
00000000
,
00010000
00000000
00000000
00100000
00000000
02000000
00000000
00000000
00010000
00000000
00000000
00100000
00000000
00000000
10000000
00000000
00000000
03200000
00000000
00000000
00000000
00301000
00000000
00000000
,
00100000
00000000
00000000
01000000
00000000
00000000
00010000
00000000
00001000
00000000
00000000
00020000
00000000
00000000
00000000
00031000
00000000
00000000
00000010
00000000
00000000
00000001
00000000
00000000
,
00001000
00000000
00000000
00000010
00000000
00000200
00000000
00000000
00001000
00000000
00000000
00000010
00000000
00000000
00000001
00000000
00000000
00000320
00000000
00000000
00000000
00010030
00000000
00000000
,
00011000
00000000
00002000
00000000
00023000
00000000
00000000
00130000
00000000
00000000
20000000
00000000
30020000
00000000
00000000
00130000
,
00000000
00000000
02000000
00000000
03020000
00000000
00000000
00031000
00000000
00000000
00000020
00000000
00000032
00000000
00000000
00002000
,
00000000
00000000
00003003
00000001
00001000
00000010
00000001
00000010
,
00002000
00000000
00000000
00000000
00000000
00000000
00003020
00000000
00000000
00000000
00000000
00000000
00010030
00000000
00000000
00001000
00000000
00000000
00100000
00000000
01000000
00100000
00000000
00000000
,
10010000
00000000
00000000
20000000
00000000
00000000
00100000
00000000
00000000
30100000
00000000
00000000
00010000
00000000
00001000
00000000
00000000
00010000
00000000
00000000
00000000
00002000
00000000
00000000
,
00000010
00000000
00000000
00003010
00000000
00000000
00000001
00000000
00001000
00000000
00000000
00000001
00000000
00000000
00000000
00000200
00000000
00000000
00000000
00000000
00000000
00000310
00000000
00000000
,
00001001
00000000
00000000
00000002
00000000
00000000
00000010
00000000
00000000
00000013
00000000
00000000
00001000
00000000
00010000
00000000
00000000
00001000
00000000
00000000
00000000
00020000
00000000
00000000
,
00100000
00000000
00000000
00130000
00000000
00000000
10000000
00000000
00010000
00000000
00000000
20000000
00000000
00000000
00000000
00000000
00000000
00000000
31000000
00000000
00000000
00000000
00000000
00000000
,
10020000
00000000
00000000
00000000
,
02030000
00000000
03002000
00000000
,
00023000
00000010
00001000
00000100
,
00032000
00100000
00010000
01000000
,
00013000
00000000
00000000
00000000
00000000
00000000
01000000
00000000
00000000
00000000
00000000
00000000
10000000
00000000
00000000
00000000
00000000
00000000
00010000
00000000
00000000
00000000
00000000
00000000
01000000
00000000
00000000
00000000
00000000
00000000
00100000
00000000
00000000
00000000
01000000
00000000
00000000
00000000
00000000
00010000
00000000
00000000
00000000
00000000
00000000
10000000
00000000
00000000
,
01000000
00000000
00000000
00100000
00000000
00000000
00010000
00000000
00000000
00000000
00000000
00000000
00100000
00000000
00000000
00000000
00000000
00000000
00001000
00000000
00000000
00000000
00020000
00000000
00000000
00000000
00000000
00000000
00000000
00000000
00000000
00000000
00000000
00000000
00000000
00000000
00030100
00000000
00000000
00000000
00000000
00000000
00000010
00000000
00000000
00000000
00000000
00000000
,
00000001
00001000
00000020
00000000
00000130
00001000
00020000
00000000
,
00130000
00000000
01000000
00100000
00000000
00000000
10000000
00000000
00010000
00100000
00000000
00000000
00001000
00000000
00000000
00010000
00000000
00000020
00000000
00000000
00000000
00000000
00000000
00000000
,
00000130
00000001
00001000
00000000
00000001
00000000
00000010
00000100
00000010
00000001
00001000
00000010
00020000
00000000
00000000
00000000
,
00031000
00000000
00000000
01000000
00000000
00000000
00100000
00000000
10000000
00000000
00000000
00200000
00000000
00000000
00000000
01300000
00000000
00000000
00010000
00000000
00000000
10000000
00000000
00000000
,
01000000
00000000
00000000
00010000
00000000
00002000
00000000
00000000
00000100
00000000
00000000
00010000
00000000
00000000
01000000
00000000
00000000
00023000
00000000
00000000
00000000
00031000
00000000
00000000
,
00011000
00000000
00000000
00010000
00000000
00000000
00000100
00000000
00001000
00000000
00000000
00000200
00000000
00000000
00000000
00000310
00000000
00000000
00000001
00000000
00000000
00001000
00000000
00000000
,
00000010
00000000
00000000
00000100
00000000
00002000
00000000
00000000
00000100
00000000
00000000
00010000
00000000
00000000
01000000
00000000
00000000
00023000
00000000
00000000
00000000
00031000
00000000
00000000
,
00011000
00000000
00020000
00000000
02030000
00000000
00000000
13000000
00000000
00000000
00020000
00000000
02030000
00000000
00000000
03100000
,
00000000
00000000
00020000
00000000
00032000
00000000
00000000
00003100
00000000
00000000
00000002
00000000
00002003
00000000
00000000
00003100
,
00000000
00000220
00000330
00001000
00000001
00000100
00001000
00000100
,
00000010
00000000
00000000
00000000
00000000
00000000
00010000
00000000
00000000
00000000
00000010
00000000
00001000
00000000
00000000
00000000
00000000
00000000
00000010
00000000
00000000
00000000
00010000
00000000
00001000
00000000
00000000
00000000
00000000
00000000
00100000
00000000
00000000
00010000
00000000
00000000
00100000
00000000
00000000
01000000
00000000
00000000
10000000
00000000
00000000
00000000
00000000
00000000
,
10010000
00000000
00000000
00020000
00000000
00000000
00100000
00000000
00000000
00130000
00000000
00000000
01000000
00000000
10000000
00000000
00000000
01000000
00000000
00000000
00000000
00020000
00000000
00000000
,
00001000
00000000
00000000
00031000
00000000
00000000
00000010
00000000
00000001
00000000
00000000
00000010
00000000
00000000
00000000
00000200
00000000
00000000
00000000
00000000
00000000
00000310
00000000
00000000
,
00001001
00000000
00000000
00002000
00000000
00000000
00000010
00000000
00000000
00003010
00000000
00000000
00000100
00000000
00000001
00000000
00000000
00000100
00000000
00000000
00000000
00002000
00000000
00000000
,
00010000
00000000
00000000
00013000
00000000
00000000
00100000
00000000
10000000
00000000
00000000
00200000
00000000
00000000
00000000
00000000
00000000
00000000
01300000
00000000
00000000
00010000
00000000
00000000
,
10010000
00000000
00000000
10000000
00000000
00000000
01000000
00000000
00000000
01000000
00000000
00000000
00100000
00000000
00001000
00100000
00000000
00000000
00001000
00000000
00010000
00001000
00000000
00000000
,
00010000
00000000
00000000
00010000
00000000
00000000
00000100
00000000
00000000
00000010
00000000
00000000
00000001
00000000
00001000
00000001
00000000
00000000
00000100
00000000
00000010
00000100
00000000
00000000
,
00000010
00000000
00000000
00001000
00000000
00000010
00010000
00000000
00000000
00001000
00000000
00100000
00010000
00000000
00000000
10000000
00000000
00100000
01000000
00000000
00000000
00010000
00000000
00000000
,
10000000
00000000
00000000
10000000
00000000
01000000
00000000
00100000
00000000
00000000
02000000
00000000
03000000
00000000
00000000
00000000
00000000
00000000
00000000
00000000
00000000
00000000
00000000
00000000
;

//---------------dance-single - ----------------
#NOTEDATA:;
#CHARTNAME:;
#STEPSTYPE:dance-single;
#DESCRIPTION:;
#CHARTSTYLE:;
#DIFFICULTY:Medium;
#METER:10;
#RADARVALUES:0.348448,0.383616,0.075515,0.377575,0.022655,323.000000,313.000000,10.000000,50.000000,0.000000,0.000000,0.000000,0.000000,0.000000,0.348448,0.383616,0.075515,0.377575,0.022655,323.000000,313.000000,10.000000,50.000000,0.000000,0.000000,0.000000,0.000000,0.000000;
#CREDIT:Kekkle;
#NOTES:
0000
0000
0000
0000
,
0000
0000
0000
0000
,
0000
0000
0000
0000
,
0000
0000
0000
0000
,
0000
0000
0000
0000
,
1001
0000
0000
0000
0001
0000
0001
1000
,
0001
0000
0010
0000
0100
0010
0100
0000
,
0000
1001
0000
0000
0001
0000
0001
1000
,
0001
0100
0010
0010
,
0200
0000
0000
0000
,
0301
0000
1000
0100
0010
0000
0001
0000
,
1000
0000
0000
0010
0000
0000
1000
0000
0000
0010
0000
0000
0000
0000
0110
0000
,
0000
0000
0001
0100
0010
0000
1000
0000
,
0001
0010
0001
0000
0010
0100
0000
0110
,
0000
1000
0001
0100
0010
0000
0010
0000
,
0100
0010
0001
0010
0200
0000
0310
0000
,
2000
0000
0000
3002
0000
0000
0013
0100
0010
0200
0000
0000
,
1300
0001
0100
0010
0001
0010
1000
0000
,
1001
0000
0001
0010
0100
0010
0001
0000
,
2000
3020
0230
0301
,
1000
0100
1000
0000
0001
0100
0001
0000
,
0200
0000
0320
0000
1030
0001
0010
0000
,
1001
0000
1000
0010
0100
0010
1000
0000
,
0002
0023
0230
1300
,
0001
0100
0001
0000
1000
0100
1000
0000
,
0200
0000
0010
0310
,
0031
1000
0010
0100
0001
0010
0100
0100
,
1000
0001
0100
0010
0002
0000
0013
0000
,
1000
0100
0010
0100
0001
0100
0010
0000
,
0001
1000
0100
0010
2000
0000
3010
0000
,
0001
0100
0010
0100
1000
0100
0010
0000
,
1001
0000
2000
0000
3010
0100
0002
0000
,
0013
0000
0100
0000
2000
0000
0000
0000
3010
0000
0100
0000
0010
0000
0000
0200
,
0000
0000
0000
0000
0301
1000
0100
0010
,
2000
3020
0032
2003
,
3020
0000
0130
0000
1000
0100
0001
0000
,
1000
0100
0001
0100
1000
0000
3002
0000
,
0203
0000
0310
0000
0001
0010
1000
0000
,
0001
0010
1000
0010
0031
0000
1003
0000
,
1002
0000
0000
0000
,
0203
0000
0000
0000
0320
0300
0000
0000
,
2030
0010
0001
0001
,
3002
0010
1000
1000
,
1003
0010
0100
0000
0001
0010
0100
0000
,
1000
0100
0001
0100
2000
0000
3001
0000
,
1000
0010
0200
0000
0301
0010
0200
0000
,
1300
0001
0100
0010
0001
0010
2000
0000
,
3001
0010
0100
1000
0001
0100
0010
0010
,
1000
0001
3310
0100
0002
0000
0103
3000
,
1000
0010
0100
0010
0001
0010
0100
0000
,
0301
1000
0010
0100
2000
0000
3100
0000
,
0001
0010
0100
0010
1000
0010
0100
1000
,
1301
0000
0002
0000
0133
0010
2000
0000
,
3100
0000
0010
0000
0002
0000
0000
0000
0103
0000
0010
0000
3100
0000
0000
0010
,
0000
1001
0000
1000
0001
0100
1000
0100
,
0020
0000
2030
0000
3002
0000
0013
0100
,
0020
0000
0130
0000
0001
0100
1000
0000
,
0001
0100
1000
0100
0001
0000
2003
0000
,
3200
0000
0310
0000
1000
0010
0001
0000
,
1000
0010
0001
0010
1000
0000
0002
0000
,
0013
0100
1000
0000
0010
0100
0001
0000
,
1000
0010
0001
0010
1000
0000
0002
0000
,
1003
0100
0010
0000
0001
0100
0010
0000
,
2000
0000
3000
0000
;

//---------------dance-double - ----------------
#NOTEDATA:;
#CHARTNAME:;
#STEPSTYPE:dance-double;
#DESCRIPTION:;
#CHARTSTYLE:;
#DIFFICULTY:Medium;
#METER:10;
#RADARVALUES:0.354921,0.407592,0.075515,0.392678,0.026430,329.000000,319.000000,10.000000,52.000000,0.000000,0.000000,0.000000,0.000000,0.000000,0.354921,0.407592,0.075515,0.392678,0.026430,329.000000,319.000000,10.000000,52.000000,0.000000,0.000000,0.000000,0.000000,0.000000;
#CREDIT:Kekkle;
#NOTES:
00000000
00000000
00000000
00000000
,
00000000
00000000
00000000
00000000
,
00000000
00000000
00000000
00000000
,
00000000
00000000
00000000
00000000
,
00000000
00000000
00000000
00000000
,
10010000
00000000
00000000
00000000
10000000
00000000
10000000
00010000
,
10000000
00000000
01000000
00000000
00100000
00001000
00100000
00000000
,
00000000
00011000
00000000
00000000
00010000
00000000
00010000
00031000
,
00013000
00000010
00000100
00000100
,
00000020
00000000
00000000
00000000
,
00001030
00000000
00000001
00000000
00000010
00000100
00001000
00000000
,
00000100
00000000
00000000
00010000
00000000
00000000
00000100
00000000
00000000
00010000
00000000
00000000
00000000
00000000
00011000
00000000
,
00000000
00000000
00001000
00000000
01000000
00100000
10000000
00000000
,
00010000
00100000
00010000
00000000
00100000
00001000
00000000
00011000
,
00000000
00000000
00010000
00000000
00000010
00001000
00000001
00000000
,
00000010
00001000
00000010
00000100
00002000
00000000
00003100
00000000
,
00020000
00000000
00000000
00032000
00000000
00000000
01003000
00010000
01000000
00020000
00000000
00000000
,
10030000
01000000
00100000
01000000
00010000
01000000
00100000
00000000
,
00101000
00000000
00001000
00000000
00010000
00000010
00000100
00000000
,
00000002
00000203
00000320
00001030
,
00000020
00000000
00010030
00001000
00200000
00000000
00301000
00010000
,
00000200
00000000
00020300
00000000
00031000
01000000
00100000
00000000
,
10010000
00000000
10000000
00000000
01000000
00100000
00010000
00000000
,
20000000
30200000
02300000
03010000
,
02000000
00000000
03001000
00010000
00000200
00000000
00010300
00001000
,
00203000
00000000
00010000
00310000
,
00100000
01000000
10000000
00010000
01000000
00001000
00010000
00010000
,
00001000
00000100
00000010
00000001
00000020
00000000
00001030
00000001
,
00000010
00000100
00000010
00001000
00010000
00001000
00100000
00001000
,
00010000
01000000
00100000
10000000
00200000
00000000
03310000
10000000
,
00100000
01000000
00100000
00010000
00001000
00010000
00000010
00010000
,
00011000
00000000
00002000
00000000
00003100
00001000
00020000
00000000
,
01330000
00000000
00010000
00000000
00002000
00000000
00000000
00000000
00003100
00000000
00001000
00000000
00010000
00000000
00000000
00002000
,
00000000
00000000
00000000
00000000
00013000
01000000
00100000
01000000
,
20000000
30020000
02030000
03200000
,
00320000
00000000
00031000
00000000
00000100
00001000
00010000
00000000
,
00001000
00000100
00000001
00000100
00001000
00000000
00023000
00000000
,
00032000
00000000
00013000
00000000
01000000
00010000
00001000
00000000
,
00010000
01000000
10000000
01000000
00010000
00000000
00001000
00000000
,
00021000
00000000
00000000
00000000
,
00230000
00000000
02300000
00000000
,
03020000
10000000
00100000
00100000
,
00230000
00010000
00001000
00001000
,
00301000
00010000
00000100
00000000
00010300
00001000
01000000
00000000
,
00001000
00010000
00100000
00010000
00001000
00000000
00010000
00000000
,
00001000
00000010
00000200
00000000
00001300
00000001
00000200
00000000
,
00001300
00010000
00100000
01000000
10000000
01000000
00200000
00000000
,
01300000
00010000
10000000
01000000
00100000
00010000
01000000
01000000
,
00001000
00010000
00100000
01000000
20000000
00000000
31000000
00100000
,
01000000
00001000
00010000
00001000
00000010
00001000
00010000
00000010
,
00010000
00001000
00000010
00000100
00000002
00000000
00000103
00000010
,
00000100
00010000
00001000
00010000
00100000
00010000
00001000
00100000
,
00101000
00000000
00002000
00000000
00013000
00001000
00000020
00000000
,
00001030
00000000
00010000
00000000
00200000
00000000
00000000
00000000
00310000
00000000
00001000
00000000
00000010
00000000
00000000
00001000
,
00000000
00011000
00000000
00010000
00001000
00010000
00100000
10000000
,
00020000
00000000
00000000
00000000
00230000
00000000
00000000
00000000
02300000
00000000
00000000
00000000
03010000
03000000
00001000
00000000
,
00200000
00000000
00301000
00000000
00000010
00001000
00010000
00000000
,
00001000
00000010
00000001
00000010
00001000
00000000
00020000
00000000
,
00032000
00000000
00013000
00000000
00100000
00010000
00001000
00000000
,
00010000
00100000
10000000
00100000
00010000
00000000
00002000
00000000
,
00013000
01000000
00100000
00000000
10000000
00100000
01000000
00000000
,
00010000
01000000
00100000
00001000
00010000
00000010
00010000
00000000
,
00001000
00000100
00000010
00000000
00000001
00000010
00000100
00001000
,
00020000
00000000
00030000
00000000
;

//---------------dance-single - ----------------
#NOTEDATA:;
#CHARTNAME:;
#STEPSTYPE:dance-single;
#DESCRIPTION:;
#CHARTSTYLE:;
#DIFFICULTY:Easy;
#METER:7;
#RADARVALUES:0.266460,0.288279,0.090618,0.135927,0.000000,247.000000,235.000000,12.000000,18.000000,0.000000,0.000000,0.000000,0.000000,0.000000,0.266460,0.288279,0.090618,0.135927,0.000000,247.000000,235.000000,12.000000,18.000000,0.000000,0.000000,0.000000,0.000000,0.000000;
#CREDIT:Kekkle;
#NOTES:
0000
0000
0000
0000
,
0000
0000
0000
0000
,
0000
0000
0000
0000
,
0000
0000
0000
0000
,
0000
0000
0000
0000
,
1001
0000
0001
0100
,
0010
0010
0100
0010
,
0000
1001
0000
0000
1000
0000
0100
0000
,
0010
0100
0010
0010
,
0002
0000
0000
0000
,
1003
0000
0010
0000
0100
0010
0100
0000
,
1000
0000
3100
0000
0301
0003
0013
0000
,
0100
0000
1000
0000
0100
0010
0100
0000
,
0001
0100
1000
0010
,
0100
0000
0001
0000
0100
0010
0100
0000
,
0010
1000
0200
0000
,
0310
0001
0010
1000
,
0010
0000
0001
0000
0100
0010
0100
0000
,
0110
0000
0010
1000
,
0010
0001
0020
0000
,
1030
1000
0001
0001
,
0010
1000
0010
0010
,
1001
0001
0100
1000
,
0100
0001
0200
0000
,
0310
0000
0100
0000
1000
0000
0100
0300
,
0020
0000
0130
0100
,
0001
0000
1000
0000
0100
0010
0100
0000
,
1001
1000
0100
0001
,
0100
0000
0010
0000
0001
0100
0001
0000
,
1000
0001
0100
1000
,
0100
0000
0010
0000
1000
0100
1000
0000
,
1001
0002
0013
2000
,
3010
0002
0103
0010
,
0220
0330
1000
0100
,
0001
0100
1000
0010
,
0200
0010
0010
0310
,
1000
0000
0001
1000
0001
0000
0010
0000
,
0200
0010
0010
0310
,
0001
0000
1000
0001
1000
0000
0000
0000
,
1001
0000
0000
0000
,
0001
0000
0100
0000
,
0010
0030
0010
0000
0010
0000
0000
0000
,
0100
0100
0100
0000
,
0001
1000
0100
0100
,
0010
0100
0010
0000
0001
0000
1000
0000
,
0010
0100
0010
0000
1000
0001
1000
0000
,
0100
0100
0010
0001
,
1000
0000
0010
0000
0100
0010
0100
0000
,
1001
0001
0100
1000
,
0100
0000
0010
0000
1000
0100
1000
0000
,
1001
0001
0010
1000
,
0010
0000
0100
0000
1000
0010
1000
0000
,
1001
0002
0103
2000
,
3100
0002
0013
0100
,
0000
1001
0000
0000
1000
0000
0010
0000
,
0001
0000
0010
0000
1000
0001
1000
0000
,
0200
0010
1000
0310
,
0001
0000
1000
0000
0010
0100
0010
0000
,
0200
0010
0001
0310
,
1000
0000
0001
0000
0010
0100
0010
0000
,
0001
0000
1000
0000
0010
0100
0010
0000
,
1000
0000
0001
0000
0010
0100
0010
0000
,
0001
0000
1000
0000
0010
0100
0010
0100
,
0020
0000
0000
0000
0030
0030
0000
0000
;

//---------------dance-double - ----------------
#NOTEDATA:;
#CHARTNAME:;
#STEPSTYPE:dance-double;
#DESCRIPTION:;
#CHARTSTYLE:;
#DIFFICULTY:Easy;
#METER:7;
#RADARVALUES:0.267539,0.287712,0.090618,0.135927,0.000000,248.000000,236.000000,12.000000,18.000000,0.000000,0.000000,0.000000,0.000000,0.000000,0.267539,0.287712,0.090618,0.135927,0.000000,248.000000,236.000000,12.000000,18.000000,0.000000,0.000000,0.000000,0.000000,0.000000;
#CREDIT:Kekkle;
#NOTES:
00000000
00000000
00000000
00000000
,
00000000
00000000
00000000
00000000
,
00000000
00000000
00000000
00000000
,
00000000
00000000
00000000
00000000
,
00000000
00000000
00000000
00000000
,
00001001
00000000
00000001
00000100
,
00000010
00000100
00001000
00001000
,
00000000
00011000
00000000
00000000
00010000
00000000
00100000
00000000
,
01000000
00010000
10000000
10000000
,
02000000
00000000
00000000
00000000
,
03100000
00000000
00010000
00000000
10000000
00010000
10030000
00000000
,
00100000
00010000
00001000
00000100
,
00000010
00000000
00001000
00000000
00000001
00001000
00000001
00000000
,
00000010
00001000
00010000
01000000
,
00100000
00000000
00010000
00000000
10000000
00010000
10000000
00000000
,
00100000
01000000
00200000
00000000
,
10300000
00010000
00100000
01000000
,
00010000
00000000
00001000
00000000
00000010
00000100
00000010
00000000
,
00001001
00000001
00000100
00000100
,
00001000
00010000
00002000
00000000
,
00013000
00100000
10000000
01000000
,
00010000
01000000
00100000
00100000
,
10010000
00010000
01000000
00100000
,
00010000
00001000
00000200
00000000
,
00000310
00001000
00000001
00000010
,
00002000
00000000
00013000
00010000
,
00001000
00000000
01000000
00000000
00100000
01000000
00100000
00000000
,
10010000
10000000
01000000
00010000
,
01000000
00000000
00100000
00000000
00001000
00010000
00001000
00000000
,
00000100
00000001
00000100
00001000
,
00000100
00000000
00000010
00000000
00010000
00001000
00010000
00000000
,
00011000
00002000
01003000
00200000
,
10300000
00020000
00130000
01000000
,
02200000
03300000
00100000
00010000
,
10000000
00100000
00010000
00001000
,
00020000
00001000
00001000
00031000
,
00010000
00000000
01000000
00000000
10000000
00010000
10000000
00000000
,
00020000
10000000
10000000
10030000
,
00100000
00000000
00010000
00000000
00001000
00010000
00001000
00000000
,
00011000
00000000
00000000
00000000
,
00010000
00000000
00001000
00000000
,
00010000
00010000
00010000
00000000
,
00001000
00001000
00001000
00000000
,
00010000
00000100
00001000
00000100
,
00001000
00000001
00001000
00000000
00000001
00000000
00000100
00000000
,
00000010
00000100
00000010
00000000
00001000
00000001
00001000
00000000
,
00000010
00010000
00001000
00001000
,
00010000
00000000
00100000
00000000
01000000
00100000
01300000
00000000
,
10010000
10000000
00100000
00010000
,
00100000
00000000
01000000
00000000
00001000
00010000
00001000
00000000
,
00011000
00010000
00000100
00000010
,
00001000
00000000
00000010
00000000
00000001
00001000
00000001
00000000
,
00001001
00002000
00003010
00000200
,
00001300
00020000
00130000
01000000
,
00000000
10010000
00000000
00000000
00010000
00000000
10000000
00000000
,
01000000
00000000
00010000
00000000
00001000
00010000
00001000
00000000
,
00020000
00001000
00000010
00031000
,
00010000
00000000
01000000
00000000
10000000
00010000
10000000
00000000
,
00020000
01000000
10000000
01030000
,
00010000
00000000
10000000
00000000
01000000
00100000
01000000
00000000
,
00100000
00000000
00001000
00000000
00010000
00001000
00010000
00000000
,
00001000
00000000
00000100
00000000
00000001
00001000
00000001
00000000
,
00000010
00000000
00000100
00000000
00000010
00000100
00000010
00000000
,
00000200
00000000
00000300
00000000
;

//---------------dance-single - ----------------
#NOTEDATA:;
#CHARTNAME:;
#STEPSTYPE:dance-single;
#DESCRIPTION:;
#CHARTSTYLE:;
#DIFFICULTY:Beginner;
#METER:4;
#RADARVALUES:0.154266,0.191808,0.067964,0.052861,0.000000,143.000000,134.000000,9.000000,7.000000,0.000000,0.000000,0.000000,0.000000,0.000000,0.154266,0.191808,0.067964,0.052861,0.000000,143.000000,134.000000,9.000000,7.000000,0.000000,0.000000,0.000000,0.000000,0.000000;
#CREDIT:Kekkle;
#NOTES:
// measure 0
0000
0000
0000
0000
,  // measure 1
0000
0000
0000
0000
,  // measure 2
0000
0000
0000
0000
,  // measure 3
0000
0000
0000
0000
,  // measure 4
0000
0000
0000
0000
,  // measure 5
1001
0000
0001
0000
,  // measure 6
0100
0000
0010
0010
,  // measure 7
0100
0000
0001
0000
,  // measure 8
1000
0000
0100
0000
,  // measure 9
0020
0000
0030
0000
,  // measure 10
0001
0000
1000
0000
,  // measure 11
0010
0100
0010
0000
,  // measure 12
0100
0000
0001
0000
,  // measure 13
1000
0001
1000
0000
,  // measure 14
0100
0000
0001
0000
,  // measure 15
0100
0010
0100
0000
,  // measure 16
1000
0001
1000
0000
,  // measure 17
0001
0000
0100
0000
,  // measure 18
1001
0000
0001
0000
,  // measure 19
0010
0100
0010
0000
,  // measure 20
0001
0000
1000
0000
,  // measure 21
0010
0100
0010
0000
,  // measure 22
0110
0000
0100
0000
,  // measure 23
0001
1000
0001
0000
,  // measure 24
1000
0000
0100
0000
,  // measure 25
0020
0000
0000
0000
,  // measure 26
0030
0000
0000
0000
,  // measure 27
0001
0000
0100
0000
,  // measure 28
1000
0000
0100
0010
,  // measure 29
0100
0000
0001
0000
,  // measure 30
0010
0000
0100
0010
,  // measure 31
0100
0000
0010
0000
,  // measure 32
0001
0000
0100
0000
,  // measure 33
0220
0000
0330
0000
,  // measure 34
0100
0010
0100
0000
,  // measure 35
0001
0001
0001
0000
,  // measure 36
1000
0001
1000
0000
,  // measure 37
0100
0100
0100
0000
,  // measure 38
0010
0100
0010
0000
,  // measure 39
1001
0000
0000
0000
,  // measure 40
0001
0000
1000
0000
,  // measure 41
0001
0000
0000
0000
,  // measure 42
0100
0000
0010
0000
,  // measure 43
0100
0000
0001
1000
,  // measure 44
0001
0000
0010
0000
,  // measure 45
0100
0000
1000
0000
,  // measure 46
0001
1000
0001
0000
,  // measure 47
2000
0000
3000
0000
,  // measure 48
1001
0000
0001
0000
,  // measure 49
0100
0010
0100
0000
,  // measure 50
1001
0000
1000
0000
,  // measure 51
0100
0010
0100
0000
,  // measure 52
1001
0000
0001
0000
,  // measure 53
0100
0000
0010
0000
,  // measure 54
0000
0110
0000
0000
0100
0000
0000
0000
,  // measure 55
0001
1000
0001
0000
,  // measure 56
0020
0000
0000
0000
,  // measure 57
0030
0000
0100
0000
,  // measure 58
1000
1000
1000
0000
,  // measure 59
0001
1000
0001
0000
,  // measure 60
0100
0100
0100
0010
,  // measure 61
1000
0001
1000
0000
,  // measure 62
0100
0100
0100
0010
,  // measure 63
0002
0000
0003
0000
;
