#VERSION:0.83;
#TITLE:Nexta;
#SUBTITLE:;
#ARTIST:lapix;
#TITLETRANSLIT:;
#SUBTITLETRANSLIT:;
#ARTISTTRANSLIT:;
#GENRE:;
#ORIGIN:;
#CREDIT:;
#BANNER:Nexta.png;
#BACKGROUND:Nexta-bg.png;
#PREVIEWVID:;
#JACKET:Nexta-jacket.png;
#CDIMAGE:;
#DISCIMAGE:;
#LYRICSPATH:;
#CDTITLE:;
#MUSIC:Nexta.ogg;
#OFFSET:-0.811000;
#SAMPLESTART:17.308033;
#SAMPLELENGTH:15.000000;
#SELECTABLE:YES;
#BPMS:0.000=160.000;
#STOPS:;
#DELAYS:;
#WARPS:;
#TIMESIGNATURES:0.000=4=4;
#TICKCOUNTS:0.000=4;
#COMBOS:0.000=1;
#SPEEDS:0.000=1.000=0.000=0;
#SCROLLS:0.000=1.000;
#FAKES:;
#LABELS:0.000=Song Start;
#BGCHANGES:;
#KEYSOUNDS:;
#ATTACKS:
;

//---------------dance-single - ----------------
#NOTEDATA:;
#CHARTNAME:;
#STEPSTYPE:dance-single;
#DESCRIPTION:;
#CHARTSTYLE:;
#DIFFICULTY:Hard;
#METER:15;
#RADARVALUES:0.713414,0.864593,0.106740,0.510826,0.537511,655.000000,641.000000,14.000000,67.000000,0.000000,0.000000,0.000000,0.000000,0.000000,0.713414,0.864593,0.106740,0.510826,0.537511,655.000000,641.000000,14.000000,67.000000,0.000000,0.000000,0.000000,0.000000,0.000000;
#CREDIT:;
#NOTES:
// measure 0
0000
0000
0000
0000
,  // measure 1
0000
0000
0000
0000
,  // measure 2
0000
0000
0000
0000
0000
0000
0000
0000
0000
0000
0000
0000
1000
0001
1000
0000
,  // measure 3
1000
0100
0010
0001
0010
0100
1000
0001
,  // measure 4
0100
0000
0010
1000
0000
1000
0010
0000
0100
0000
0001
0000
0011
0000
0000
0000
,  // measure 5
0001
0100
0010
1000
0010
0100
0001
1000
,  // measure 6
0100
0000
0010
0001
0000
0001
0010
0000
0100
0010
0100
0000
1001
0000
0001
0000
,  // measure 7
1000
0010
0001
0010
1000
0100
0001
0100
,  // measure 8
0010
0000
0001
1000
0000
1000
0010
0000
0100
0000
0010
0000
1010
0000
0000
0000
,  // measure 9
0001
0010
1000
0010
0001
0100
1000
0100
,  // measure 10
0010
0000
1000
0010
1000
0000
0001
0010
0001
0000
0010
0000
0200
0000
0000
0000
,  // measure 11
1300
0000
0001
0000
0100
0000
0001
0010
0000
0010
0100
0000
1000
0000
0010
0000
,  // measure 12
1000
0000
0001
0000
0010
0000
0001
0100
0000
0100
0010
0000
1000
0001
1000
0000
,  // measure 13
0001
0000
1000
0000
0100
0000
1000
0010
0000
0010
0100
0000
0001
0000
0010
0000
,  // measure 14
0001
0000
1000
0000
0010
0000
1000
0100
0000
0100
0010
0000
0001
1000
0001
0100
,  // measure 15
0010
0000
1000
0000
0100
0000
1000
0010
0000
0010
0100
0000
0010
0000
0001
0000
,  // measure 16
0010
0000
1000
0000
0001
0000
1000
0100
0000
0100
0010
0000
0100
1000
0001
0000
,  // measure 17
0010
0000
0001
0000
0100
0000
0001
0010
0000
0010
0100
0000
0010
0000
1000
0000
,  // measure 18
0010
0000
0010
0001
0000
0001
0100
0000
0100
2000
0000
0000
0000
0000
0000
0000
,  // measure 19
3200
0000
0000
0010
0000
0000
0302
0000
0000
0000
1003
0000
0010
0000
1000
0000
,  // measure 20
0200
0000
0000
0010
0000
0000
2300
0000
0000
0000
3001
0000
0001
0100
0010
0000
,  // measure 21
0200
0000
0000
0001
0000
0000
0320
0000
0000
0000
1030
0000
0001
0000
1000
0000
,  // measure 22
0200
0000
0000
1000
0000
0000
0320
0000
0000
0000
0031
0000
1000
0001
1000
0010
,  // measure 23
0200
0000
0000
1000
0000
0000
0302
0000
0000
0000
0013
0000
0100
0000
1000
0000
,  // measure 24
0200
0000
0000
0001
0000
0000
2300
0000
0000
0000
3001
0000
0001
0100
0010
0000
,  // measure 25
1000
0000
1000
0000
0200
0000
0000
0000
0301
0000
0001
0000
0100
0000
0010
0100
,  // measure 26
2000
0000
0000
0000
3002
0000
0000
0000
1003
0010
0100
0001
1000
0001
0010
0000
,  // measure 27
0100
0000
0100
0000
2000
3000
0100
0010
0001
0000
0001
0000
2000
3000
0001
0010
,  // measure 28
0100
0000
0100
0000
2000
3000
0100
0010
0001
1000
0001
0000
1001
0000
1000
0001
,  // measure 29
0100
0000
0100
0000
0002
0003
0100
0010
1000
0000
1000
0000
0002
0003
1000
0010
,  // measure 30
0100
0000
0100
0000
0002
0003
0100
0010
1000
0000
0010
0000
0110
0000
0010
0000
,  // measure 31
0100
0000
0100
0000
0002
0003
0100
0010
0100
0000
0001
0000
2000
3000
0100
0010
,  // measure 32
0100
0000
1000
0000
0002
0003
0100
0010
0100
0001
1000
0000
1001
0000
0001
1000
,  // measure 33
0100
0000
0100
0000
2000
3000
0100
0010
0100
0000
1000
0000
0002
0003
0100
0010
,  // measure 34
0100
0010
0100
0000
0001
1000
0001
0000
0010
0001
0010
0001
1000
0100
1000
0000
,  // measure 35
0001
0000
0100
0000
0020
0030
0000
0010
1000
0001
1000
0000
0200
0300
0000
0100
,  // measure 36
1000
0000
1000
0000
0020
0030
0000
0010
0100
0010
1000
0001
0200
0300
0001
0000
,  // measure 37
1000
0000
0100
0000
0020
0030
0000
0010
0001
1000
0001
0000
0200
0300
0000
0100
,  // measure 38
0001
0000
0001
0000
0020
0030
0000
0100
0010
0001
1000
0010
0200
0300
0001
0000
,  // measure 39
0100
0000
0010
0000
1010
0000
0000
0010
1000
0001
1000
0000
0011
0000
0000
0010
,  // measure 40
0001
0000
1000
0000
1100
0000
0000
0100
1000
0001
0100
0000
0101
0000
0000
0001
,  // measure 41
1000
0100
1000
0000
0100
1000
0001
0000
0100
0001
0100
0000
0001
1000
0010
0000
,  // measure 42
0100
0010
0100
0010
1000
0000
1000
0001
0010
0000
0010
0000
0200
0000
0000
0000
,  // measure 43
0320
0000
0000
0031
1000
0100
1000
0020
,  // measure 44
0000
0000
0000
0000
,  // measure 45
1030
0000
0000
0001
0000
0000
0010
0000
0100
0000
1000
0000
0001
0000
0020
0000
,  // measure 46
0000
0000
0000
0000
0030
0000
0001
1000
0200
0000
0000
0000
0000
0000
0000
0000
,  // measure 47
1300
0000
0000
0001
0000
0000
0100
0000
0001
0000
1000
0000
0100
0000
0020
0000
,  // measure 48
0000
0000
0000
0000
,  // measure 49
0130
0000
0000
1000
0000
0000
0001
0000
1000
0000
0010
0000
0100
0000
0002
0000
,  // measure 50
2000
3000
0000
0000
0200
0300
0000
0000
0020
0000
0000
0000
0033
0000
0000
0000
,  // measure 51
1000
0000
0000
1010
0000
0000
0010
0000
0001
0000
0010
0000
1000
0000
0001
0000
,  // measure 52
2000
0100
0001
0010
,  // measure 53
3001
0000
0000
0011
0000
0000
0010
0000
1000
0000
0010
0000
0001
0000
2000
0000
,  // measure 54
0000
0000
0000
0000
3000
0000
0010
0100
0002
0000
0000
0000
0003
0000
0000
0000
,  // measure 55
0001
0000
0000
0101
0000
0000
0100
0000
0010
0000
1000
0000
0100
0000
0010
0000
,  // measure 56
0002
0100
1000
0010
,  // measure 57
1003
0100
1000
0001
0100
0001
1000
0100
,  // measure 58
1000
0100
0010
0000
0001
1000
0001
0000
0100
0010
1000
0000
0010
0100
0010
0000
,  // measure 59
1000
0010
1000
0010
0100
0000
0100
0001
0100
0001
0010
0000
0010
0100
0010
0100
,  // measure 60
1000
0000
0100
0000
0010
0000
1000
0010
0000
0010
0001
0000
0100
0000
0001
0000
,  // measure 61
1000
0000
0010
0000
0100
0000
1000
0100
0000
0100
0001
0000
0100
0010
0100
0000
,  // measure 62
0001
0000
0010
0000
0100
0000
0001
0100
0000
0100
1000
0000
0010
0000
0100
0000
,  // measure 63
0001
0000
0100
0000
0010
0000
0001
0010
0000
0010
1000
0000
0010
0100
0010
0000
,  // measure 64
1000
0000
0010
0000
0001
0000
0010
0100
0000
0100
0001
0000
1000
0000
0100
0000
,  // measure 65
0001
0000
0100
0000
1000
0000
0001
1000
0001
0010
0100
0000
1000
0100
0010
0000
,  // measure 66
0001
0000
0010
0000
1000
0000
0010
0100
0000
0100
1000
0000
0001
0000
0100
0000
,  // measure 67
0010
0000
0000
0100
0001
0000
0000
1000
0010
0000
0010
0000
0110
0000
0000
0000
,  // measure 68
0010
0000
1000
0000
0100
0000
0001
0000
0100
0000
1000
0000
0010
1000
0001
0000
,  // measure 69
0100
0000
0001
0000
0010
0000
1000
0000
0010
0000
0001
0000
0100
0010
1000
0001
,  // measure 70
0010
0000
0001
0000
0100
0000
1000
0000
0100
0000
0001
0000
0010
0001
1000
0000
,  // measure 71
0100
0000
0001
0000
0100
0000
1000
0000
0010
0000
0001
0000
0010
0100
0001
1000
,  // measure 72
0100
0000
0100
0000
1000
0000
1000
0000
0001
0000
0001
0000
0100
0000
0100
0001
,  // measure 73
0010
0000
0010
0000
0001
0000
0001
0000
1000
0000
1000
0000
0010
0000
0010
1000
,  // measure 74
0100
1000
0001
0100
0010
1000
0001
1000
,  // measure 75
0100
0000
0100
1000
0000
1000
0010
0000
0010
0002
0000
0000
0000
0000
0000
0000
,  // measure 76
0023
0000
1000
2030
0000
0000
0000
0000
,  // measure 77
3200
0000
0001
0302
0000
0000
0000
0000
,  // measure 78
0203
0000
1000
2300
0000
0000
0000
0000
,  // measure 79
3020
0000
0100
0230
0000
0000
0301
0000
,  // measure 80
0002
0000
1000
2003
0000
0000
0000
0000
,  // measure 81
3020
0000
0001
0032
0000
0000
0000
0000
,  // measure 82
0023
0000
1000
2030
0000
0000
0001
0000
,  // measure 83
3100
0000
1000
0001
0100
0000
0001
1000
0100
0000
1000
0100
0020
0000
0032
0000
,  // measure 84
0003
0000
0000
0000
;

//---------------dance-single - ----------------
#NOTEDATA:;
#CHARTNAME:;
#STEPSTYPE:dance-single;
#DESCRIPTION:;
#CHARTSTYLE:;
#DIFFICULTY:Medium;
#METER:10;
#RADARVALUES:0.435673,0.511589,0.160110,0.564196,0.083867,400.000000,379.000000,21.000000,74.000000,0.000000,0.000000,0.000000,0.000000,0.000000,0.435673,0.511589,0.160110,0.564196,0.083867,400.000000,379.000000,21.000000,74.000000,0.000000,0.000000,0.000000,0.000000,0.000000;
#CREDIT:;
#NOTES:
0000
0000
0000
0000
,
0000
0000
0000
0000
,
0000
0000
0000
0000
0000
0000
1000
0001
,
1000
0100
0010
0000
0010
0100
1000
0000
,
0002
0000
0203
0000
0301
1000
0010
0000
,
1000
0010
0100
0000
0100
0010
1000
0000
,
0001
0000
0000
0001
0000
0000
1000
0000
0001
0000
1000
0000
0001
0000
0000
0000
,
0001
0010
0100
0000
0100
0010
0001
0000
,
2000
0000
3200
0000
1300
0001
0010
0000
,
0001
0100
0010
0000
0010
0100
0001
1000
,
0002
0003
0002
0003
0002
0000
1003
0010
,
0100
0010
1000
0000
0100
0010
0001
0000
,
0010
0001
0100
0000
0010
1000
0100
0000
,
1000
0010
0100
0000
0001
0010
0100
0000
,
1000
0100
0010
0000
0001
0100
0010
0000
,
1000
1000
0010
0000
0100
0100
0001
0000
,
0001
0001
0010
0000
0100
0100
1000
0000
,
2000
3100
0002
0103
,
2000
0000
0000
3200
0000
0000
0320
0000
0000
0032
0000
0000
0003
0000
0000
0000
,
1000
0000
0000
0010
0000
0000
0200
0000
0000
0000
0000
0000
0310
0000
1000
0000
,
0001
0000
0000
0010
0000
0000
0200
0000
0000
0000
0000
0000
0310
0000
0001
0000
,
1000
0000
0000
0100
0000
0000
0020
0000
0000
0000
0000
0000
0130
0000
1000
0000
,
0001
0000
0000
0100
0000
0000
0010
0000
0100
0000
0010
0000
0100
0000
0000
0000
,
0001
0000
0000
0100
0000
0000
0102
0000
0000
0000
0000
0000
0103
0000
0010
0000
,
1000
0000
0000
0100
0000
0000
2100
0000
0000
0000
0000
0000
3100
0000
0010
0000
,
0001
1000
0100
0000
1001
0000
0101
0000
,
0001
0100
0010
0100
1000
0000
0110
0000
,
1002
0000
0103
0000
0001
1000
0100
0000
,
1000
0001
0010
0000
0001
1000
0100
0000
,
2001
0000
3100
0000
1000
0001
0100
0000
,
0001
1000
0010
0000
1000
0001
0100
0000
,
1002
0000
0103
0000
0001
0100
0010
0000
,
0010
1000
0001
0000
0001
1000
0100
0000
,
2001
0000
3100
0000
1000
0100
0010
0000
,
0010
0001
1000
0001
1000
0000
0110
0000
,
1002
0000
0000
0000
0103
0000
0000
0100
0000
0000
0010
0000
1000
0000
0000
1000
,
0000
0000
0010
0000
0100
0000
0000
0100
0000
0000
0001
0000
0010
0000
0000
0000
,
2001
0000
0000
0000
3100
0000
0000
0100
0000
0000
0010
0000
0001
0000
0000
0001
,
0000
0000
0010
0000
0100
0000
0000
0100
0000
0000
1000
0000
0010
0000
1000
0000
,
0001
0101
1000
1100
,
0001
0011
1000
1010
,
0010
0100
0001
0100
0010
1000
0100
0000
,
1000
0001
1000
0001
0200
0000
0310
0000
,
2002
0000
0000
0000
0003
0000
0000
0200
,
0000
0000
0000
3000
,
0002
0000
0000
0000
0300
0000
0000
0020
,
0000
0003
2000
3030
,
0001
0000
0000
0010
0000
0000
0001
0000
1000
0000
0100
0000
1000
0000
0020
0000
,
0000
0000
0000
0030
,
1000
0000
0000
0010
0000
0000
0100
0000
0001
0000
1000
0000
0100
0000
0020
0000
,
0000
0000
0000
0030
,
0001
0000
0000
0010
0000
0000
0100
0000
1000
0000
0100
0000
0010
0000
0001
0000
,
2000
3100
0002
0103
,
1000
0000
0000
0010
0000
0000
0100
0000
0001
0000
0100
0000
0010
0000
1000
0000
,
0002
0000
0000
2003
3200
0000
0300
0000
,
1000
1100
0010
1100
,
0001
0101
0010
0101
,
0200
0000
0302
0000
,
2000
0000
0000
0000
,
0000
0000
0000
0000
0000
0000
0000
0000
3003
0000
0000
0000
0001
1000
0001
0000
,
2000
0000
3100
0000
1000
0001
0010
0000
,
0002
0000
0103
0000
0001
1000
0010
0000
,
2000
0000
3010
0000
1000
0010
0100
0000
,
0002
0000
0013
0000
0001
0010
0100
0000
,
2000
0000
3100
0000
0001
0100
1000
0000
,
0002
0000
0103
0000
1000
0100
0001
0000
,
2000
3100
0002
0103
,
2000
3000
2000
3000
0010
0100
0010
0000
,
1000
0001
0010
0000
0100
1000
0001
0000
,
2000
3010
0002
0103
,
0001
1000
0010
0000
0100
0001
1000
0000
,
0002
0013
2000
3100
,
1000
0001
0010
0000
0010
0001
1000
0000
,
0001
1000
0010
0000
0010
1000
0001
0000
,
1000
0100
0010
0001
0010
0100
1000
0000
,
0002
0000
0000
0203
0000
0000
0320
0000
0000
2030
0000
0000
3000
0000
0000
0000
,
0002
0000
0000
0023
0000
0000
0000
0000
,
0230
0000
0000
0320
0000
0000
0000
0000
,
0032
0000
0000
2003
0000
0000
0000
0000
,
3020
0000
0000
2030
0000
0000
0000
0000
,
3200
0000
0000
0320
0000
0000
0000
0000
,
0032
0000
0000
0023
0000
0000
0000
0000
,
0230
0000
0000
2300
0000
0000
0000
0000
,
3001
0100
0001
1000
0100
1000
0020
0030
;

//---------------dance-single - ----------------
#NOTEDATA:;
#CHARTNAME:;
#STEPSTYPE:dance-single;
#DESCRIPTION:;
#CHARTSTYLE:;
#DIFFICULTY:Easy;
#METER:6;
#RADARVALUES:0.286455,0.319743,0.099116,0.655688,0.015249,263.000000,250.000000,13.000000,86.000000,0.000000,0.000000,0.000000,0.000000,0.000000,0.286455,0.319743,0.099116,0.655688,0.015249,263.000000,250.000000,13.000000,86.000000,0.000000,0.000000,0.000000,0.000000,0.000000;
#CREDIT:;
#NOTES:
0000
0000
0000
0000
,
0000
0000
0000
0000
,
0000
0000
0000
1001
,
1000
0100
1000
0001
,
0010
0010
0001
0100
,
0001
0100
0001
1000
,
0010
0010
1000
0100
,
1000
0100
0001
0100
,
0010
0010
0001
0100
,
0001
0100
1000
0100
,
0010
0010
0020
0030
,
1000
0001
0010
0100
,
1000
1000
0100
0010
,
0001
1000
0010
0100
,
0001
0001
0100
0010
,
1000
0001
0010
1000
,
0010
0001
2000
3000
,
0001
1000
0010
0001
,
0010
0000
0000
0100
0000
0000
0010
0000
0000
0200
0000
0000
0300
0000
0000
0000
,
0001
0010
0200
0300
,
0010
0001
2000
3000
,
0001
0010
0200
0300
,
0010
0001
1000
0001
,
1000
0010
0200
0300
,
0010
1000
0002
0003
,
2000
3000
0002
0003
,
0010
0001
1000
0010
,
2000
3200
0300
0022
,
0033
2200
3300
1000
,
0002
0203
0300
2020
,
3030
0202
0303
1001
,
2000
3020
0030
0022
,
0033
2020
3030
1000
,
0002
0023
0030
2020
,
3030
0110
2002
3003
,
0001
0200
0310
0200
,
1300
0200
0310
1000
,
0001
0020
0130
0020
,
1030
0020
0130
1000
,
0001
0200
0310
0200
,
1300
0200
0310
1000
,
0001
0020
0130
0020
,
0031
0000
1000
0001
2000
0000
3000
0000
,
0002
0000
0000
0000
0000
0000
0000
0203
,
0000
0000
0000
0000
,
0320
0000
0000
0000
0000
0000
0000
2030
,
0000
0000
3200
0000
,
2300
0000
0000
0000
0000
0000
0000
3020
,
0000
0000
0000
0000
,
0230
0000
0000
0000
0000
0000
0000
0302
,
0000
0000
0000
0003
,
1000
0000
0100
0000
1000
0000
0001
0020
,
0000
0000
0000
0030
,
0001
0000
0100
0000
0001
0000
1000
0020
,
0000
0000
0000
0230
0302
0000
0003
0000
,
1000
0000
0100
0000
0001
0000
0100
0020
,
0000
0000
0000
0030
,
2000
3000
0002
0003
,
0220
0000
0000
0000
,
0000
0000
0000
0330
,
0001
0100
0010
0100
,
0001
0001
0020
0130
,
1000
0100
0010
0100
,
1000
1000
0020
0130
,
0001
0001
0100
0100
,
0010
1000
0200
0300
,
1000
1000
0100
0100
,
0010
0010
0020
0031
,
1000
0100
0010
0001
,
1000
0100
0010
0100
,
1000
0010
0100
0001
,
0100
0100
0010
0110
,
0001
0100
0010
1000
,
0001
0100
0010
0100
,
0001
0010
0100
1000
,
0100
0000
0000
0010
0000
0000
0100
0000
0000
0020
0000
0000
0030
0000
0000
0000
,
0200
0000
0000
2300
0000
0000
0000
0000
,
3002
0000
0000
0203
0000
0000
0000
0000
,
0320
0000
0000
2030
0000
0000
0000
0000
,
3002
0000
0000
0023
0000
0000
0100
0000
,
0032
0000
0000
0203
0000
0000
0000
0000
,
0320
0000
0000
2030
0000
0000
0000
0000
,
3020
0000
0000
0230
0000
0000
0000
0000
,
0302
0000
0000
0023
0000
0000
0230
0300
;

//---------------dance-single - ----------------
#NOTEDATA:;
#CHARTNAME:;
#STEPSTYPE:dance-single;
#DESCRIPTION:;
#CHARTSTYLE:;
#DIFFICULTY:Beginner;
#METER:2;
#RADARVALUES:0.167734,0.223487,0.068618,0.030497,0.000000,154.000000,145.000000,9.000000,4.000000,0.000000,0.000000,0.000000,0.000000,0.000000,0.167734,0.223487,0.068618,0.030497,0.000000,154.000000,145.000000,9.000000,4.000000,0.000000,0.000000,0.000000,0.000000,0.000000;
#CREDIT:;
#NOTES:
0000
0000
0000
0000
,
0000
0000
0000
0000
,
0000
0000
0000
0000
,
1000
0000
1000
0000
,
0001
0000
0001
0000
,
0100
0000
0100
0000
,
0010
0000
0010
0000
,
1000
0000
1000
0000
,
0001
0000
0001
0000
,
0010
0000
0010
0000
,
0100
0100
0100
0000
,
1000
0000
0001
0000
,
1000
0000
0001
0000
,
0100
0000
0010
0000
,
0010
0000
0100
0000
,
0001
0000
1000
0000
,
0001
0000
1000
0000
,
0100
0000
0010
0000
,
0200
0000
0000
0300
,
1000
0000
0000
1000
,
0100
0000
0000
0100
,
0010
0000
0000
0010
,
0001
0000
1000
0000
,
0001
0000
0000
0001
,
0100
0000
0000
0100
,
0010
0000
0010
0000
,
1000
0001
1000
0000
,
0000
0100
0000
0100
,
0000
0010
0000
0010
,
0000
0100
0000
0100
,
0000
0010
0000
0010
,
0000
0001
0000
0001
,
0000
1000
0000
1000
,
0000
0001
0000
0001
,
0200
0000
0000
0300
,
0000
0010
0000
0010
,
0000
0100
0000
0100
,
0000
0010
0000
0010
,
0000
0100
0000
0100
,
0000
0001
0000
0001
,
0000
1000
0000
1000
,
1000
0000
0001
0000
,
1000
0010
0100
0000
,
1001
0000
0000
0000
,
0000
0000
0000
0000
,
1001
0000
0000
0000
,
0000
0000
0000
0000
,
0110
0000
0000
0000
,
0000
0000
0000
0000
,
0110
0000
0000
0000
,
0000
0000
0000
0000
,
1001
0000
0000
0000
,
0001
0000
0001
0000
,
1001
0000
0000
0000
,
1000
0000
1000
0000
,
1001
0000
0000
0000
,
0001
0000
0001
0000
,
1001
0000
0000
0000
,
0110
0000
0000
0000
,
0000
0000
0000
1000
,
0001
0000
0001
0000
,
0100
0010
0100
0010
,
1000
0000
1000
0000
,
0100
0010
0100
0010
,
0001
0000
1000
0000
,
0100
0010
0010
0100
,
1000
0000
0001
0000
,
0100
0100
0100
0000
,
0001
0000
0010
0000
,
0001
0000
0010
0000
,
0100
0000
1000
0000
,
0100
0000
1000
0000
,
0010
0000
1000
0000
,
0010
0000
1000
0000
,
0001
0000
0100
0001
,
0020
0000
0000
0030
,
0100
0000
0000
0000
,
1000
0000
0000
0000
,
0001
0000
0000
0000
,
0100
0000
0000
0000
,
0100
0000
0000
0000
,
0001
0000
0000
0000
,
1000
0000
0000
0000
,
0100
0000
0000
0020
0000
0000
0030
0000
;
