#VERSION:0.83;
#TITLE:NOTHING LEFT;
#SUBTITLE:;
#ARTIST:OLIVERSE;
#TITLETRANSLIT:;
#SUBTITLETRANSLIT:;
#ARTISTTRANSLIT:;
#GENRE:;
#ORIGIN:;
#CREDIT:;
#BANNER:NOTHING LEFT.png;
#BACKGROUND:NOTHING LEFT-bg.png;
#PREVIEWVID:;
#JACKET:NOTHING LEFT-jacket.png;
#CDIMAGE:;
#DISCIMAGE:;
#LYRICSPATH:;
#CDTITLE:;
#MUSIC:NOTHING LEFT.ogg;
#OFFSET:0.730000;
#SAMPLESTART:40.871967;
#SAMPLELENGTH:12.800003;
#SELECTABLE:YES;
#BPMS:0.000=150.000;
#STOPS:;
#DELAYS:;
#WARPS:;
#TIMESIGNATURES:0.000=4=4;
#TICKCOUNTS:0.000=4;
#COMBOS:0.000=1;
#SPEEDS:0.000=1.000=0.000=0;
#SCROLLS:0.000=1.000;
#FAKES:;
#LABELS:0.000=Song Start;
#BGCHANGES:;
#KEYSOUNDS:;
#ATTACKS:
;

//---------------dance-single - ----------------
#NOTEDATA:;
#CHARTNAME:;
#STEPSTYPE:dance-single;
#DESCRIPTION:;
#CHARTSTYLE:;
#DIFFICULTY:Hard;
#METER:15;
#RADARVALUES:0.655427,0.838509,0.728778,0.587992,0.173913,554.000000,466.000000,88.000000,71.000000,5.000000,0.000000,0.000000,0.000000,0.000000,0.655427,0.838509,0.728778,0.587992,0.173913,554.000000,466.000000,88.000000,71.000000,5.000000,0.000000,0.000000,0.000000,0.000000;
#CREDIT:Daniel Van Eden;
#NOTES:
// measure 0
0000
0000
0000
0000
,  // measure 1
0000
0000
0000
0000
,  // measure 2
0000
0000
0000
0000
,  // measure 3
0000
0000
0000
0000
,  // measure 4
0000
0000
0000
0000
,  // measure 5
0000
0000
0000
0000
,  // measure 6
0000
0000
0000
0000
,  // measure 7
0000
0000
0000
0000
,  // measure 8
0000
0000
0000
0000
,  // measure 9
0000
0000
0000
0000
,  // measure 10
0001
0020
0100
0000
0031
0000
0000
0001
,  // measure 11
0200
0010
0000
0000
0301
0000
0010
0100
,  // measure 12
0020
0000
0000
0000
0031
0000
0100
0020
,  // measure 13
0001
0000
0000
0130
0002
0000
0013
0100
,  // measure 14
0010
0000
0001
0000
0100
0000
0010
0100
,  // measure 15
0010
0100
0001
0000
0100
0000
0001
0000
,  // measure 16
0010
0000
0010
0000
0100
0010
0100
0010
,  // measure 17
0001
0001
0010
0010
0100
0010
0001
0100
,  // measure 18
0201
0001
0310
0000
0010
0100
0001
0021
,  // measure 19
0130
0000
0120
0000
0000
0000
0031
0000
0001
0000
0100
0010
0100
0000
0001
0000
,  // measure 20
0102
0100
0013
0000
0010
0001
0001
0201
,  // measure 21
0310
0210
0000
0010
0010
0301
0101
0000
,  // measure 22
0012
0010
0103
0000
0100
0001
0010
0120
,  // measure 23
0031
0000
0021
0000
0000
0000
0100
0000
0130
0000
0010
0001
0100
0000
0010
0000
,  // measure 24
0210
0010
0301
0000
0001
0100
0100
0120
,  // measure 25
0130
0000
0102
0000
0013
0000
0021
0000
0130
0010
0100
0000
0010
0000
0001
0000
,  // measure 26
0101
0100
0110
0000
0101
0000
0110
0010
,  // measure 27
0011
0010
0110
0100
0101
0001
0010
0100
,  // measure 28
0110
0010
0011
0000
0110
0000
0011
0001
,  // measure 29
0100
0010
0011
0010
0100
0001
0101
0000
,  // measure 30
0011
0010
0110
0000
0011
0000
0110
0100
,  // measure 31
0101
0100
0110
0010
0011
0001
0100
0010
,  // measure 32
0110
0100
0101
0000
0110
0000
0101
0001
,  // measure 33
0010
0100
0101
0100
0010
0001
0011
0000
,  // measure 34
0002
0003
0102
0003
0002
0003
0100
0002
,  // measure 35
0003
0002
0013
0001
0002
0003
0012
0000
,  // measure 36
0203
0310
0201
0300
0200
0300
0001
0200
,  // measure 37
0300
0200
0310
0100
0100
0001
0100
0010
,  // measure 38
0100
0010
0001
0010
0100
0001
0010
0001
,  // measure 39
0010
0100
0001
0100
0010
0001
0100
0001
,  // measure 40
0100
0010
0100
0010
0100
0001
0100
0001
0010
0001
0010
0100
0010
0001
0100
0010
,  // measure 41
0200
0000
0010
0000
0010
0000
0010
0000
0010
0000
0301
0000
0001
0100
0010
0000
,  // measure 42
0210
0000
0301
0001
0102
0000
0013
0010
,  // measure 43
0100
0010
0000
0010
0001
0000
0001
0000
0100
0010
0000
0010
0001
0010
0100
0010
,  // measure 44
0200
0000
0310
0010
0102
0000
0103
0100
,  // measure 45
0021
0000
0031
0001
0220
0330
0022
0033
,  // measure 46
0202
0000
0300
0000
0103
0010
0100
0001
0020
0000
0000
0000
0100
0000
0100
0000
,  // measure 47
0031
0000
0001
0010
0100
0010
0001
0100
0002
0000
0000
0000
0103
0000
0100
0000
,  // measure 48
0110
0010
0001
0010
0110
0100
0001
0010
,  // measure 49
0110
0100
0001
0100
0110
0010
0001
0010
,  // measure 50
0120
0000
0031
0001
0012
0000
0103
0100
,  // measure 51
0010
0100
0000
0100
0001
0000
0001
0000
0010
0100
0000
0100
0001
0100
0010
0100
,  // measure 52
0020
0000
0130
0100
0012
0000
0013
0010
,  // measure 53
0201
0000
0301
0001
0220
0330
0202
0303
,  // measure 54
0022
0000
0030
0000
0013
0100
0010
0001
0200
0000
0000
0000
0010
0000
0010
0000
,  // measure 55
0301
0000
0001
0100
0010
0100
0001
0010
0002
0000
0000
0000
0103
0000
0100
0000
,  // measure 56
0110
0010
0100
0010
0100
0001
0001
0010
,  // measure 57
0100
0000
0100
0000
0010
0000
0010
0000
0011
0000
0001
0010
0100
0010
0001
0000
,  // measure 58
0201
0000
0000
0000
0301
0000
0010
001M
0100
0000
0000
0000
0010
0000
0001
0000
,  // measure 59
0010
0100
0001
0000
0021
0000
0100
0130
,  // measure 60
0120
0000
0031
0000
0101
0100
0001
0000
,  // measure 61
0021
0130
0012
0103
0110
0110
0200
0301
,  // measure 62
0021
0000
0130
0200
0310
0000
0100
0001
,  // measure 63
0100
0010
0001
0000
0101
0001
0100
0100
,  // measure 64
0110
0100
0001
0010
0110
0100
0001
0100
,  // measure 65
0110
0010
0001
0100
0110
0010
0001
0010
,  // measure 66
0210
0000
0000
0000
0301
0000
0010
001M
0100
0000
0000
0000
0100
0000
0010
0M10
,  // measure 67
0001
0000
0100
0000
0001
0000
0010
001M
0100
0010
0100
0000
0001
0000
0010
0000
,  // measure 68
0210
0000
0000
0000
0310
0000
0000
0000
0011
0000
0001
0000
0010
0000
0100
01M0
,  // measure 69
0001
0100
0010
0001
0011
0010
0100
0001
,  // measure 70
0201
0000
0310
0020
0130
0000
0010
0001
,  // measure 71
0010
0100
0001
0000
0101
0100
0001
0010
,  // measure 72
0110
0100
0010
0001
0101
0100
0010
0001
,  // measure 73
0011
0010
0100
0001
0101
0001
0010
0100
,  // measure 74
0220
0000
0000
0000
,  // measure 75
0330
0000
0000
0000
;

//---------------dance-single - ----------------
#NOTEDATA:;
#CHARTNAME:;
#STEPSTYPE:dance-single;
#DESCRIPTION:;
#CHARTSTYLE:;
#DIFFICULTY:Medium;
#METER:11;
#RADARVALUES:0.461402,0.559006,0.165631,0.256729,0.016563,390.000000,370.000000,20.000000,31.000000,0.000000,0.000000,0.000000,0.000000,0.000000,0.461402,0.559006,0.165631,0.256729,0.016563,390.000000,370.000000,20.000000,31.000000,0.000000,0.000000,0.000000,0.000000,0.000000;
#CREDIT:;
#NOTES:
0000
0000
0000
0000
,
0000
0000
0000
0000
,
0000
0000
0000
0000
,
0000
0000
0000
0000
,
0000
0000
0000
0000
,
0000
0000
0000
0000
,
0000
0000
0000
0000
,
0000
0000
0000
0000
,
0000
0000
0000
0000
,
0000
0000
0000
0000
,
0002
0000
0000
0000
0003
0000
0010
0200
,
0000
0320
0000
0000
0000
0000
0000
0000
,
0230
0000
0000
0000
0000
0000
0310
0002
,
0000
0000
0000
0203
0000
0000
0301
0000
,
0010
0001
0011
0001
,
0100
0010
0110
0010
,
0100
0001
0010
0100
,
0010
0001
0010
0001
0100
0001
0100
0001
,
0100
0010
0010
0000
0010
0100
0100
0001
,
0000
0101
0000
0000
0000
0100
0001
0010
,
0010
0001
0001
0000
0010
0100
0100
0010
,
0000
0011
0000
0010
0001
0100
0001
0100
,
0010
0100
0100
0000
0100
0001
0001
0010
,
0000
0110
0000
0100
0100
0010
0001
0100
,
0100
0001
0001
0000
0100
0001
0010
0011
,
0000
0101
0000
0110
0000
0100
0001
0100
,
0010
0100
0010
0000
0100
0000
0100
0001
,
0100
0010
0100
0000
0001
0010
0001
0000
,
0010
0100
0010
0000
0100
0000
0100
0010
,
0100
0000
0010
0001
0100
0001
0010
0000
,
0001
0100
0001
0000
0010
0000
0010
0100
,
0010
0001
0010
0000
0001
0100
0001
0000
,
0100
0010
0100
0000
0001
0000
0001
0100
,
0010
0000
0100
0001
0010
0100
0010
0001
,
0100
0000
0100
0000
0100
0000
0000
0010
,
0000
0010
0000
0010
0010
0000
0100
0000
,
0001
0000
0001
0000
0001
0000
0000
0010
,
0000
0010
0000
0010
0010
0000
0001
0000
,
0201
0310
0210
0301
,
0021
0130
0120
0031
,
0100
0010
0100
0001
0010
0100
0010
0001
,
0100
0001
0001
0001
0001
0010
0100
0010
,
0210
0000
0310
0010
0020
0000
0031
0001
,
0100
0000
0000
0100
0000
0000
0100
0000
0001
0000
0000
0001
0000
0000
0001
0000
,
0200
0000
0310
0010
0010
0000
0100
0001
,
0010
0000
0100
0010
0002
0000
0023
0000
,
0230
0000
0310
0010
0010
0000
0001
0100
,
0010
0001
0010
0100
0002
0000
0013
0010
,
0100
0010
0001
0000
0100
0010
0010
0100
,
0001
0010
0100
0000
0010
0100
0100
0010
,
0002
0000
0103
0100
0200
0000
0301
0001
,
0010
0000
0000
0010
0000
0000
0010
0000
0001
0000
0000
0001
0000
0000
0001
0000
,
0020
0000
0130
0100
0100
0000
0010
0001
,
0100
0000
0010
0100
0002
0000
0203
0000
,
0320
0000
0130
0100
0100
0000
0001
0010
,
0100
0001
0100
0010
0002
0000
0103
0100
,
0010
0100
0001
0000
0100
0001
0001
0010
,
0001
0100
0001
0100
0010
0000
0110
0000
,
0101
0000
0001
0010
0001
0000
0001
0100
,
0010
0100
0001
0000
0021
0000
0100
0130
,
0100
0000
0011
0000
0010
0100
0010
0000
,
0100
0001
0100
0010
0001
0001
0200
0000
,
0301
0000
0100
0000
0110
0000
0100
0010
,
0100
0001
0100
0000
0010
0010
0100
0001
,
0010
0100
0010
0000
0001
0100
0100
0001
,
0100
0010
0100
0000
0001
0010
0010
0001
,
0100
0000
0010
0200
0301
0000
0001
0200
,
0310
0001
0010
0200
0301
0010
0010
0100
,
0010
0000
0101
0000
0001
0100
0001
0020
,
0130
0100
0010
0001
0000
0001
0010
0100
,
0010
0000
0001
0000
0101
0000
0001
0010
,
0100
0010
0001
0000
0100
0100
0010
0010
,
0100
0001
0010
0000
0100
0010
0010
0001
,
0100
0001
0100
0000
0010
0100
0100
0001
,
0020
0000
0000
0000
,
0030
0000
0000
0000
;

//---------------dance-single - ----------------
#NOTEDATA:;
#CHARTNAME:;
#STEPSTYPE:dance-single;
#DESCRIPTION:;
#CHARTSTYLE:;
#DIFFICULTY:Easy;
#METER:6;
#RADARVALUES:0.289855,0.341615,0.182195,0.182195,0.000000,245.000000,223.000000,22.000000,22.000000,0.000000,0.000000,0.000000,0.000000,0.000000,0.289855,0.341615,0.182195,0.182195,0.000000,245.000000,223.000000,22.000000,22.000000,0.000000,0.000000,0.000000,0.000000,0.000000;
#CREDIT:Daniel Van Eden;
#NOTES:
0000
0000
0000
0000
,
0000
0000
0000
0000
,
0000
0000
0000
0000
,
0000
0000
0000
0000
,
0000
0000
0000
0000
,
0000
0000
0000
0000
,
0000
0000
0000
0000
,
0000
0000
0000
0000
,
0000
0000
0000
0000
,
0000
0000
0000
0000
,
0002
0000
0010
0000
,
0100
0000
0010
0000
,
0203
0000
0010
0000
,
0001
0000
0010
0000
,
0301
0000
0010
0010
,
0001
0000
0100
0100
,
0010
0000
0100
0100
,
0001
0010
0100
0010
,
0011
0000
0000
0000
0000
0000
0000
0101
,
0000
0110
0000
0000
0000
0100
0001
0000
,
0101
0000
0000
0000
0000
0000
0000
0011
,
0000
0110
0000
0000
0100
0000
0110
0000
,
0011
0000
0000
0000
0000
0000
0000
0101
,
0000
0011
0000
0000
0000
0001
0010
0000
,
0110
0000
0000
0000
0000
0000
0000
0110
,
0000
0110
0000
0011
0000
0000
0000
0000
,
0010
0001
0100
0010
,
0010
0100
0001
0001
,
0100
0001
0010
0100
,
0100
0010
0001
0001
,
0100
0001
0010
0100
,
0010
0001
0100
0100
,
0010
0100
0001
0010
,
0100
0010
0001
0001
,
0001
0000
0010
0000
0001
0000
0000
0010
,
0000
0010
0000
0000
0001
0000
0010
0000
,
0001
0000
0100
0000
0001
0000
0000
0100
,
0000
0100
0000
0000
0001
0000
0100
0000
,
0010
0000
0100
0000
,
0010
0000
0100
0000
,
0001
0001
0010
0010
,
0200
0000
0000
0310
,
0110
0010
0001
0001
,
0100
0010
0100
0000
,
0110
0100
0100
0010
,
0010
0100
0002
0023
,
0031
0010
0010
0100
,
0010
0100
0100
0010
,
0001
0100
0010
0010
,
0100
0001
0010
0010
,
0110
0100
0010
0001
,
0001
0100
0010
0100
,
0100
0001
0001
0010
,
0010
0001
0200
0320
,
0130
0001
0001
0100
,
0001
0100
0100
0001
,
0010
0001
0100
0100
,
0010
0010
0010
0000
,
0200
0010
0301
0002
,
0100
0013
0200
0310
,
0011
0002
0010
0103
,
0200
0010
0301
0001
,
0101
0100
0101
0001
,
0100
0010
0100
0100
,
0001
0010
0010
0001
,
0100
0010
0010
0100
,
0101
0002
0013
0020
,
0130
0200
0310
0010
,
0001
0020
0100
0032
,
0203
0001
0310
0100
,
0120
0100
0230
0010
,
0302
0100
0013
0010
,
0100
0010
0010
0100
,
0010
0001
0001
0100
,
0002
0000
0000
0000
,
0003
0000
0000
0000
;

//---------------dance-single - ----------------
#NOTEDATA:;
#CHARTNAME:;
#STEPSTYPE:dance-single;
#DESCRIPTION:;
#CHARTSTYLE:;
#DIFFICULTY:Beginner;
#METER:4;
#RADARVALUES:0.179828,0.245135,0.033126,0.000000,0.000000,152.000000,148.000000,4.000000,0.000000,0.000000,0.000000,0.000000,0.000000,0.000000,0.179828,0.245135,0.033126,0.000000,0.000000,152.000000,148.000000,4.000000,0.000000,0.000000,0.000000,0.000000,0.000000,0.000000;
#CREDIT:Daniel Van Eden;
#NOTES:
0000
0000
0000
0000
,
0000
0000
0000
0000
,
0000
0000
0000
0000
,
0000
0000
0000
0000
,
0000
0000
0000
0000
,
0000
0000
0000
0000
,
0000
0000
0000
0000
,
0000
0000
0000
0000
,
0000
0000
0000
0000
,
0000
0000
0000
0000
,
0001
0000
0000
0000
,
0010
0000
0000
0000
,
0001
0000
0000
0000
,
0100
0000
0000
0000
,
0001
0000
0001
0000
,
0010
0000
0010
0000
,
0100
0000
0100
0000
,
0010
0000
0010
0000
,
0001
0000
0000
0000
0000
0000
0000
0001
,
0000
0001
0000
0000
0000
0000
0000
0000
,
0100
0000
0000
0000
0000
0000
0000
0100
,
0000
0100
0000
0000
0000
0000
0010
0000
,
0010
0000
0000
0000
0000
0000
0000
0010
,
0000
0010
0000
0000
0000
0000
0000
0000
,
0100
0000
0000
0000
0000
0000
0000
0100
,
0000
0100
0000
0100
0000
0000
0000
0000
,
0001
0000
0010
0000
,
0100
0000
0010
0010
,
0001
0000
0100
0000
,
0010
0000
0100
0100
,
0001
0000
0001
0001
,
0001
0000
0100
0100
,
0100
0000
0001
0001
,
0001
0000
0010
0010
,
0010
0100
0000
0100
,
0000
0010
0000
0010
,
0000
0100
0000
0100
,
0000
0010
0000
0010
,
0010
0000
0001
0000
,
0100
0000
0010
0000
,
0100
0100
0010
0010
,
0100
0000
0000
0000
,
0110
0000
0100
0000
,
0001
0000
0010
0010
,
0010
0000
0001
0000
,
0100
0000
0001
0001
,
0001
0000
0010
0000
,
0100
0100
0100
0000
,
0010
0000
0001
0000
,
0100
0000
0010
0000
,
0110
0000
0010
0000
,
0001
0000
0100
0100
,
0100
0000
0001
0000
,
0010
0000
0001
0001
,
0001
0000
0100
0000
,
0010
0010
0010
0000
,
0100
0000
0000
0000
,
0100
0100
0100
0000
,
0010
0010
0010
0000
,
0100
0100
0100
0000
,
0001
0000
0010
0000
,
0001
0010
0001
0000
,
0100
0000
0110
0000
,
0100
0000
0001
0001
,
0001
0000
0010
0000
,
0100
0000
0010
0000
,
0001
0010
0010
0001
,
0001
0000
0100
0100
,
0100
0000
0010
0000
,
0100
0100
0100
0000
,
0010
0000
0110
0000
,
0100
0000
0001
0001
,
0001
0000
0010
0000
,
0100
0100
0010
0010
,
0001
0000
0000
0000
;
