#VERSION:0.83;
#TITLE:NINA;
#SUBTITLE:;
#ARTIST:PinocchioP feat. Hatsune Miku;
#TITLETRANSLIT:;
#SUBTITLETRANSLIT:;
#ARTISTTRANSLIT:;
#GENRE:;
#ORIGIN:;
#CREDIT:;
#BANNER:NINA.png;
#BACKGROUND:NINA-bg.png;
#PREVIEWVID:;
#JACKET:NINA-jacket.png;
#CDIMAGE:;
#DISCIMAGE:;
#LYRICSPATH:;
#CDTITLE:;
#MUSIC:NINA.ogg;
#OFFSET:-1.194000;
#SAMPLESTART:53.963001;
#SAMPLELENGTH:11.538000;
#SELECTABLE:YES;
#BPMS:0.000=195.000;
#STOPS:;
#DELAYS:;
#WARPS:;
#TIMESIGNATURES:0.000=4=4;
#TICKCOUNTS:0.000=4;
#COMBOS:0.000=1;
#SPEEDS:0.000=1.000=0.000=0;
#SCROLLS:0.000=1.000,
266.500=0.000,
267.500=1.000;
#FAKES:;
#LABELS:0.000=Song Start;
#BGCHANGES:-3.880=NINA.avi=1.000=1=0=0=StretchNoLoop==CrossFade==,
99999=-nosongbg-=1.000=0=0=0 // don't automatically add -songbackground-
;
#KEYSOUNDS:;
#ATTACKS:
;

//---------------dance-single - ----------------
#NOTEDATA:;
#CHARTNAME:;
#STEPSTYPE:dance-single;
#DESCRIPTION:;
#CHARTSTYLE:;
#DIFFICULTY:Medium;
#METER:13;
#RADARVALUES:0.530969,0.615381,0.228075,0.979879,0.008447,440.000000,413.000000,27.000000,116.000000,0.000000,0.000000,1.000000,0.000000,0.000000,0.530969,0.615381,0.228075,0.979879,0.008447,440.000000,413.000000,27.000000,116.000000,0.000000,0.000000,1.000000,0.000000,0.000000;
#CREDIT:Kikoia;
#NOTES:
0000
0000
0000
0000
,
0000
0000
0000
0000
,
0000
0000
0000
0000
,
0000
0000
0000
0000
,
0002
0000
0203
0000
1300
0200
0000
0302
,
0000
1003
0100
1000
0100
0001
0100
1000
,
0000
0001
0100
0001
0100
0010
2000
0001
,
0000
0100
0000
0001
3001
0000
0000
0000
,
0001
0000
1000
0000
0010
2000
0000
3001
,
0000
1000
0100
1000
0100
0010
0002
0000
,
0203
0000
0320
0000
0130
0002
0000
0023
,
0000
0130
1000
1000
0010
0100
0002
0000
,
1000
0000
1003
0000
0001
0010
0000
0002
,
0000
1003
0001
0100
0001
0100
0020
0000
,
2030
0000
3200
0000
0310
0100
1000
0010
,
0000
0100
0010
0100
0020
0000
0000
0000
,
0430
0000
0000
0000
,
0302
0000
0203
0000
1300
0100
2000
0000
,
3200
0000
0302
0000
0013
0001
0010
0002
,
1000
0000
1003
0000
0002
1000
0000
1003
,
0000
1000
0010
0100
0002
0000
0010
0000
,
2003
0000
3200
0000
0301
0100
0002
0000
,
0203
0000
2300
0000
3010
0100
0001
0000
,
0001
0000
0200
0000
0010
0310
0000
0100
,
0000
0001
1000
0001
1000
0000
0110
0000
,
2002
0000
0000
3003
2000
0000
0000
0000
0100
0000
0000
0000
3001
0000
0000
0000
,
0002
0100
1000
0010
,
0013
0000
0100
0000
2000
0010
0000
3010
,
0000
1000
0010
0100
0002
0000
0023
0000
,
0230
1000
2300
3001
,
0200
0010
0010
0301
,
0001
1000
0010
1000
0001
0010
0001
1000
,
0200
0320
0032
0203
,
0320
0030
1010
0000
,
2000
3200
0302
0203
,
0320
0030
0011
0000
,
0002
0023
2030
3020
,
0031
1000
0001
0000
0001
0100
0010
1000
,
0000
0110
0000
2002
0000
0000
3003
0000
,
0001
0100
0001
0100
0001
0000
1000
0000
,
0100
1000
0100
1000
0100
0000
0010
0000
,
0001
1000
0001
1000
0001
0010
0100
2000
,
0000
0000
3000
0000
,
0001
1000
0100
1000
0001
0100
0020
0000
,
1030
0001
0100
0001
1000
0100
0020
0000
,
0032
0000
2003
0000
3010
0100
0001
0020
,
0000
0100
0130
0000
0010
0100
0010
0000
,
0001
0010
0001
0100
0001
1000
0001
0000
,
1000
0010
1000
0100
1000
0001
1000
0000
,
0002
0000
0023
0000
0130
1000
0010
0200
,
0000
0301
1000
0002
2000
0000
3003
0000
,
1001
1010
0011
0101
,
0001
0100
1000
0100
0001
0000
1000
0000
,
1100
0101
0011
1001
,
1000
0100
0001
0100
1000
0000
0001
0000
,
1000
0100
1000
0100
0010
0001
0020
0000
,
0031
0100
0001
0100
0010
1000
0020
0000
,
1030
0000
1010
0000
0001
0100
0010
1000
,
0002
2003
3002
2003
3002
0000
0003
0000
,
0000
0000
0000
0000
,
0000
0000
0000
0000
,
0000
0000
0000
0000
,
0000
0000
0000
0000
,
2000
0000
3200
0000
0301
0100
0002
0000
,
0203
0000
2300
0000
3010
1000
0010
0000
,
2000
0000
0100
0000
3001
0100
0010
2000
,
0000
0000
0000
0000
0100
3100
0000
0000
,
1000
0100
0010
0001
1000
0010
0200
0000
,
0301
0010
0100
1000
0001
0100
0020
0000
,
2030
0000
3002
0000
0013
0100
0010
0200
,
0000
1300
0001
2000
0002
0000
3003
0000
,
0101
0101
1100
1100
,
0001
0010
0001
0100
0002
0000
1003
0000
,
1010
1010
0011
0011
,
1000
0100
1000
0010
1000
0001
0020
0000
,
0031
0100
0001
0100
0010
1000
0010
1000
,
0100
0010
0002
0000
1003
0010
0200
0000
,
0301
0000
0020
0000
1030
0010
0002
0000
,
2003
3002
2003
3002
2003
0000
0000
0000
,
3000
0000
0000
0000
,
0000
0000
0000
0000
,
0000
0000
0000
0000
,
0101
0101
0202
0303
,
1001
0000
1000
0000
0010
2000
0000
3001
,
0000
0010
0100
0010
0100
1000
0002
0000
,
0203
0000
2300
0000
3100
0002
0000
0023
,
0000
0130
1000
0001
1000
1000
0002
0000
,
1003
0000
0010
0000
0200
0001
0000
0301
,
0000
1000
0100
0010
0001
0010
0200
0000
,
2300
0000
3002
0000
0013
0100
0010
0002
,
0000
1003
0001
2000
0002
0000
0000
0000
,
0000
3003
0000
0000
0000
0000
0000
0000
0000
0000
0000
0000
0000
0000
0000
0000
;

//---------------dance-single - ----------------
#NOTEDATA:;
#CHARTNAME:;
#STEPSTYPE:dance-single;
#DESCRIPTION:;
#CHARTSTYLE:;
#DIFFICULTY:Hard;
#METER:16;
#RADARVALUES:0.757837,1.038455,0.354784,0.515281,0.206957,628.000000,586.000000,42.000000,61.000000,0.000000,0.000000,2.000000,0.000000,0.000000,0.757837,1.038455,0.354784,0.515281,0.206957,628.000000,586.000000,42.000000,61.000000,0.000000,0.000000,2.000000,0.000000,0.000000;
#CREDIT:Kikoia;
#NOTES:
// measure 0
0000
0000
0000
0000
,  // measure 1
0000
0000
0000
0000
,  // measure 2
0000
0000
0000
0000
,  // measure 3
0000
0000
0000
0000
,  // measure 4
2001
0000
3010
0000
2000
0100
0000
3001
,  // measure 5
0000
0001
0100
0001
0010
0001
1000
0200
,  // measure 6
0000
0301
0100
1000
0010
0100
0001
0010
,  // measure 7
0000
0110
0000
0110
1001
0000
0000
0000
,  // measure 8
1001
0000
0012
0000
1003
0100
0010
0002
,  // measure 9
0000
0000
1003
0000
0010
0000
0100
0000
0001
0100
0001
0000
0100
0000
0010
0000
,  // measure 10
1000
0000
1002
0000
0103
0010
0100
0002
,  // measure 11
0000
1003
0100
0001
0100
0010
0001
0100
,  // measure 12
0010
0000
2010
0000
3001
0100
0010
2000
,  // measure 13
0000
0000
3001
0000
0010
0000
0100
0000
1000
0100
1000
0000
0100
0000
0010
0000
,  // measure 14
0001
0000
2001
0000
3010
0100
0010
2000
,  // measure 15
0000
3001
0010
1000
0010
0001
0100
0010
,  // measure 16
4000
0004
0000
0000
0000
0000
0000
0000
0000
0000
0000
0000
3003
0000
0000
0000
,  // measure 17
2000
0000
3200
0000
0310
0001
1000
0010
,  // measure 18
0200
0000
0302
0000
1003
0100
1000
0002
,  // measure 19
0100
0000
0010
0000
0100
0100
0000
1003
,  // measure 20
0000
0000
1000
0000
0100
0000
0010
0000
0001
0100
0001
0000
1000
0000
0100
0000
,  // measure 21
0020
0000
0032
0000
1003
0100
0010
0100
,  // measure 22
2000
0000
3020
0000
1030
0001
0100
0020
,  // measure 23
1000
0000
0001
0000
1000
1030
0000
1001
,  // measure 24
0000
0000
1001
0000
0000
0000
1000
0000
0001
0010
0001
0010
0100
0000
1000
0000
,  // measure 25
0010
0000
1010
1000
0001
0100
0010
1000
,  // measure 26
0100
0000
1100
1000
0100
0001
0100
2000
,  // measure 27
0001
0000
0010
0000
0100
0100
0000
3001
,  // measure 28
0000
0000
0001
0000
1000
0000
0001
0000
0100
0010
1000
0000
0001
0000
0010
0000
,  // measure 29
0100
0000
0110
0100
1000
0001
0100
0010
,  // measure 30
1000
0000
1010
1000
0010
0001
0010
1000
,  // measure 31
0100
0020
0001
0031
0020
0100
0130
0010
,  // measure 32
0001
0001
0100
0100
0010
0010
1000
1000
,  // measure 33
0002
0000
1003
0100
1000
0100
0010
0002
,  // measure 34
0000
2003
0000
3100
0001
0100
0001
0100
,  // measure 35
2000
0000
3002
0000
0103
0010
1000
0001
,  // measure 36
0010
0002
0000
0103
1000
0100
1000
0100
,  // measure 37
0001
0100
0010
1000
0001
0010
0100
1000
,  // measure 38
0000
1100
0000
0022
0000
0033
1001
0000
,  // measure 39
1000
0100
0010
0100
0001
0100
0010
0100
,  // measure 40
1000
0010
0010
1000
0001
0100
0020
0000
,  // measure 41
1030
0010
0100
0010
0001
0010
0100
0002
,  // measure 42
2000
0000
3003
0000
,  // measure 43
1000
0100
0010
1000
0010
0100
1000
0010
,  // measure 44
0100
0000
1000
0000
0100
0000
0010
0000
1000
0000
0100
0010
0001
0000
1000
0000
,  // measure 45
0010
0000
0110
0000
0101
0001
1000
0200
,  // measure 46
0000
0010
0310
0100
1000
0001
1000
0001
,  // measure 47
0100
0010
0100
0001
0010
0100
0001
0100
,  // measure 48
0010
0000
0001
0000
0100
0000
0010
0000
1000
0000
0001
0100
0010
0000
1000
0000
,  // measure 49
0100
0000
0110
0000
0011
0001
1000
0020
,  // measure 50
0000
0100
0130
0010
1000
0001
1000
0000
,  // measure 51
1000
0100
1000
0000
0100
1000
0100
0000
1000
0100
0010
0000
0001
0000
1000
0000
,  // measure 52
0001
0100
0001
0000
0100
0001
0100
0000
0001
0100
0010
0000
1000
0000
0001
0000
,  // measure 53
1000
0010
0100
0000
0001
0010
0100
0000
1000
0010
0100
0000
0001
0010
0100
0000
,  // measure 54
1000
0001
0100
0000
0010
1000
0100
0000
0010
0001
1000
0010
0100
0001
1000
0001
,  // measure 55
1000
0100
0001
0100
1000
0010
0001
0010
,  // measure 56
1000
0000
0001
0000
0100
0000
0010
0000
1000
0000
0001
0010
0001
0000
1000
0000
,  // measure 57
0100
0000
1100
0000
1010
0010
0100
0001
,  // measure 58
1001
0110
2002
3003
,  // measure 59
1002
0100
0203
0010
,  // measure 60
0302
0010
2003
0100
,  // measure 61
3001
0100
0001
0100
0010
1000
0010
1000
,  // measure 62
0100
0010
0001
1000
0020
0200
0000
0000
,  // measure 63
0330
0000
0000
0000
,  // measure 64
0000
0000
0000
0000
,  // measure 65
0000
0000
0000
0000
,  // measure 66
0000
0000
0000
0000
0110
2002
3003
0000
,  // measure 67
0001
0010
1000
0010
0100
1000
0010
0100
,  // measure 68
1000
0000
0100
0000
0001
0000
0010
0000
0100
1000
0100
0000
0010
0000
0001
0000
,  // measure 69
0100
0000
0101
0000
1100
1000
0010
0200
,  // measure 70
0000
0000
0301
0000
1000
0000
0001
0000
2000
0000
0000
0000
3100
0010
0100
0010
,  // measure 71
0001
1000
0001
0000
1000
0001
1000
0000
0001
0100
0001
0000
1000
0100
1000
0000
,  // measure 72
0100
0010
0100
0000
0010
0001
0010
0000
0001
0000
0010
0000
0100
0000
1000
0000
,  // measure 73
0001
0100
0010
0000
1000
0100
0010
0000
0001
0100
0010
0000
1000
0100
0010
0000
,  // measure 74
0001
1000
0010
0000
0100
0001
0010
0000
0100
1000
0010
0100
0001
1000
0001
1000
,  // measure 75
0001
0100
1000
0100
0001
0010
1000
0010
,  // measure 76
0001
0000
1000
0000
0001
0000
0100
0000
0010
1000
0010
0000
0100
0000
0001
0000
,  // measure 77
0010
0000
0110
0000
1100
1000
0010
0100
,  // measure 78
0001
0010
1000
0010
0002
0000
0000
0000
,  // measure 79
1003
0100
0001
0100
0010
0100
0001
0100
,  // measure 80
1000
0001
0100
1000
0100
0010
0100
0001
,  // measure 81
2000
0000
3200
0000
0320
0031
1000
0001
,  // measure 82
1001
0110
2002
3003
,  // measure 83
1001
0000
2100
0000
3001
0100
0010
2000
,  // measure 84
0000
0000
3001
0000
0010
0000
0100
0000
1000
0100
0010
0000
0001
0000
0100
0000
,  // measure 85
0010
0000
0110
0000
0100
0010
1000
0002
,  // measure 86
0000
1003
0100
0001
0100
1000
0010
0100
,  // measure 87
1000
0000
1100
0000
1000
0100
0001
0020
,  // measure 88
0000
0000
0130
0000
0001
0000
0100
0000
1000
0001
1000
0000
0001
0000
0100
0000
,  // measure 89
0010
0000
1010
0000
1000
0100
0010
0002
,  // measure 90
0000
0103
0010
0100
0020
0000
0000
0000
,  // measure 91
0000
0030
0000
0000
0000
0000
0000
0000
0000
0000
0000
0000
0000
0000
0000
0000
;
