#VERSION:0.83;
#TITLE:NEVER MET! (feat. Glitch Gum);
#SUBTITLE:100 gecs r3mix;
#ARTIST:CMTEN;
#TITLETRANSLIT:;
#SUBTITLETRANSLIT:;
#ARTISTTRANSLIT:;
#GENRE:;
#ORIGIN:;
#CREDIT:;
#BANNER:NEVER MET!.png;
#BACKGROUND:NEVER MET!-bg.png;
#PREVIEWVID:;
#JACKET:NEVER MET!-jacket.png;
#CDIMAGE:;
#DISCIMAGE:;
#LYRICSPATH:;
#CDTITLE:;
#MUSIC:NEVER MET!.ogg;
#OFFSET:-0.252000;
#SAMPLESTART:53.705002;
#SAMPLELENGTH:14.616000;
#SELECTABLE:YES;
#DISPLAYBPM:180.000000;
#BPMS:0.000=179.596;
#STOPS:;
#DELAYS:;
#WARPS:;
#TIMESIGNATURES:0.000=4=4;
#TICKCOUNTS:0.000=4;
#COMBOS:0.000=1;
#SPEEDS:0.000=1.000=0.000=0;
#SCROLLS:0.000=1.000;
#FAKES:;
#LABELS:0.000=Song Start;
#BGCHANGES:;
#KEYSOUNDS:;
#ATTACKS:
;

//---------------dance-single - mikeswrld----------------
#NOTEDATA:;
#CHARTNAME:mikeswrld;
#STEPSTYPE:dance-single;
#DESCRIPTION:mikeswrld;
#CHARTSTYLE:;
#DIFFICULTY:Hard;
#METER:15;
#RADARVALUES:0.785884,0.847754,0.101362,0.138221,0.304086,597.000000,586.000000,11.000000,15.000000,0.000000,0.000000,0.000000,0.000000,0.000000,0.785884,0.847754,0.101362,0.138221,0.304086,597.000000,586.000000,11.000000,15.000000,0.000000,0.000000,0.000000,0.000000,0.000000;
#CREDIT:mikeswrld;
#DISPLAYBPM:180.000000;
#NOTES:
// measure 0
0000
0000
0000
0000
,  // measure 1
0000
0000
0000
0000
,  // measure 2
0000
0000
0000
0000
,  // measure 3
0000
0000
0000
0000
,  // measure 4
1000
1000
1000
1000
,  // measure 5
0001
0001
0001
0001
,  // measure 6
1000
0100
0001
0010
,  // measure 7
1000
0010
1000
0010
1000
0100
0000
0000
,  // measure 8
0010
0010
0100
1000
0001
0100
1000
0100
,  // measure 9
0010
0000
0010
0000
1000
0000
0010
0000
1000
0010
0100
0000
0010
0000
0100
0000
,  // measure 10
0000
0001
1000
0001
0010
0100
1000
0200
,  // measure 11
0000
0000
0310
0000
0001
0000
0010
0000
0001
0010
0100
0000
1000
0000
0100
0000
,  // measure 12
0000
0100
1000
0010
0100
0001
0100
0100
,  // measure 13
0010
0000
1000
0000
0010
0000
0100
0000
0001
1000
0010
0000
0100
0000
0001
0000
,  // measure 14
0001
0010
0100
1000
0001
1000
0100
0010
,  // measure 15
0100
0000
0100
1000
0100
0000
0010
0001
,  // measure 16
0010
0001
0100
1000
0100
0010
1000
0010
,  // measure 17
0100
0000
0000
0000
0010
0000
0100
0000
1000
0100
0010
0000
0100
0000
0001
0000
,  // measure 18
0010
0100
1000
0100
0001
0100
1000
0100
,  // measure 19
0010
0000
0001
0000
0010
0000
0100
0000
1000
0001
0100
0000
0100
0000
0010
0000
,  // measure 20
1000
0000
0010
0100
0000
0100
0001
0010
,  // measure 21
0100
0000
0000
0000
0100
0000
0010
0000
0100
1000
0001
0000
0010
0000
0001
0000
,  // measure 22
0100
0010
1000
0010
0100
0001
0100
1000
,  // measure 23
0100
0000
0100
0010
0100
0000
0100
0001
,  // measure 24
0010
0001
0001
0001
0010
0100
0100
1000
,  // measure 25
0100
0000
1000
0000
0100
0000
1000
0000
0001
0000
0000
0000
1000
0000
0001
1000
,  // measure 26
0010
0100
0010
1000
0100
1000
0100
0010
,  // measure 27
0001
0000
0010
0000
0100
0000
0010
0000
0100
1000
0010
0000
0100
0000
0001
0000
,  // measure 28
1000
0100
0001
1000
0010
0001
0010
0100
,  // measure 29
1000
0000
0100
0000
0010
0000
0001
0000
0010
0100
0010
0000
0100
1000
0100
0000
,  // measure 30
0000
1000
0001
0100
1000
0001
0010
1000
,  // measure 31
0010
0000
0001
0000
0010
0000
0100
0000
0010
0100
0010
0000
0010
1000
0001
0000
,  // measure 32
0001
0000
0100
0000
0010
0100
0000
0100
0010
0000
0100
0010
0000
0010
0100
0000
,  // measure 33
0001
0000
0010
0000
0100
0010
0000
0010
0100
0000
0000
0000
0110
0000
0000
0000
,  // measure 34
1000
0000
0001
0000
0100
0010
0000
0100
0010
0000
0100
0010
0000
0100
0010
0000
,  // measure 35
1000
0000
0001
0000
0010
0100
0000
0010
0100
0000
0000
0000
0110
0000
0000
0000
,  // measure 36
1000
0000
0100
0000
1000
0000
0001
0000
0100
0000
0001
0100
0000
0001
0100
0000
,  // measure 37
0001
0000
0100
0000
1000
0000
0100
0000
0010
1000
0100
0000
0100
1000
0100
0000
,  // measure 38
0010
0001
0010
0100
0001
0100
0010
0001
,  // measure 39
1000
0001
0010
0100
1000
0001
1000
0001
,  // measure 40
1000
0001
1000
0001
1000
0001
1000
0001
0100
0000
0010
1000
0000
0000
1000
0000
,  // measure 41
1000
0000
0001
0000
0100
0000
0010
0000
0100
0001
0010
0000
0010
0000
0001
0000
,  // measure 42
0100
0000
0001
0100
0000
0010
1000
0010
,  // measure 43
1000
0000
0100
0000
0010
0000
0001
0000
0001
0010
0100
0000
0100
0010
0001
0000
,  // measure 44
1000
0010
0100
1000
0100
0010
1000
0100
,  // measure 45
0100
0001
1000
0001
2000
0000
3001
0010
,  // measure 46
0100
0010
0001
0100
0001
0010
0010
1000
,  // measure 47
0010
0000
0100
0000
0010
0000
0001
0000
0010
0000
0100
0000
0010
0000
0100
0010
,  // measure 48
2000
0000
3001
1000
0000
0001
1000
1000
,  // measure 49
0010
0000
0100
0000
0001
0000
0010
0000
0001
0100
0010
0000
1000
0000
0100
0000
,  // measure 50
0020
0000
0030
0100
0010
0000
0001
0000
0010
0000
0100
0000
0010
0000
0001
0000
,  // measure 51
0020
0000
0030
0001
0100
0000
0010
0000
0010
0100
0001
0000
1000
0000
0010
0000
,  // measure 52
0200
0000
0300
0010
0100
0000
0000
0000
0001
0000
0001
0000
0100
0000
0010
0000
,  // measure 53
0010
0000
1000
0000
0100
0000
0010
0000
0100
1000
0010
0000
1000
0000
0100
0000
,  // measure 54
1000
0010
0001
0010
1000
0010
1000
0010
,  // measure 55
0100
0000
0010
0001
0000
0010
0100
0000
0010
0000
1000
0000
0100
0000
0000
0000
,  // measure 56
0100
0000
0000
0000
0100
1000
0100
0000
0000
0000
0010
0000
0001
0000
0001
0000
,  // measure 57
0001
0000
0000
0000
0000
0000
0001
0000
0100
0001
0010
0000
0100
0000
0010
0000
,  // measure 58
0002
0000
1003
0001
0010
1000
0010
0100
,  // measure 59
0010
0000
0001
0000
0100
0000
0010
0000
1000
0010
0100
0000
0010
0000
1000
0000
,  // measure 60
0010
0000
0010
1000
0100
0100
0010
0010
,  // measure 61
0001
0000
1000
0000
0001
0000
1000
0000
0001
0010
0100
0000
0100
0000
0010
0000
,  // measure 62
0002
0000
1003
0010
0100
0010
0001
0010
,  // measure 63
0100
0000
0100
0010
0100
0000
0010
1000
,  // measure 64
0100
0000
0100
0100
0100
0010
0011
0000
,  // measure 65
0110
0000
0000
0000
1000
0000
0100
0000
1000
0010
0100
0000
0010
0000
1000
0000
,  // measure 66
0100
0000
0001
0100
1000
0010
0100
0010
,  // measure 67
0100
0000
0000
0000
0001
0000
0000
0000
0001
0100
0010
0000
0100
0000
0001
0000
,  // measure 68
0010
0000
0110
0000
0011
0000
0101
0001
,  // measure 69
2001
0000
0000
0000
3010
0000
0100
0000
0010
1000
0100
0000
1000
0000
0000
0000
,  // measure 70
0001
1000
0001
1000
0001
1000
0001
1000
0001
0000
0100
0000
0001
0000
0010
0000
,  // measure 71
0100
1000
0100
1000
0200
0000
0000
0000
,  // measure 72
0310
0000
0000
0000
0001
0010
0100
0000
0000
0000
0010
0000
0100
0000
0000
0000
,  // measure 73
0100
0000
0000
0000
0000
0000
1000
0000
0001
0100
1000
0000
0100
0000
0001
0000
,  // measure 74
0010
0000
0000
0000
0001
0010
0100
0000
2000
0000
0000
0000
3002
0000
0000
0000
,  // measure 75
0203
0000
0000
0000
0301
0000
0100
0000
0100
0010
1000
0000
0000
0000
1000
0000
,  // measure 76
0010
0000
0000
0000
0010
0100
0010
0000
0010
0000
0100
0000
0000
0000
0101
0000
,  // measure 77
0000
0000
0011
0000
0000
0000
0110
0000
0100
1000
0100
0000
1000
0000
0001
0000
,  // measure 78
1000
0001
1000
0001
1000
0001
1000
0001
1000
0000
0010
0000
0001
0000
1000
0000
,  // measure 79
0100
0001
0100
0100
1000
0020
0030
0200
,  // measure 80
0300
0000
0000
0000
;
