#TITLE:N3V3R G3T OV3R;
#SUBTITLE:;
#ARTIST:C-Show;
#TITLETRANSLIT:NEVER GET OVER;
#SUBTITLETRANSLIT:;
#ARTISTTRANSLIT:;
#GENRE:;
#CREDIT:;
#BANNER:N3V3R G3T OV3R.png;
#BACKGROUND:N3V3R G3T OV3R-bg.png;
#LYRICSPATH:;
#CDTITLE:;
#MUSIC:N3V3R G3T OV3R.ogg;
#OFFSET:-1.149000;
#SAMPLESTART:30.376179;
#SAMPLELENGTH:15.000000;
#SELECTABLE:YES;
#BPMS:0.000000=128.000000
;
#STOPS:179.000000=0.234000,
182.500000=0.234000
;
#BGCHANGES:0.250=N3V3R G3T OV3R.avi=1.000=1=0=1===CrossFade==,
238.250=N3V3R G3T OV3R-bg.png=1.000=0=0=1=====,
99999=-nosongbg-=1.000=0=0=0 // don't automatically add -songbackground-
;
#KEYSOUNDS:;
#ATTACKS:;

//---------------dance-single - ----------------
#NOTES:
     dance-single:
     :
     Hard:
     13:
     0.522336,0.596139,0.616630,0.364767,0.234493,421.000000,350.000000,71.000000,42.000000,0.000000,0.000000,0.522336,0.596139,0.616630,0.364767,0.234493,421.000000,350.000000,71.000000,42.000000,0.000000,0.000000:
0000
0000
0000
0000
,
0000
0000
0000
0000
,
0000
0000
0000
0000
,
0000
0000
0000
0000
0000
0000
0000
0000
0000
0000
1000
0000
0100
0000
0000
2002
,
0000
3003
0000
0001
0100
0000
0001
0000
0010
0000
0000
0000
1100
0000
0000
0000
,
2000
0000
0001
0000
0000
0100
0000
0000
3010
0000
0000
0000
0101
0000
0000
0000
,
0001
0000
0100
0000
1010
0000
1000
0000
0100
0000
1000
0000
0011
0000
0001
2000
,
0000
3000
0020
0130
,
0101
0000
0000
0101
0000
0000
0011
0000
0000
0011
0000
0000
0010
0000
0100
0000
,
1100
0000
0000
1100
0000
0000
1010
0000
0000
1010
0000
0000
0010
0000
0100
0000
,
0101
0000
0000
1001
0000
0000
1010
0000
0000
0110
0000
0000
1001
0000
1000
0000
,
1100
0000
0000
0110
0000
0000
0011
0000
0001
0000
0010
0000
2000
0000
0000
0000
,
3010
0000
0010
0001
0000
0001
0100
0000
0100
0010
0000
0010
2000
0000
0000
0000
,
3100
0000
0100
1000
0000
1000
0010
0000
0010
0100
0000
0100
0002
0000
0000
0000
,
1003
0000
0100
0010
0100
0000
1000
0001
1000
0000
0010
0100
0010
0000
1000
0000
,
0200
0000
0000
0000
0000
0000
0000
0000
0000
0000
0000
0000
2300
0000
0000
0020
,
0000
3030
0000
0000
1000
0000
0010
0000
0100
0000
0010
0000
0001
0000
0010
0000
,
1000
0001
0010
0100
0010
1000
0010
0000
,
0011
0000
0001
0100
0010
0100
1000
0100
,
0001
0000
1000
0000
0100
0000
0010
0000
0100
0000
0001
0100
0000
0100
0000
0020
,
0000
0030
0000
0000
0011
0000
0011
0000
0010
0000
0100
0000
1000
0000
0100
0000
,
0000
0100
1000
0010
0100
0001
0100
0010
,
1001
0000
1010
1010
0010
0100
0001
0010
,
0000
2200
3300
0202
0303
0002
2003
3200
,
1300
0000
0000
0001
0000
0000
0010
0000
0000
0100
0000
0000
1000
0000
1100
0000
,
0001
0000
0000
1000
0000
0000
0010
0000
0000
0100
0000
0000
0001
0000
0101
0000
,
1000
0000
0000
0001
0100
0000
0010
0000
0100
0001
0000
0000
1000
0000
0100
0000
,
0220
0000
0000
0330
,
1001
0000
0000
1100
0000
1010
0000
0011
,
0000
0101
0000
1100
0000
2000
3010
0000
,
0110
0000
0010
1000
0002
1000
0013
0000
,
1100
0000
1001
0000
0011
0000
0001
0100
,
0020
0000
0130
0001
0100
0010
0100
0001
,
1000
0100
0010
0100
1000
0100
1000
0000
,
1001
0000
1000
0010
0100
0010
1000
1000
,
0001
0010
0100
0010
0001
0010
0001
0000
,
2002
0000
0000
0000
0000
0000
0000
0000
3003
0000
0000
0000
0001
0100
0010
0100
,
0000
0000
0001
0000
1000
0100
0010
0100
0000
0000
1000
0000
0000
0000
0000
1000
,
0100
0000
0000
0101
0000
0000
0011
0000
0000
1010
0000
0000
1000
0010
0100
0002
,
0000
0100
1000
0013
,
1000
0100
0010
0100
1000
0001
0010
0000
,
0001
0000
0100
0000
0010
0000
0100
0000
0001
0000
1000
0000
0010
0000
0000
0100
,
0001
0000
0000
1100
0000
0000
1010
0000
0000
0011
0000
0000
0001
0010
0100
2000
,
0000
0100
0001
3010
,
0001
0100
1000
0100
0001
0100
0110
1000
,
0100
0001
0100
1000
0100
0110
0010
0001
,
0100
0010
1000
0100
0010
0001
2000
0000
,
0010
0000
0200
0000
0000
0000
0000
3300
,
0000
0000
0010
0101
,
1001
0000
0000
0000
1100
0000
0100
0000
0010
0000
0100
1000
0001
0000
0000
0000
,
1100
0001
0101
1000
1100
0100
0010
0001
,
0011
0000
1000
0000
1010
0000
0010
0100
0000
0100
0000
0002
0000
0000
0000
0000
,
1000
2000
0000
0000
3003
0000
1000
0010
,
0101
1000
1100
0001
0110
0100
1001
0000
,
2000
0100
3002
0100
2003
0010
3002
0203
,
0320
0230
2300
3200
0302
0000
1003
0000
,
1100
1001
1010
0010
,
0101
0000
1001
0000
0011
0000
1000
0010
,
0100
0000
0001
0000
0010
0000
0100
0000
1000
0000
0001
0000
1000
0000
1000
0100
,
1000
0100
0010
0001
0010
0000
0000
0000
0100
0000
0000
1001
0000
0000
0000
0000
;

//---------------dance-single - ----------------
#NOTES:
     dance-single:
     :
     Challenge:
     15:
     0.705961,0.833753,0.538466,0.251863,0.686109,569.000000,507.000000,62.000000,29.000000,0.000000,0.000000,0.705961,0.833753,0.538466,0.251863,0.686109,569.000000,507.000000,62.000000,29.000000,0.000000,0.000000:
// measure 0
0000
0000
0000
0000
,  // measure 1
0000
0000
0000
0000
,  // measure 2
0000
0000
0000
0000
,  // measure 3
0000
0000
0000
0000
0000
0000
0000
0000
0000
0000
0000
0000
1000
0100
0000
0012
,  // measure 4
0000
0000
1000
0000
0013
0001
0100
0000
,  // measure 5
0001
1000
0110
1000
0001
0010
1001
0010
,  // measure 6
0001
0000
0100
0000
1000
0000
0100
0000
0110
0000
0000
0000
1001
0000
0000
0100
,  // measure 7
0000
0000
1000
0100
0010
0000
0001
0100
0010
0000
0000
0000
0010
0000
0000
1000
,  // measure 8
0001
0000
0000
0001
0000
0010
0100
0000
0100
0000
0000
0110
0000
0000
1000
0000
,  // measure 9
1000
0000
0000
1000
0000
0010
0100
0000
0100
0000
0001
0000
1001
0000
0000
0000
,  // measure 10
0001
0000
1000
0100
0000
0100
0000
1000
0010
0000
0001
0000
0010
0000
0100
0000
,  // measure 11
0100
0000
0001
0010
0000
0010
0100
0000
0100
0000
1000
0010
0000
0000
0000
0000
,  // measure 12
1001
0000
1000
0100
0010
0000
0100
1000
0001
0000
0010
0001
0200
0000
0300
0000
,  // measure 13
1001
0000
0001
0100
0010
0000
1000
0001
0010
0000
0001
0010
0200
0000
0300
0000
,  // measure 14
1100
0010
1100
0001
0101
0110
0101
1001
,  // measure 15
2010
0000
0010
0000
0001
0000
0001
0000
3100
0000
0100
0010
0000
0001
0000
0022
,  // measure 16
0000
0000
0000
0030
0000
0000
0003
0000
0000
1000
0000
0100
1000
0000
0001
1000
0000
0100
1000
0000
0000
1000
0000
0000
,  // measure 17
1010
0000
0000
0001
0000
0000
0001
0000
0100
0001
0000
1000
0001
0000
0100
0001
0000
0100
0010
0000
0000
0010
0000
0000
,  // measure 18
1001
0000
0000
0000
0000
0000
1000
0000
0100
1000
0000
0001
0010
0000
0001
0010
0000
0100
1000
0000
0000
0001
0000
0000
,  // measure 19
0101
0000
0000
0000
0000
0000
0100
0000
0000
0000
0000
0000
0001
0000
0000
0000
0100
0000
0001
0000
0000
0000
1000
0000
0010
0000
0000
0000
0000
0000
0010
0000
0000
0100
0000
0000
0000
0000
0000
0010
0000
0000
0000
0000
0000
2020
0000
0000
,  // measure 20
0000
0000
0000
0030
0000
0000
3000
0000
0000
0001
0000
0100
0010
0000
0100
0010
0000
1000
0001
0000
0000
0010
0000
0000
,  // measure 21
0011
0000
0000
0001
0000
0000
1000
0000
0100
0010
0000
0100
0010
0000
0100
1000
0000
0001
1000
0000
0000
1000
0000
0000
,  // measure 22
0110
0000
0000
0000
0000
0000
0001
0000
0010
0100
0000
0010
0100
0000
0010
0001
0000
1000
0100
0000
0000
1000
0000
0000
,  // measure 23
0010
0000
0000
0100
0000
0000
0010
0000
0100
0010
0000
0100
0001
0000
0100
0010
0000
1000
0010
0000
1000
0001
0000
0000
,  // measure 24
0001
0000
1000
0010
0000
0010
0100
0001
0010
0001
0100
0010
2000
0000
0000
0000
,  // measure 25
3001
0000
1000
0100
0000
0100
1000
0010
1000
0100
0010
0100
0002
0000
0000
0000
,  // measure 26
0103
0000
1000
0010
0000
0010
0100
0000
0100
0000
0001
0010
0000
0010
0200
0000
,  // measure 27
1000
1000
1000
1000
1000
1000
1300
0100
,  // measure 28
0220
0330
0000
0000
,  // measure 29
0001
0000
0000
0001
0000
0000
0001
0000
0000
0100
0000
0001
1000
0000
0010
0100
0000
0001
2000
0000
0000
0000
0000
0000
,  // measure 30
3100
0000
0110
0001
1001
0010
0110
1000
,  // measure 31
1100
0010
0101
0010
1100
1000
0002
0100
,  // measure 32
0013
0000
0000
0000
0000
0000
0001
0000
0010
0001
0000
0010
0100
0000
1000
0100
0000
1000
0001
0000
0000
0100
0000
0000
,  // measure 33
0010
0000
1000
0010
0000
1000
0001
0000
0100
0001
0000
0100
0001
0000
1000
0001
0000
1000
0100
0000
0000
0010
0000
0000
,  // measure 34
0011
0000
0000
0000
0000
0000
1000
0000
0010
1000
0000
0010
0100
0000
0001
0100
0000
0001
1000
0000
0000
0100
0000
0000
,  // measure 35
0010
0000
0010
0001
0000
0001
1000
0000
1000
0001
0000
0001
0100
0000
0010
0100
0000
0020
0000
0000
0000
0030
0000
0000
,  // measure 36
2002
0000
0000
0003
,  // measure 37
0100
0000
0100
0000
0000
0001
0000
0000
0100
0000
0000
3001
0000
0000
0001
0000
,  // measure 38
0102
0000
0100
0000
0000
1000
0000
0000
0100
0000
0000
1003
0000
0000
1000
0000
,  // measure 39
2100
0000
0100
0000
0000
0001
0000
0000
0100
0000
0000
3010
0000
0000
0000
0010
,  // measure 40
0100
0001
1010
0001
1000
0100
0011
1000
,  // measure 41
0001
0000
0100
0000
1010
0000
0001
0000
1000
0000
0100
0000
0010
0001
0000
1001
,  // measure 42
0000
0001
0100
1000
0100
0010
0110
0010
,  // measure 43
1000
0000
0001
0010
0001
0000
0010
0100
0010
0000
0100
1000
0100
0000
0000
0100
,  // measure 44
1000
0001
0011
0010
0110
0001
0011
1001
,  // measure 45
1000
0000
0000
1010
0000
0000
0010
0000
0000
0110
0000
0000
1000
0000
0000
1010
0000
0000
0010
0000
0010
1000
0000
1000
,  // measure 46
0001
0000
0001
0010
0000
0010
0100
0000
0100
1000
0000
1000
0001
0100
0001
1000
0010
1000
0002
0000
0000
0000
0000
0000
,  // measure 47
0000
0000
0000
0000
0003
0000
0001
0100
0000
0010
0000
2020
0000
0000
3030
0000
,  // measure 48
0000
0000
0010
1100
,  // measure 49
0011
0000
0000
0000
0000
0000
0101
0000
0000
1000
0000
0000
0100
0000
0010
0100
0000
0010
0001
0000
0000
0000
0000
0000
,  // measure 50
1100
0000
0000
0001
0000
0000
1100
0000
0100
1000
0000
1000
0001
0000
0001
0100
0000
0000
0101
0000
0000
1000
0000
0000
,  // measure 51
0101
0000
0000
0000
0000
0000
0010
0000
0000
0000
0000
0000
0101
0000
0000
0000
0100
0000
0001
0000
0000
0000
0001
0000
1000
0000
0000
0100
0000
0000
0000
0000
0000
2002
0000
0000
0000
0000
0000
0000
0000
0000
3003
0000
0000
0000
0000
0000
,  // measure 52
1000
0100
0010
0002
0000
0000
0100
0000
0023
0000
0000
0000
0031
0000
1100
0000
,  // measure 53
0011
0000
0000
0010
0000
0010
0001
0000
0001
0100
0000
0100
0010
0000
0010
1000
0000
0000
1010
0000
0000
0001
0000
0000
,  // measure 54
1010
0000
0000
0010
0000
0010
1000
0000
1000
0100
0000
0100
0010
0000
0000
0100
0000
0000
0010
0000
0010
0001
0000
0001
,  // measure 55
1000
0000
1000
0010
0000
0010
0100
0000
0010
0100
0000
0001
2000
0000
0000
0000
0000
0000
3100
0000
0000
1000
0000
0000
,  // measure 56
0010
1000
0100
1000
0010
1000
0001
0100
,  // measure 57
0001
0010
0001
0100
0001
0010
0011
1000
,  // measure 58
1010
0000
0000
0001
0000
0000
1000
0000
1000
0010
0000
0010
0100
0000
0100
0001
0000
0001
0010
0000
0000
0100
1000
0100
,  // measure 59
1000
0000
0000
0001
0100
0001
0100
0000
0000
0001
0000
0001
1000
0100
0010
0001
0010
0100
2000
0000
0000
0000
0000
0000
,  // measure 60
3000
0000
0000
0000
;

//---------------dance-single - ----------------
#NOTES:
     dance-single:
     :
     Medium:
     9:
     0.321342,0.467032,0.434246,0.434246,0.000000,259.000000,209.000000,50.000000,50.000000,0.000000,0.000000,0.321342,0.467032,0.434246,0.434246,0.000000,259.000000,209.000000,50.000000,50.000000,0.000000,0.000000:
0000
0000
0000
0000
,
0000
0000
0000
0000
,
0000
0000
0000
0000
,
0000
0000
0000
0000
,
1001
1200
0020
0330
,
1001
0201
0320
2030
,
3200
0320
0032
1000
,
0103
0100
0010
0010
,
1020
0000
0001
1030
,
0021
0000
1000
0031
,
1200
0000
0001
1300
,
0201
0000
1000
0301
,
0001
0200
0310
0200
,
1300
0200
0310
0200
,
0302
0000
0023
0000
0130
0100
1000
1000
,
0020
0000
0000
0030
,
2002
0000
3003
0000
0001
0001
0001
0000
,
0010
0000
0100
0000
1000
1000
1000
0000
,
0010
0000
1000
0000
0001
0001
0001
0000
,
0010
0000
0001
0000
1000
0000
1000
0100
,
0020
0000
0130
0000
1000
0001
1000
0000
,
0010
0000
0100
0000
0001
1000
0001
0000
,
0010
0000
0100
0000
1000
0100
0010
0000
,
0220
0000
0330
0000
0100
1000
0001
0000
,
0002
0000
0103
0110
,
2000
0000
3100
0110
,
0100
1000
0001
0100
,
0010
0100
0010
0100
0010
0100
0020
0000
,
1030
0000
0000
0000
,
0000
0000
1001
0000
0100
0010
0100
0000
,
1001
2000
3020
0230
,
0301
0001
1000
1000
,
1001
0000
0201
0310
,
1020
0130
0201
0310
,
1001
0000
1200
0310
,
0021
0130
1200
0310
,
1001
0000
0000
0000
,
2000
0000
0000
3000
,
0002
0000
0000
0003
,
1000
0100
0011
0000
,
0002
0100
0000
0100
,
0000
0100
0000
0010
,
2003
0100
0000
0100
,
0000
3010
1010
0011
,
0102
0000
1000
0000
0100
0000
1003
2100
,
0000
0001
0000
0100
0000
3001
0001
0100
,
0101
0000
1000
0100
1100
0000
1001
0000
,
0110
1001
1100
0022
,
0000
0000
0033
0010
,
0010
0000
0100
0010
1001
0000
0001
0000
,
0100
0000
0010
0010
1010
0000
1000
0000
,
0100
0000
0010
0010
0011
0000
0220
0000
,
0000
0330
1001
1100
,
1001
0000
0001
0100
0001
0000
0101
0000
,
1001
0000
1000
0100
1000
0000
1100
0000
,
0110
0011
0110
1000
,
1000
0100
0100
0001
,
0001
0000
0100
0000
0100
0000
1000
0010
,
1010
0000
0001
0010
0011
0000
0002
0000
,
0203
2300
3020
0030
;

//---------------dance-single - ----------------
#NOTES:
     dance-single:
     :
     Easy:
     5:
     0.230771,0.285408,0.060794,0.165014,0.000000,186.000000,179.000000,7.000000,19.000000,0.000000,0.000000,0.230771,0.285408,0.060794,0.165014,0.000000,186.000000,179.000000,7.000000,19.000000,0.000000,0.000000:
0000
0000
0000
0000
,
0000
0000
0000
0000
,
0000
0000
0000
0000
,
0000
0000
0000
0000
,
1000
0000
1000
0100
,
0001
0000
0001
0100
,
1000
0000
0001
0100
,
1000
0000
1000
0100
,
0001
0001
0100
0100
,
0010
0010
2000
3000
,
1000
1000
0100
0100
,
0010
0010
0002
0003
,
1000
0100
1000
0001
,
1000
0010
1000
0001
,
0010
0010
0100
0100
,
2002
0000
0000
3003
,
0200
0301
1000
0001
,
0010
0001
1000
0001
,
0100
0001
1000
0001
,
0010
0001
0100
0001
,
0110
1000
0001
1000
,
0010
1000
0001
1000
,
0100
1000
0001
1000
,
0020
0000
0230
0000
,
0301
0001
0100
0010
,
1000
1000
0100
0010
,
0001
0100
1000
0100
,
0002
0000
0000
0003
,
0110
0000
0000
0000
,
2000
3002
2000
3003
,
1000
0100
0010
0100
,
1000
1000
2000
3000
,
0001
1000
0010
0100
,
0001
1000
0100
0010
,
1001
1000
0010
0100
,
0001
0001
0002
0003
,
1000
0000
0000
0000
,
0100
0000
0000
0000
,
0001
0000
0000
0000
,
0100
0000
0000
0000
,
1000
0100
0000
0100
,
0010
0100
0000
0100
,
0001
0100
0000
0100
,
0010
0100
0000
0100
,
1000
0000
1000
0000
2000
0000
3000
0001
,
0000
0001
0000
0002
0000
0003
1000
0000
,
0010
0100
0001
0020
,
0000
0230
0300
1001
,
0000
0000
0000
0010
,
0010
0010
0100
1001
,
1000
0100
0010
0100
,
1000
0100
0010
1002
,
0000
0003
0100
0010
,
0100
0001
1000
0100
,
1000
0001
0010
0001
,
1000
0010
0100
0001
,
0001
0001
0001
1000
,
1000
1000
1000
0001
,
0010
1000
0010
0001
,
0100
0010
2000
3000
;

//---------------dance-single - ----------------
#NOTES:
     dance-single:
     :
     Beginner:
     2:
     0.136477,0.207570,0.043425,0.008685,0.000000,110.000000,105.000000,5.000000,1.000000,0.000000,0.000000,0.136477,0.207570,0.043425,0.008685,0.000000,110.000000,105.000000,5.000000,1.000000,0.000000,0.000000:
0000
0000
0000
0000
,
0000
0000
0000
0000
,
0000
0000
0000
0000
,
0000
0000
0000
0000
,
1000
0000
0000
0000
,
0001
0000
0000
0000
,
1000
0000
0000
0000
,
0001
0000
0000
0000
,
1000
0000
0000
1000
,
0100
0000
0000
0100
,
0010
0000
0000
0010
,
0001
0000
0000
0001
,
1000
0000
1000
0000
,
0001
0000
0001
0000
,
1000
0000
0010
0000
,
0100
0000
0001
0000
,
0010
0000
0000
0010
,
0100
0000
0000
0100
,
0010
0000
0000
0010
,
0100
0000
0010
0000
,
0001
0000
0000
0001
,
1000
0000
0000
1000
,
0001
0000
0000
0001
,
1000
0000
0010
0000
,
0100
0000
0000
0000
,
0110
0000
0000
0000
,
0110
0000
0000
0000
,
0010
0010
0010
0000
,
1001
0000
0000
0000
,
0000
0000
0000
0001
,
0010
0000
0000
0000
,
0100
0100
0100
0000
,
1000
0001
0000
0001
,
0000
0001
0000
0001
,
1000
0001
0000
0001
,
0000
0001
0000
1000
,
0010
0000
0000
0000
,
0000
0000
0000
0000
,
0100
0000
0001
0000
,
1000
0000
0000
0000
,
0100
0000
0000
0000
,
0000
0000
0000
0000
,
1000
0000
0010
0000
,
0100
0000
0001
0000
,
1000
0000
1000
0000
1000
0000
0000
0001
,
0000
0001
0000
0001
0000
0000
0020
0000
,
0000
0000
0000
0030
,
0000
0000
0000
1001
,
0000
0000
0000
0001
,
1000
0001
0000
1000
,
0100
0000
0100
0000
,
0010
0000
0100
1000
,
0001
0000
0000
0100
,
0010
0000
0010
0100
,
0001
0000
0001
1000
,
0100
0000
0100
0010
,
0000
0010
0000
0010
,
0000
0010
0000
0010
,
0010
0001
1000
0001
,
0000
0100
0000
1001
;
