#VERSION:0.83;
#TITLE:Myths You Forgot;
#SUBTITLE:;
#ARTIST:Camellia feat. Toby Fox;
#TITLETRANSLIT:;
#SUBTITLETRANSLIT:;
#ARTISTTRANSLIT:;
#GENRE:;
#ORIGIN:;
#CREDIT:;
#BANNER:Myths You Forgot.png;
#BACKGROUND:Myths You Forgot-bg.png;
#PREVIEWVID:;
#JACKET:Myths You Forgot-jacket.png;
#CDIMAGE:;
#DISCIMAGE:;
#LYRICSPATH:;
#CDTITLE:;
#MUSIC:Myths You Forgot.ogg;
#OFFSET:0.000000;
#SAMPLESTART:68.791306;
#SAMPLELENGTH:12.799995;
#SELECTABLE:YES;
#BPMS:0.000=150.000;
#STOPS:;
#DELAYS:;
#WARPS:;
#TIMESIGNATURES:0.000=4=4;
#TICKCOUNTS:0.000=4;
#COMBOS:0.000=1;
#SPEEDS:0.000=1.000=0.000=0;
#SCROLLS:0.000=1.000;
#FAKES:;
#LABELS:0.000=Song Start;
#BGCHANGES:;
#KEYSOUNDS:;
#ATTACKS:
;

//---------------dance-single - ----------------
#NOTEDATA:;
#CHARTNAME:;
#STEPSTYPE:dance-single;
#DESCRIPTION:;
#CHARTSTYLE:;
#DIFFICULTY:Challenge;
#METER:18;
#RADARVALUES:0.700824,0.971783,0.341329,0.361407,0.893479,733.000000,682.000000,51.000000,54.000000,0.000000,0.000000,0.000000,0.000000,0.000000,0.700824,0.971783,0.341329,0.361407,0.893479,733.000000,682.000000,51.000000,54.000000,0.000000,0.000000,0.000000,0.000000,0.000000;
#CREDIT:Daniel Van Eden;
#NOTES:
0000
0000
0000
0000
,
0000
0000
0000
0000
,
0000
0000
0000
0000
,
0000
0000
0000
0000
,
0000
0000
0000
0000
,
0000
0000
0000
0000
,
0000
0000
0000
0000
,
0000
0000
0000
0000
,
1020
0000
0000
0000
0130
0000
0000
0110
,
0010
0000
0100
0001
0100
0000
0002
0000
0010
0000
0000
0000
1000
0000
1003
0000
,
1100
0000
0000
0000
0000
0100
1000
0000
0010
0000
0000
0001
0000
0000
0010
0000
,
0000
0000
0101
0000
0001
1000
0200
0000
0310
0000
0100
0010
0002
0000
1003
0000
,
0101
0100
0000
0020
1000
0000
0000
0130
,
0000
0000
0110
0000
0100
0001
0000
0000
0001
0000
1000
0000
0000
0000
0010
1000
,
0001
0000
0000
0000
0000
0000
1000
0010
1000
0001
0010
0100
0001
0100
1000
0001
,
0100
0000
0000
0010
0000
0000
1000
0000
0000
0100
0000
0000
1000
0000
0000
0100
0000
0000
0010
0000
0000
0001
0000
0000
1000
0000
0010
0000
1000
0000
0010
0000
0000
0100
0000
0000
0001
0000
0010
0000
0001
0000
0010
0000
0000
0100
0000
0000
,
1000
0000
0100
0000
0000
0100
1000
0000
0100
0000
0001
0100
0000
0000
0020
0000
,
0031
0000
1001
0000
1020
0000
0130
0000
0010
1000
0001
0010
0100
1000
0010
1000
,
0002
0000
0013
0000
0000
0000
0001
0000
1000
0000
0010
0000
0100
0001
0010
0001
,
1000
0000
1001
0000
0101
0000
0001
0010
0001
0100
0010
1000
0001
0010
0100
1000
,
0001
0000
0010
0001
0000
0000
1000
0001
0010
0001
0100
0010
1000
0100
0010
0100
,
0010
0001
1000
0000
1010
0000
0010
1000
0001
0000
0000
0000
0010
0000
0100
1000
,
0002
0010
1000
1000
0203
1000
0010
0010
,
0301
0000
0101
0000
0110
0000
0010
0000
1010
0000
1000
0000
1100
0000
0100
0010
,
0001
0000
0000
0010
0000
0000
2000
0000
0000
0000
0000
0000
3010
0000
0000
0000
,
0001
0000
0000
0100
0000
0000
2000
0000
0000
0000
0000
0000
3100
0000
0000
0000
,
0010
0000
0000
1000
0000
0000
0002
0000
0000
0000
0000
0000
0013
0000
0000
0000
,
0100
0000
0000
1000
0000
0000
0002
0000
0000
0000
0000
0000
0103
0000
0020
0000
,
0000
0000
0000
0000
0030
0000
0000
0000
1000
0000
0000
0001
0000
0000
0100
0000
,
0001
0100
0010
0000
0000
0000
1000
0000
0100
0000
0000
0001
0000
0000
0100
0000
,
0010
0100
2000
0000
0000
0000
0000
0000
3001
0000
0000
0000
1000
0000
0010
0000
,
0000
0000
0000
0000
1000
0000
0002
0000
0000
0000
0000
0000
0003
0000
0000
0000
0001
0200
0000
0000
0310
0000
0000
0000
1000
0200
0000
0000
0310
0000
0000
0000
,
0011
0000
0000
0001
0100
0000
0010
0000
0001
0010
0000
0010
1000
0000
1000
0010
,
1000
0000
0000
1000
0100
0000
0010
0000
1000
0010
0000
0010
0001
0000
0001
1000
,
0001
0000
0000
0001
0010
0000
0001
0000
1000
0010
0000
0010
1000
0000
0001
0100
,
0010
0000
0000
0000
0000
0000
0010
0000
1000
0000
0000
0000
0001
0000
0000
0000
0010
0002
0000
0000
1003
0000
0000
0000
0010
2000
0000
0000
3100
0000
0000
0000
,
0110
0000
0010
0100
0010
0000
0001
0000
0010
0100
1000
0000
0010
0000
0100
0001
,
0100
0000
0010
0100
0010
0000
1000
0000
0010
0100
0001
0000
0010
0000
0100
1000
,
0001
0010
0001
0010
0100
1000
0001
1000
0010
1000
0010
0100
0001
0010
0100
0010
,
0001
1000
0010
1000
0100
0010
0001
0010
1000
0010
0100
1000
0010
0001
0010
1000
,
0002
0000
0000
0000
,
1003
0001
0100
0010
0001
1000
0100
0010
1000
0100
0010
0001
,
0011
0000
0000
1100
0000
0000
1010
0000
0200
0000
0000
0000
0000
0000
0300
0000
,
1001
0000
0000
0000
0000
0000
0000
0000
0000
1001
0000
0000
0000
0000
0000
0000
0000
0000
0001
0000
0010
0000
0100
0000
1000
0000
0100
0000
0010
0000
0001
0000
0000
1000
0000
0000
0010
0000
0000
0100
0000
0000
0010
0000
0000
1000
0000
0000
,
0100
0000
0100
1000
0000
1000
0001
0000
0101
0000
0000
0000
0100
0010
0100
0001
,
0010
0000
0000
1010
0000
0000
0110
0000
0101
0000
0100
1000
0100
0001
0010
0100
,
0000
0000
0000
0000
0000
0000
0000
0000
0000
0000
0000
0000
0000
0000
0000
0000
0000
0000
0000
0000
0000
0000
0000
0000
2002
0000
0000
0000
0000
0000
0000
0000
0000
0000
0000
0000
0000
0000
0000
0000
0000
0000
0000
0000
0000
0000
0000
0000
3003
0000
0000
0000
0000
0000
0000
0000
0000
0000
0000
0000
0000
0000
0000
0000
0000
0000
0000
0000
0000
0000
0000
0000
1000
0000
0000
0000
0000
0000
0000
0000
0000
0000
0000
0000
0010
0000
0000
0000
0000
0000
1000
0000
0000
0000
0000
0000
0010
0000
0000
0000
0000
0000
0000
0000
0000
0000
0000
0000
1000
0000
0000
0000
0000
0000
0000
0000
0000
0000
0000
0000
0001
0000
0000
0000
0000
0000
0000
0000
0000
0000
0000
0000
0010
0000
0000
0000
0000
0000
0000
0000
0000
0000
0000
0000
0000
0000
0000
0000
0000
0000
0000
0000
0000
0000
0000
0000
0010
0000
0000
0000
0000
0000
0000
0000
0000
0000
0000
0000
0001
0000
0000
0000
0000
0000
0000
0000
0010
0000
0000
0000
0000
0000
0000
0000
0001
0000
0000
0000
0000
0000
0000
0000
,
1000
0000
0000
1100
0000
0000
0110
0000
0011
0000
1001
0000
0120
0000
1030
0000
,
0000
0000
1000
0010
0001
0010
0010
0000
0110
0000
0100
0000
0001
0000
0010
0100
,
1000
0000
0000
0000
0000
0000
0000
0000
0000
0101
0000
0000
0000
0000
0000
0000
0000
0000
1100
0000
0000
0000
0000
0000
1000
0000
0000
0000
0010
0000
0000
0000
0001
0000
0000
0000
1000
0000
0000
0000
0100
0000
0000
0000
0001
0000
0000
0000
,
0010
0100
0001
0100
1000
0010
0010
0100
0010
0001
0010
1000
0001
0010
0200
0000
,
0310
0000
0001
0000
0010
0000
0001
0000
0000
0000
0001
0000
0000
0000
0001
0100
0001
0000
0000
0000
1010
0000
0000
0000
0010
0000
0001
0000
0010
0000
1000
0000
,
0100
1000
0100
1000
0000
1000
0100
1000
0010
0000
0101
0000
0100
1000
0100
0100
,
0010
0000
0000
1000
0000
0000
0001
0000
0000
0010
0000
0000
0000
0000
0000
0010
0000
0000
0100
0000
0000
0000
0000
0000
0100
0000
0000
0000
1000
0000
0000
0000
0001
0000
0000
0000
0100
0000
0000
0010
0000
0000
1000
0000
0000
0001
0000
0000
,
0010
0000
0000
0000
0000
0000
0000
0000
0000
0000
0000
0000
0100
0000
0000
0000
0000
0000
0010
0000
0000
0000
0000
0000
0100
0000
0000
0000
0000
0000
0000
0000
0000
0000
0000
0000
0010
0000
0000
0000
0000
0000
0000
0000
0000
0000
0000
0000
0001
0000
0000
0000
0000
0000
0000
0000
0000
0000
0000
0000
1000
0000
0000
0000
0000
0000
0000
0000
0000
0000
0000
0000
0010
0000
0000
0000
0000
0000
0000
0000
0100
0000
0000
0000
0000
0000
0000
0000
0010
0000
0000
0000
0000
0000
0000
0000
1000
0000
0000
0000
0000
0000
0000
0000
0000
0000
0000
0000
0000
0000
0000
0000
0000
0000
0000
0000
0000
0000
0000
0000
0001
0000
0000
0000
0000
0000
0000
0000
0000
0000
0000
0000
1000
0000
0000
0000
0000
0000
0000
0000
0000
0000
0000
0000
0010
0000
0000
0000
0000
0000
0000
0000
0000
0000
0000
0000
0000
0000
0000
0000
0000
0000
0000
0000
0000
0000
0000
0000
0100
0000
0000
0000
0000
0000
0000
0000
0000
0000
0000
0000
0001
0000
0000
0000
0000
0000
0000
0000
0000
0000
0000
0000
,
0010
0000
0000
0000
0000
0000
0000
0000
0000
0000
0000
0000
0000
0000
0000
0000
0000
0000
0000
0000
0000
0000
0000
0000
0010
0000
0000
0000
0000
0000
0000
0000
0000
0000
0000
0000
0100
0000
0000
0000
0000
0000
0000
0000
0000
0000
0000
0000
0000
0000
0000
0000
0000
0000
0000
0000
0000
0000
0000
0000
0000
0000
0000
0000
0000
0000
0000
0000
0000
0000
0000
0000
1000
0000
0000
0000
0000
0000
0001
0000
0000
0000
0000
0000
1000
0000
0000
0000
0000
0000
0001
0000
0000
0000
0000
0000
1000
0000
0000
0000
0000
0000
0000
0000
0100
0000
0000
0000
0000
0000
0000
0000
0010
0000
0000
0000
0000
0000
0000
0000
0001
0000
0000
0000
0000
0000
0000
0000
0000
0000
0000
0000
1000
0000
0000
0000
0000
0000
0000
0000
0000
0000
0000
0000
0010
0000
0000
0000
0000
0000
0000
0000
0000
0000
0000
0000
0100
0000
0000
0000
0000
0000
0000
0000
0000
0000
0000
0000
0002
0000
0000
0000
0000
0000
0000
0000
0000
0000
0000
0000
0000
0000
0000
0000
0000
0000
0000
0000
0000
0000
0000
0000
,
1003
0000
0000
0000
0000
0000
0010
0000
0000
1000
0000
0000
0100
0000
0000
0000
0000
0000
0010
0000
0000
0000
0000
0000
0100
0000
0010
0000
0001
0000
1000
0000
0000
0010
0000
0000
1000
0000
0000
0001
0000
0000
0100
0000
0000
0000
0000
0000
,
0101
0000
1100
0000
0011
0000
1010
1000
0100
0010
0001
1000
,
0001
0000
0010
0000
0100
0000
0001
0000
0100
0000
1000
0000
0010
0000
0100
0000
0001
0100
0001
0000
0010
0000
0100
0000
,
1000
0000
0001
0010
0000
0010
0100
0000
0001
0100
0000
0100
1000
0000
0010
1000
,
0001
0000
1000
0010
0000
0010
0100
0000
1000
0100
0010
0100
0001
0000
0010
0100
,
1000
0000
0000
0000
0000
0000
0010
0000
0000
0100
0000
0000
0000
0000
0000
0100
0000
0000
0001
0000
0000
0000
0000
0000
1000
0000
0000
0100
0000
0000
0010
0000
0000
0001
0000
0000
1000
0000
0000
0000
0000
0000
0001
0000
0100
0000
0001
0000
,
0100
0000
0001
0010
0000
0001
0100
0000
0010
1000
0000
0100
1000
0000
0001
0000
,
0011
0000
0001
1000
0000
0000
1000
0000
0010
0100
0000
0100
0001
1000
0001
0100
,
0010
0000
0000
0000
0000
0000
1000
0000
0000
0001
0000
0000
0000
0000
0000
0001
0000
0000
0010
0000
0000
0000
0000
0000
0100
0000
0000
0000
0001
0000
0000
0000
1000
0000
0000
0000
0010
0000
0000
0000
0001
0000
0000
0000
1000
0000
0000
0000
,
0020
0000
2030
0000
,
3002
0000
0000
0000
,
0000
0000
0000
0000
,
0023
0000
0001
0000
,
0130
0000
0010
2000
0000
3020
0000
0031
,
0000
1000
0020
0000
0001
0000
0000
0000
,
0100
0000
1000
0000
,
2030
0000
0000
0000
0000
0000
0000
0000
0000
0001
0000
0000
0000
0000
0000
0000
0000
0000
0001
0000
0000
0000
0000
0000
0000
0000
0000
0000
0000
0000
0100
0000
0000
0000
0000
0000
3100
0000
0000
0000
0000
0000
0010
0000
0001
0000
0010
0000
,
0100
0000
0000
0100
0010
0000
0001
0000
0000
0001
1000
0000
0010
0000
1000
0000
,
0001
0000
0000
0010
0001
0000
1000
0000
0001
0100
0000
0000
0010
0000
1000
0000
,
0100
0000
0001
0000
0100
0000
1000
0000
0020
0000
0000
0000
0230
0000
0000
0300
,
2002
0000
0000
0000
0000
0000
0000
0000
0000
0000
0000
0000
0000
0000
0000
0000
0000
0000
3003
0000
0000
0000
0000
0000
0001
0000
0000
0010
0000
0000
1000
0000
0000
0010
0000
0000
0001
0000
0000
1000
0000
0000
0001
0000
0100
0000
0010
0000
,
1000
0000
0000
0000
0010
0000
1000
0000
0001
0010
0100
0001
0100
1000
0001
0000
,
0000
0000
0000
0000
0000
0000
0110
0000
0000
0000
0000
0000
1010
0000
0000
0000
0000
0000
0010
0000
0000
1000
0000
0000
0001
0000
0000
0000
1000
0000
0000
0000
0010
0000
0000
0000
0100
0000
0000
0000
1000
0000
0000
0000
0100
0000
0000
0000
,
0001
1000
0001
0000
0011
0000
0010
0100
1000
0000
0010
0100
0002
0003
2000
3000
,
0220
0000
0000
0000
0000
0000
0330
0000
0000
0000
0000
0000
1000
0001
1000
0001
0100
0010
1000
0010
1000
0100
0010
0001
,
1000
0000
0000
0010
0000
0000
0100
0000
0000
0001
0000
0000
0010
0000
0000
0000
0000
0000
0010
0000
0001
0000
1000
0000
0100
0000
0000
0000
0000
0000
1000
0000
0010
0000
1000
0000
0001
0000
0100
0000
0010
0000
2000
0000
0000
0000
0000
0000
,
0000
0000
3000
0022
0000
0000
0033
0202
,
0000
0000
0303
2020
0000
0000
3030
2002
,
0000
0000
0000
0000
,
0000
0000
0000
0000
,
0000
0000
0000
0000
,
0000
0003
3200
0000
,
0310
0000
0000
0000
;

//---------------dance-single - ----------------
#NOTEDATA:;
#CHARTNAME:;
#STEPSTYPE:dance-single;
#DESCRIPTION:;
#CHARTSTYLE:;
#DIFFICULTY:Hard;
#METER:16;
#RADARVALUES:0.583223,0.824544,0.294480,0.361407,0.652541,610.000000,566.000000,44.000000,54.000000,0.000000,0.000000,0.000000,0.000000,0.000000,0.583223,0.824544,0.294480,0.361407,0.652541,610.000000,566.000000,44.000000,54.000000,0.000000,0.000000,0.000000,0.000000,0.000000;
#CREDIT:Daniel Van Eden;
#NOTES:
0000
0000
0000
0000
,
0000
0000
0000
0000
,
0000
0000
0000
0000
,
0000
0000
0000
0000
,
0000
0000
0000
0000
,
0000
0000
0000
0000
,
0000
0000
0000
0000
,
0000
0000
0000
0000
,
2002
0000
0000
0000
3003
0000
0000
1000
,
0010
0000
1000
0100
1000
0000
0010
0000
0100
0000
0000
0000
0010
0000
0020
0000
,
0100
0000
0000
0000
0000
0000
0031
0000
0010
0000
0000
1000
0000
0000
0001
0000
,
0000
0000
0011
0000
0001
1000
0000
0000
1100
0000
0000
0100
0000
0000
0100
0000
,
2000
0010
0000
3002
0100
0000
0000
0013
,
0000
0000
1010
0000
1000
0001
0000
0000
0001
0000
0100
0000
0000
0000
0010
1000
,
0001
0000
0000
0000
0000
0000
1000
0010
1000
0000
0001
0010
0001
0000
1000
0100
,
0010
0000
0001
0000
0010
0100
1000
0001
0100
0010
0100
0010
1000
0001
1000
0001
,
1000
0000
0100
0000
0000
0100
0000
0000
0100
0000
0000
0001
0000
0000
0100
0000
,
2000
0000
0001
0000
3001
0000
0000
0000
0010
0000
0000
0000
0001
0010
0100
0010
,
0002
0000
0000
0000
0000
0000
0000
0000
1003
0000
0000
0000
1000
0010
0100
0010
,
2000
0000
0001
0000
3001
0000
0100
0000
0010
0000
0100
0010
1000
0001
0010
0100
,
1000
0000
0000
0001
0000
0000
1000
0010
1000
0000
0001
0010
0000
0100
1000
0000
,
0001
1000
0010
0000
0010
0000
0100
0001
1000
0000
0000
0000
0001
0000
2000
0000
,
0010
3001
0102
0013
,
1000
0000
1100
0000
1100
0000
0100
0000
0010
0000
0001
0000
1000
0000
0001
1000
,
0002
0000
0000
0100
0000
0000
2000
0000
0000
0000
0000
0000
3003
0000
0000
0000
,
2000
0000
0000
0010
0000
0000
0002
0000
0000
0000
0000
0000
3003
0000
0000
0000
,
0002
0000
0000
0010
0000
0000
0200
0000
0000
0000
0000
0000
0303
0000
0000
0000
,
0200
0000
0000
1000
0000
0000
0020
0000
0000
0000
0330
0000
1000
0000
0020
0000
,
0000
0000
0000
0000
1030
0000
0000
0000
0001
0000
0000
0010
0000
0000
0200
0000
,
0000
0000
1300
0000
0000
0000
1000
0000
0010
0000
0000
0100
0000
0000
0002
0000
,
0000
1003
0000
0000
0000
0000
1000
0001
,
0000
0010
0200
0000
0000
0000
0000
0000
1300
0000
0100
0000
0001
0000
0100
0000
,
1000
0000
0000
0010
0100
0000
0010
0000
0100
0001
0000
0000
0001
0000
2000
0000
,
3001
0000
0000
0010
0100
0000
0010
0000
0100
1000
0000
0000
1000
0000
0020
0000
,
0130
0000
0000
0001
0100
0000
0010
0000
1000
0001
0000
0000
0010
0000
0200
0000
,
1300
0000
0000
0010
0100
0000
0010
0000
1000
0000
0010
0000
0001
0000
0010
0000
,
1000
0000
0000
0001
0010
0000
0001
0000
1000
0010
0000
0000
0010
0000
2000
0000
,
3001
0000
0000
1000
0010
0000
1000
0000
0001
0100
0000
0000
0100
0000
0002
0000
,
0013
0100
0010
0001
0100
1000
0100
0001
,
1000
0010
1000
0010
1000
0001
1000
0001
0010
0001
0010
0100
1000
0100
1000
0001
,
2000
0000
0000
0000
0002
0000
0000
3003
,
0001
0100
0010
1000
0001
1000
0100
0010
0001
1000
0010
1000
,
0100
0000
0000
0011
0000
0000
0002
0000
1003
0000
0000
0000
0000
0000
0000
0000
,
0011
0000
0000
1010
0000
0000
2002
0000
0000
0000
3000
0000
0103
0010
0100
0001
,
1000
0000
1000
0001
0000
0001
0010
0000
0011
0000
0000
0000
0010
0100
0010
0001
,
1000
0000
0000
1010
0000
0000
0011
0000
1100
0000
0000
0000
0100
0010
0100
1000
,
0000
0000
1010
0000
0000
0000
1000
0000
0010
0000
0010
0100
0000
0100
0001
0000
,
0011
0000
0000
0110
0000
0000
1100
0000
1000
0000
0101
0000
2001
0000
3001
0000
,
0000
0000
0001
0100
0010
1000
0010
0000
0010
0000
1000
0000
0001
0000
1000
0100
,
1000
0000
0000
0000
0000
0000
0000
0000
0000
0110
0000
0000
0000
0000
0000
0000
0000
0000
0011
0000
0000
0000
0000
0000
0010
0000
0000
0000
1000
0000
0000
0000
0010
0000
0000
0000
0001
0000
0000
0000
0100
0000
0000
0000
0010
0000
0000
0000
,
0100
0001
0010
0100
0000
0100
0010
0001
1000
0010
0100
0001
0010
0100
0000
0000
,
0100
1000
0100
1000
0000
1000
0000
1000
0001
0000
0001
0000
1000
0010
0100
0001
,
0010
0001
0010
0001
0000
0001
0000
0001
1000
0000
1000
0000
0001
0100
0010
1000
,
0001
0000
0000
0100
0000
0000
0001
0000
0000
0100
0000
0000
0000
0000
0000
0100
0000
0000
0010
0000
0000
0000
0000
0000
1000
0000
0000
0000
0001
0000
0000
0000
0010
0000
0000
0000
0100
0000
0000
0010
0000
0000
0001
0000
0000
1000
0000
0000
,
0010
1000
0100
0010
0100
0010
0000
0010
0100
0000
0100
1000
0000
1000
0001
1000
,
0001
0000
0000
1010
0000
0000
1000
0100
0001
0100
1000
0100
0010
0001
1000
0000
,
0010
0000
0110
0000
0101
0000
0011
0000
0001
0010
1000
0010
0001
0010
0100
0000
,
1000
0000
1010
0000
1001
0000
0001
0100
1000
0001
0010
1000
,
0001
0000
0000
0000
0000
0000
0000
0000
0000
0001
0000
0000
1000
0000
0000
0000
0000
0000
0000
0000
0000
0010
0000
0000
1000
0000
0000
0000
0000
0000
0000
0000
0100
0000
0000
0000
1000
0000
0000
0000
0100
0000
0000
0000
0010
0000
0000
0000
,
0001
0000
0100
0010
0000
0010
1000
0000
0001
0010
0000
0010
0100
0000
0010
0100
,
1000
0000
0100
0010
0000
0010
0001
0000
1000
0010
0000
0010
0100
0000
0010
1000
,
0001
0000
0010
0100
0000
0100
1000
0000
0001
0100
0010
1000
0001
0000
0010
0100
,
0010
0000
0000
0011
0000
0000
0001
0000
0000
1001
0000
0000
1000
0000
0010
0000
,
0110
0000
0000
1010
0000
0000
0110
0000
0100
0010
0000
0000
1000
0001
1000
0010
,
0100
0000
0000
0000
0000
0000
0000
0000
0000
0101
0000
0000
0000
0000
0000
0000
0000
0000
0011
0000
0000
0000
0000
0000
0010
0000
0000
0000
1000
0000
0000
0000
0010
0000
0000
0000
0001
0000
0000
0000
0100
0000
0000
0000
0010
0000
0000
0000
,
2000
0000
3020
0000
,
0230
0000
0000
0000
,
0000
0000
0000
0300
,
0001
0000
0000
0000
,
0010
0000
0001
1000
0000
0010
0000
0100
,
0000
0001
2000
0000
0010
0000
0000
0000
,
0001
0000
3100
0000
,
0200
0000
0000
0010
0000
0000
0010
0000
0000
0310
0000
0000
0001
0000
1000
0000
,
0020
0000
0000
0100
0000
0000
0100
0000
0000
1030
0000
0000
0001
0000
0100
0000
,
0001
0000
0000
0001
0010
0000
0001
0000
1000
0010
0000
0000
0100
0000
0010
0000
,
1000
0001
1000
0100
0020
0000
0031
1000
,
2002
0000
0000
0000
0000
0000
3003
0000
0001
0100
0001
0100
0010
1000
0001
1000
,
0100
0000
0000
0000
0001
0000
0100
0000
1000
0100
1000
0001
0010
0100
1000
0000
,
0000
0000
0000
0101
0000
0000
1010
0000
0000
0000
0000
0000
0010
0000
0100
0000
0010
0000
1000
0000
0001
0000
1000
0000
,
0100
0010
0001
0000
0001
0000
0010
0100
0010
0000
0100
1000
0001
0000
1000
0000
,
2002
0000
0000
0000
0000
0000
0000
0000
0000
3003
0000
0000
0001
0010
0001
0000
0010
0000
0100
1000
0100
0000
0010
0000
,
0001
0000
1000
0010
0100
0000
0001
1000
0010
0000
1000
0100
0010
0001
2000
0000
,
0000
0000
3000
0202
0000
0000
0303
0022
,
0000
0000
0033
2200
0000
0000
3300
2002
,
0000
0000
0000
0000
,
0000
0000
0000
0000
,
0000
0000
0000
0000
,
0000
3003
0002
0013
,
0100
0000
0000
0000
;

//---------------dance-single - ----------------
#NOTEDATA:;
#CHARTNAME:;
#STEPSTYPE:dance-single;
#DESCRIPTION:;
#CHARTSTYLE:;
#DIFFICULTY:Medium;
#METER:12;
#RADARVALUES:0.403476,0.528558,0.113776,0.321251,0.264363,422.000000,405.000000,17.000000,48.000000,0.000000,0.000000,0.000000,0.000000,0.000000,0.403476,0.528558,0.113776,0.321251,0.264363,422.000000,405.000000,17.000000,48.000000,0.000000,0.000000,0.000000,0.000000,0.000000;
#CREDIT:Daniel Van Eden;
#NOTES:
0000
0000
0000
0000
,
0000
0000
0000
0000
,
0000
0000
0000
0000
,
0000
0000
0000
0000
,
0000
0000
0000
0000
,
0000
0000
0000
0000
,
0000
0000
0000
0000
,
0000
0000
0000
0000
,
1002
0000
0000
0000
1003
0000
0000
1000
,
0010
0000
0000
1000
0000
0000
1000
0000
0001
0000
0000
0000
0010
0000
0010
0000
,
0100
0000
0000
0000
0000
0000
0010
0000
0100
0000
0000
0010
0000
0000
0001
0000
,
0000
0000
1000
0000
1000
0000
0000
0000
0001
0000
0000
0100
0000
0000
0100
0000
,
0000
0010
0000
2000
0001
0000
0000
3100
,
0000
0010
0010
0000
0001
1000
0000
0010
,
1000
0000
0000
0010
1000
0001
0100
0010
,
1000
0100
0001
0100
1000
0001
0100
0010
,
1000
0000
0001
0000
0000
0010
0000
0000
0010
0000
0000
1000
0000
0000
0010
0000
,
0001
0000
1000
0000
1000
0000
0000
0000
0001
0000
0000
0100
0000
0000
0010
0000
,
1000
0000
0000
0000
0001
0000
1000
0100
,
0010
0000
0100
0000
0100
0000
0010
0000
0001
0000
0000
1000
0000
0000
0001
0000
,
0100
0000
0000
0010
0000
0000
0100
0000
0001
0000
1000
0000
0010
0000
1000
0000
,
0100
0000
0000
0010
0000
0000
0100
0000
1000
0000
0000
0000
0001
0000
0010
0000
,
0200
0310
0020
0031
,
0002
0100
0103
0000
0100
0010
1000
0001
,
1000
0000
0000
0100
0000
0000
0020
0000
0000
0000
0000
0000
0030
0000
0000
0000
,
0001
0000
0000
0100
0000
0000
0020
0000
0000
0000
0000
0000
0030
0000
0000
0000
,
1000
0000
0000
0100
0000
0000
0020
0000
0000
0000
0000
0000
0030
0000
0000
0000
,
0001
0000
0000
0010
0000
0000
0200
0000
0000
0000
0000
0000
1300
0000
0002
0000
,
0000
0000
0000
0000
0003
0000
0000
0000
1000
0000
0000
0010
0000
0000
2000
0000
,
0000
0000
3001
0000
0000
0000
0100
0000
0001
0000
0000
0010
0000
0000
0002
0000
,
0000
1003
0000
0000
0000
0000
0100
0020
,
0000
0130
0000
0000
1000
0001
0010
0001
,
1000
0000
0000
0100
0000
0000
0100
0000
0000
0000
0000
0000
0100
0000
0010
0000
,
0001
0000
0000
0100
0000
0000
0100
0000
0000
0000
0000
0000
0010
0000
0100
0000
,
0001
0000
0000
1000
0000
0000
1000
0000
0000
0000
0010
0000
1000
0000
0000
0000
,
0100
0000
0000
0010
0000
0000
0010
0000
0100
0000
1000
0000
0001
0000
0010
0000
,
0001
0000
0000
1000
0000
0000
1000
0000
0000
0000
0010
0000
1000
0000
0010
0000
,
1000
0000
0000
0001
0000
0000
0001
0000
0000
0000
0010
0000
0001
0000
0010
0000
,
0100
0000
0010
0100
1000
0000
0001
1000
,
0001
0000
0100
0010
0100
0000
0010
1000
,
0002
0000
2003
0000
,
3200
0000
0000
0000
,
0310
0000
0000
0010
0000
0000
0001
0000
1001
0000
0000
0000
0000
0000
0000
0000
,
1000
0000
0000
1000
0000
0000
2000
0000
0001
0000
0000
0000
3100
0000
0010
0000
,
0001
0000
1000
0001
0000
1000
0001
0000
0100
0000
0000
0000
0010
0000
1000
0000
,
0100
0000
0000
0100
0000
0000
0100
0000
0010
0000
0000
0000
0100
0000
1000
0000
,
0000
0000
1010
0000
0000
0000
0010
0000
1000
0000
0001
0010
0000
0000
0100
0000
,
0010
0000
0000
0001
0000
0000
1000
0000
1000
0000
0001
0000
0100
0000
0010
0000
,
0000
0000
0100
0010
0000
0100
0010
0000
0010
0000
1000
0000
0001
0000
1000
0000
,
0100
0000
0000
0100
0000
0000
0100
0000
0020
0000
0000
0000
0000
0000
0000
0000
,
0031
0000
1000
0000
0010
1000
0000
0001
0010
0000
0001
1000
0000
0001
0000
0000
,
1000
0000
0010
1000
0000
1000
0000
0010
1000
0000
1000
0000
0000
0000
0000
0000
,
0001
0000
0010
0001
0000
0001
0000
0010
0001
0000
0001
0000
0000
0000
0000
0000
,
1000
0000
0000
0000
0000
0000
0001
0000
0000
1000
0000
0000
0000
0000
0000
0001
0000
0000
1000
0000
0000
0000
0000
0000
0100
0000
0000
0000
0010
0000
0000
0000
0100
0000
0000
0000
0010
0000
0000
0000
0000
0000
0000
0000
0000
0000
0000
0000
,
0001
0000
1000
0000
0000
1010
0000
0000
0010
0000
0000
1010
0000
0000
1000
0000
,
0001
0000
0000
0010
0000
0000
0001
1000
0001
0000
0100
0000
0010
0000
1000
0000
,
0100
0010
0010
0100
1000
0001
0100
0010
,
1000
0000
1000
0000
1000
0000
0001
0010
0001
0010
0001
0010
,
0200
0000
0000
0320
0000
0000
0032
0000
0000
1003
0010
0100
,
0001
0000
1000
0010
0000
0000
1000
0000
0001
0010
0000
0000
0001
0000
1000
0000
,
0001
0000
1000
0100
0000
0000
1000
0000
0001
0100
0000
0000
0001
0000
1000
0000
,
0001
0000
0010
0100
0000
0000
1000
0000
0100
0010
0000
0000
0001
0000
1000
0000
,
0010
0000
0000
0010
0000
0000
0100
0000
0000
0100
0000
0000
0010
0000
1000
0000
,
0100
0000
0000
0100
0000
0000
0200
0000
0000
0000
0000
0000
0310
0000
0001
0000
,
0020
0000
0000
0032
0000
0000
2003
0000
0100
0000
0000
0000
3001
0000
0000
0000
,
0101
0000
1010
0000
,
2002
0000
0000
0000
,
0000
0000
0000
3003
,
0001
0000
0000
0000
,
0010
0000
0001
1000
0000
0010
0000
0100
,
0000
0010
2000
0000
0100
0000
0000
0000
,
0010
0000
3001
0000
,
1001
0000
0000
0000
0001
0000
0010
0100
,
0010
0000
0001
1000
0000
0010
0000
1000
,
0010
0100
0001
0000
0010
0000
0001
0000
,
0100
0010
0220
0330
,
2002
0000
0000
0000
3003
0000
0000
0000
1000
0001
1000
0001
1000
0001
1000
0001
,
1000
0000
0100
0010
0001
0010
1000
0020
,
0000
0000
0000
0100
0000
0000
0130
0000
0000
0000
0000
0000
1000
0000
0010
0000
1000
0000
0010
0000
0100
0000
0010
0000
,
0200
0001
0301
0000
0002
0000
2003
0000
,
3020
0000
0000
0000
0000
0000
1030
0100
0001
0100
1000
0001
,
1000
0000
0010
0100
0101
0001
0010
0220
,
0000
0000
0330
2200
0000
0000
3300
0022
,
0000
0000
0033
0202
0000
0000
0303
2002
,
0000
0000
0000
0000
,
0000
0000
0000
0000
,
0000
0000
0000
0000
,
0000
0003
3200
0300
;

//---------------dance-single - ----------------
#NOTEDATA:;
#CHARTNAME:;
#STEPSTYPE:dance-single;
#DESCRIPTION:;
#CHARTSTYLE:;
#DIFFICULTY:Easy;
#METER:9;
#RADARVALUES:0.271533,0.352372,0.020078,0.214167,0.060235,284.000000,281.000000,3.000000,32.000000,0.000000,0.000000,0.000000,0.000000,0.000000,0.271533,0.352372,0.020078,0.214167,0.060235,284.000000,281.000000,3.000000,32.000000,0.000000,0.000000,0.000000,0.000000,0.000000;
#CREDIT:Daniel Van Eden;
#NOTES:
0000
0000
0000
0000
,
0000
0000
0000
0000
,
0000
0000
0000
0000
,
0000
0000
0000
0000
,
0000
0000
0000
0000
,
0000
0000
0000
0000
,
0000
0000
0000
0000
,
0000
0000
0000
0000
,
2000
0000
0000
0000
3001
0000
0000
0001
,
0000
0010
0010
0000
0001
0000
1000
0000
,
0010
0000
0000
0100
0010
0000
0000
0010
,
0000
1000
1000
0000
0001
0000
1000
0000
,
0100
0000
0000
0000
1000
0000
0000
0010
,
0000
0100
0100
0000
0001
0000
1000
0000
,
0100
0000
0000
0010
0001
0000
1000
0000
,
0010
0000
0100
0000
0001
1000
0001
1000
,
0001
0000
0010
0000
0010
0000
0000
0100
,
0000
1000
0001
0000
1000
0000
0010
1000
,
0010
0000
0000
0000
1000
0000
0001
0010
,
0001
0000
0010
0100
0000
0000
0010
0000
,
0001
0000
0000
1000
0000
0000
0100
0000
,
1000
0000
0000
1000
0000
0000
0001
0000
,
0020
0000
0230
0000
,
2300
0010
0010
3001
,
0100
0000
0000
0200
0000
0000
0000
0000
,
0310
0000
0000
0020
0000
0000
0000
0000
,
1030
0000
0000
2000
0000
0000
0000
0000
,
3001
0000
0000
0002
0000
0000
1003
0100
,
0000
0000
0100
0000
1000
0000
0010
1000
,
0000
1000
0000
0000
0001
0000
0010
0001
,
0000
0001
0000
0000
0100
0000
0010
0100
,
0000
0000
0001
0000
0010
0000
0100
1000
,
0100
1000
1000
0010
,
1000
0001
0001
0010
,
0002
0000
1003
0010
,
2000
0000
0000
0000
3100
0000
0010
0001
,
0010
0001
0001
1000
,
0010
1000
1000
0100
,
0020
0000
0000
0100
,
0100
0001
0001
0130
,
1000
0010
1000
0001
,
0200
0000
0000
0000
,
0310
0000
0000
0010
0000
0000
0010
0000
0100
0000
0000
0000
0000
0000
0000
0000
,
0001
0000
0000
0001
0000
0000
0002
0000
0000
0000
0000
0000
0013
0000
0000
0000
,
0100
0000
0000
0100
0000
0000
0200
0000
0000
0000
0000
0000
1300
0000
0000
0000
,
0010
0000
0000
0010
0000
0000
0010
0000
0000
0000
0000
0000
0010
0000
1000
0000
,
0000
0000
1001
0000
0000
0000
0000
0000
0001
0000
0000
0001
0000
0000
0001
0000
,
1000
0000
0000
1000
0000
0000
1000
0000
0001
0000
0000
0000
0100
0000
0000
0000
,
0000
0010
0100
0000
0100
0010
0100
0000
,
0001
0000
0010
0100
,
1000
0000
0000
0010
0000
1000
0001
0000
,
0010
0000
0000
0010
0000
0000
0010
0000
0001
0000
0000
0000
1000
0000
0000
0000
,
0010
0000
0000
0010
0000
0000
0010
0000
1000
0000
0000
0000
0001
0000
0000
0000
,
0100
0000
0000
0100
0000
0000
0100
0000
0001
0000
0000
0000
1000
0000
0000
0000
,
0000
0000
0100
0000
0000
0100
0000
0000
0010
0000
0000
0000
0001
0000
1000
0000
,
0001
0000
0000
0001
0000
0000
2000
0000
0000
0000
0000
0000
3000
0000
0000
0000
,
1000
0000
0000
1000
0000
0000
0002
0000
0000
0000
0013
0000
0000
0000
0100
0000
,
0010
0000
0010
0000
0010
0000
0200
0000
0000
0000
0000
0000
,
1300
0010
0100
0001
,
1000
0000
0010
1000
0000
0001
1000
0000
,
0001
0000
0010
0001
0000
1000
0001
0000
,
0100
0000
0010
0100
0000
0001
0100
0000
,
0010
0000
0000
0010
0000
0000
1000
0000
0000
1000
0000
0000
0001
0000
0000
0000
,
0100
0000
0000
0100
0000
0000
0100
0000
0000
0000
0000
0000
0001
0000
0000
0000
,
0010
0000
0000
0010
0000
0000
0010
0000
0000
0000
0000
0000
0000
0000
0000
0000
,
0200
0000
2300
0000
,
3002
0000
0000
0000
,
0000
0000
0000
0000
,
0013
0000
0000
0000
,
0100
0000
0000
0000
,
1000
0000
0010
0000
,
1000
0000
0001
0000
,
0020
0000
0000
0000
0030
0000
0000
0001
,
1000
0000
0100
0010
0000
0001
0000
1000
,
0000
0001
0100
0000
0010
0000
0010
0000
,
1000
1000
2002
3003
,
0220
0000
0330
0000
0001
1000
0001
1000
,
0001
0000
0010
0100
0000
1000
0000
0100
,
0000
0010
0001
0000
1000
0000
0010
0000
,
1000
1000
1000
0000
0001
0000
0010
0010
,
0002
0000
0003
0000
1000
0100
0010
0001
,
1000
0000
0010
0010
0010
0000
1000
0002
,
0000
0000
0000
0023
0000
0000
0000
0230
,
0000
0000
0000
2300
0000
0000
0000
3002
,
0000
0000
0000
0000
,
0000
0000
0000
0000
,
0000
0000
0000
0000
,
0000
0000
2003
3000
;

//---------------dance-single - ----------------
#NOTEDATA:;
#CHARTNAME:;
#STEPSTYPE:dance-single;
#DESCRIPTION:;
#CHARTSTYLE:;
#DIFFICULTY:Beginner;
#METER:5;
#RADARVALUES:0.198869,0.265032,0.073620,0.000000,0.000000,208.000000,197.000000,11.000000,0.000000,0.000000,0.000000,0.000000,0.000000,0.000000,0.198869,0.265032,0.073620,0.000000,0.000000,208.000000,197.000000,11.000000,0.000000,0.000000,0.000000,0.000000,0.000000,0.000000;
#CREDIT:Daniel Van Eden;
#NOTES:
// measure 0
0000
0000
0000
0000
,  // measure 1
0000
0000
0000
0000
,  // measure 2
0000
0000
0000
0000
,  // measure 3
0000
0000
0000
0000
,  // measure 4
0000
0000
0000
0000
,  // measure 5
0000
0000
0000
0000
,  // measure 6
0000
0000
0000
0000
,  // measure 7
0000
0000
0000
0000
,  // measure 8
1001
0000
1000
0000
,  // measure 9
0000
0001
0001
0000
1000
0000
0010
0000
,  // measure 10
0010
0000
0100
0000
,  // measure 11
0000
0100
0100
0000
0010
0000
0000
0000
,  // measure 12
1000
0000
0100
0000
,  // measure 13
0000
0010
0010
0000
0001
0000
1000
0000
,  // measure 14
0001
0000
1000
0000
,  // measure 15
0010
0010
0100
0100
,  // measure 16
0010
0000
1000
0000
,  // measure 17
0000
0001
0001
0000
0000
0000
0010
0000
,  // measure 18
0010
0000
0001
1000
,  // measure 19
0000
1000
1000
0000
0010
0000
1000
0000
,  // measure 20
1000
0000
0001
0000
,  // measure 21
0000
0100
0100
0000
0010
0000
0010
0000
,  // measure 22
1000
0000
0001
0000
,  // measure 23
0010
0010
0010
0100
,  // measure 24
0100
0000
0000
0100
0000
0000
0000
0000
,  // measure 25
0100
0000
0000
1000
0000
0000
0000
0000
,  // measure 26
1000
0000
0000
1000
0000
0000
0000
0000
,  // measure 27
1000
0000
0000
0001
0000
0000
0000
0000
,  // measure 28
0001
0000
1000
0010
,  // measure 29
1000
0000
0001
0010
,  // measure 30
0001
0000
0010
0000
,  // measure 31
0100
0000
0010
0010
,  // measure 32
0010
0000
0001
0000
,  // measure 33
1000
0000
1000
0001
,  // measure 34
1000
0000
0010
0000
,  // measure 35
0010
0000
0100
0100
,  // measure 36
0100
0000
0001
0000
,  // measure 37
1000
0000
0001
1000
,  // measure 38
0001
0000
0001
0000
,  // measure 39
1000
0000
1000
0000
,  // measure 40
0010
0000
0100
0000
,  // measure 41
0100
0000
0000
0000
,  // measure 42
0100
0000
1001
0000
,  // measure 43
1000
0000
0000
1000
0000
0000
0001
0000
,  // measure 44
0001
0000
0000
0001
0000
0000
0010
0000
,  // measure 45
0010
0000
0000
0010
0000
0000
0100
0000
,  // measure 46
0000
0110
0000
0000
0100
0000
1000
0000
,  // measure 47
1000
0000
0000
0001
0000
0001
0001
0000
,  // measure 48
0000
1000
1000
0000
0010
0000
0010
0000
,  // measure 49
0010
0000
0100
0000
,  // measure 50
0001
0000
0000
0000
,  // measure 51
1001
0000
0001
1000
,  // measure 52
1000
0000
0010
1000
,  // measure 53
0100
0000
0010
0100
,  // measure 54
0010
0000
0000
0010
0000
0000
0010
0000
,  // measure 55
0001
0000
0000
1001
0000
0000
0000
0000
,  // measure 56
1000
0000
0010
0100
,  // measure 57
0100
0000
0001
0000
,  // measure 58
0001
0010
0100
0000
,  // measure 59
1000
0000
0000
1000
0000
0000
0010
0000
,  // measure 60
1000
0000
0000
1000
0000
0000
0001
0000
,  // measure 61
1000
0000
0000
1000
0000
0000
0100
0000
,  // measure 62
1000
0000
0010
0000
,  // measure 63
0100
0000
0000
0100
0000
0000
0010
0000
,  // measure 64
0100
0000
0000
0001
0000
0000
0000
0000
,  // measure 65
0001
0000
1000
0000
,  // measure 66
1001
0000
0000
0000
,  // measure 67
0000
0000
0000
0000
,  // measure 68
1000
0000
0001
0000
,  // measure 69
0010
0000
0001
0000
,  // measure 70
1000
0000
0010
0000
,  // measure 71
0100
0000
0001
0000
,  // measure 72
1000
0000
0000
0100
,  // measure 73
0100
0000
0010
0100
,  // measure 74
0010
0000
0001
1000
,  // measure 75
0001
0001
1000
0000
,  // measure 76
1001
0000
0000
0000
0001
0000
0000
0010
,  // measure 77
0010
0000
0000
0000
0100
0000
0000
0100
,  // measure 78
0000
0100
0100
0000
1000
0000
0000
0000
,  // measure 79
0001
0000
1000
1000
,  // measure 80
0001
0000
0010
0000
,  // measure 81
0100
0000
0110
0000
0010
0000
0000
0001
,  // measure 82
0000
0000
0000
1000
0000
0000
0000
1010
,  // measure 83
0000
0000
0000
0101
0000
0000
0000
1001
,  // measure 84
0000
0000
0000
0000
,  // measure 85
0000
0000
0000
0000
,  // measure 86
0000
0000
0000
0000
,  // measure 87
0000
0000
1000
0000
,  // measure 88
0001
0000
0000
0000
;
