#TITLE:My Sharona;
#ARTIST:The Knack;
#BANNER:My Sharona-bn.png;
#BACKGROUND:My Sharona-bg.png;
#JACKET:My Sharona-jacket.png;
#MUSIC:My Sharona.ogg;
#OFFSET:1.216;
#SAMPLESTART:26.397;
#SAMPLELENGTH:20;
#LASTBEATHINT:0.503;
#DISPLAYBPM:143:152;
#BPMS:0=145,12=148,20=147.125,23=146.75,28=146,31=149,36=145.4,44=150,53=147.789,55=146.6,57=144,64=145.7,68=151,72=148,76=150,80=152,84=149.1,92=147.8,96=144.5,98=143,103=147,108=145.6,116=147.843,124=147,132=144.6,140=149.13,145=148.4,151=146.4,154=150,156=145,159=147.3,174=148.175,177=144.5,179=149.9,182=147.1,188=148.67,192=151.25,196=143.4,200=144.2,203=148.45,216=146.16,228=144.5,235=147,241=150.3,256=149,260=148.7,264=147.6,268=145,272=148,275=151,280=147.9,286=145.6,294=149;
#BGCHANGES:;

//---------------dance-single - ----------------
#NOTES:
     dance-single:
     :
     Beginner:
     5:
     :
0000
0000
0000
0000
,
0000
0000
0000
0000
,
0000
0000
0000
0000
,
0000
0000
0000
0000
,
1001
0000
0110
0000
,
1000
1000
1000
0000
,
0001
0000
0100
0000
,
0010
0010
0010
0000
,
0110
0000
1001
0000
,
1000
1000
1000
1000
,
0000
0010
0010
0000
,
0100
0100
0100
0000
,
1001
0000
0110
0000
,
0010
0010
0010
0010
,
0000
1000
1000
0000
,
0001
0001
0001
0000
,
0110
0000
1001
0000
,
0010
0000
0010
0000
,
0010
0000
0010
0000
,
0100
0000
0100
0000
,
0100
0000
0100
0000
,
1001
0000
0000
0110
,
0000
0000
1001
1001
,
0000
0000
0000
0110
,
0110
0000
1001
0000
,
1000
1000
1000
0000
,
1001
0000
0110
0000
,
0100
0100
0100
0100
,
0000
0010
0010
0000
,
1000
1000
1000
0000
,
1001
0000
0110
0000
,
0001
0001
0001
0001
,
0000
0100
0100
0000
,
0010
0010
0010
0000
,
0110
0000
1001
0000
,
1000
0000
1000
0000
,
1000
0000
1000
0000
,
0001
0000
0001
0000
,
0001
0000
0001
0000
,
0110
0000
0000
1001
,
0000
0000
0110
0110
,
0000
0000
0000
1001
,
1001
0000
0110
0000
,
1000
1000
1000
0000
,
1001
0000
0110
0000
,
0100
0100
0100
0000
,
0110
0000
1001
0000
,
0010
0010
0010
0000
,
0110
0000
1001
0000
,
2002
0000
0000
0000
,
0000
0000
3003
0000
,
0220
0000
0000
0000
,
0000
0000
0330
0000
,
0001
0000
0001
0000
,
0010
0000
0010
0000
,
0001
0000
0100
0000
,
1000
0000
0010
0000
,
1000
1000
1000
0000
,
0010
0010
0010
0000
,
0100
0000
0001
0000
,
0010
0000
0100
0000
,
1000
1000
0000
1000
,
0000
0001
0000
0001
,
0000
0100
0000
0100
,
0100
0100
0100
0000
,
0010
0000
1000
0000
,
0100
0000
1000
0000
,
0001
0000
0001
0000
,
0100
0100
0100
0000
,
0010
0000
1000
0000
,
0010
0000
0100
0000
,
0001
0000
0010
0000
,
0001
0000
1000
0000
,
1001
0000
1001
0000
,
0110
0000
0001
0001
,
0001
0000
0100
0000
,
1000
0000
0110
0000
;

//---------------dance-single - ----------------
#NOTES:
     dance-single:
     :
     Easy:
     7:
     :
0000
0000
0000
0000
,
0000
0000
0000
0000
,
0000
0000
0000
0000
,
0000
0000
0000
0000
,
1010
0000
0000
0001
1000
0001
0000
0000
,
0100
0110
0010
1010
,
1000
1100
0001
0101
,
0010
1010
1000
1100
,
0011
0000
0000
1000
0001
1000
0000
0000
,
0010
0100
0001
0010
,
0001
0100
1000
0000
,
0010
1000
0100
0010
,
0110
0000
0000
0001
1000
0001
0000
0000
,
0100
0010
1000
0001
,
1000
0100
0010
0000
,
0001
0100
0001
0010
,
1001
0000
0000
0100
0010
0100
0000
0000
,
0001
0010
0001
0100
,
0010
1000
0001
1000
,
0100
0001
0010
0001
,
0100
0010
1000
0001
,
0100
0000
0000
0100
0000
0000
0100
0000
,
0000
0100
0000
0000
0110
0000
0110
0000
,
0000
1001
0010
1100
,
0001
0101
0100
0110
,
0010
1001
1000
0100
,
0011
0000
0000
0100
0010
0100
0000
0000
,
0010
1000
0100
1000
,
0010
0100
0001
0000
,
0010
0001
1000
0001
,
0101
0000
0000
0100
0010
0100
0000
0000
,
0001
0010
1000
0100
,
1000
0001
0100
0000
,
0010
0100
0001
1000
,
1010
0000
0000
1000
0100
1000
0000
0000
,
0001
0010
0001
0100
,
0010
1000
0100
0010
,
0001
1000
0010
0100
,
0010
1000
0100
0001
,
0100
0000
0000
0100
0000
0000
0100
0000
,
0000
0100
0000
0000
1001
0000
1001
0000
,
0010
0001
0100
1000
,
1100
0000
0000
0001
0100
0001
0000
0000
,
0010
0001
1000
0010
,
0101
0000
0000
1000
0100
1000
0000
0000
,
0010
1000
0100
0001
,
0011
0000
0000
1000
0010
1000
0000
0000
,
0001
0100
0010
1000
,
1001
0000
0000
0001
0010
0001
0000
0000
,
2020
3030
0002
0003
,
0200
0300
0020
0130
,
0202
0303
2000
3000
,
0020
0030
0002
1003
,
0020
0000
0000
0200
0000
0000
0030
0000
,
0301
0010
0001
0100
,
1000
0010
0002
0003
,
0100
0010
1000
0001
,
1000
0020
0000
0000
,
1030
1100
0101
0100
,
0010
1000
0100
0010
,
0002
0003
0020
0031
,
0100
1010
0001
0011
,
0100
0110
0010
0101
,
1000
1100
0010
0101
,
2000
3002
2003
3002
,
0013
1001
0100
0110
,
0001
0011
1000
1010
,
2200
3300
0001
0100
,
2000
3020
0230
0301
,
0022
0033
2200
3300
,
0202
0303
0020
0130
,
0220
0330
2002
3003
,
2200
3300
0022
0033
,
1001
0100
0010
1000
,
0001
0100
0101
1100
,
0001
0001
1000
1000
,
0010
0100
0110
0000
;

//---------------dance-single - ----------------
#NOTES:
     dance-single:
     :
     Medium:
     10:
     :
0000
0000
0000
0000
,
0000
0000
0000
0000
,
0000
0000
0000
0000
,
0000
0000
0000
0000
,
0202
0000
0303
0001
1000
0100
0000
1200
,
0000
1300
0001
0100
0010
0000
1010
0000
,
0100
0000
0101
0000
1000
0001
1000
0020
,
0000
0130
0010
1000
0001
0000
0011
0000
,
2200
0000
3300
1000
0001
0100
0000
0102
,
0000
1003
0100
1000
0010
0100
0001
0000
,
0000
0000
0010
0100
1000
0000
0000
2001
,
0000
3001
1000
0001
1000
0001
0100
0000
,
0220
0000
0330
0010
1000
0001
0000
1002
,
0000
1003
0001
0010
0001
1000
0100
0000
,
0000
1000
0001
0100
0010
0000
0000
2010
,
0000
3001
1000
0001
1000
0001
0100
0000
,
2002
0000
3003
0001
0010
0100
0000
2100
,
0000
3100
1000
0001
0100
0000
0100
0001
,
0010
0000
0010
0001
0100
0000
0010
2000
,
0000
3001
1000
0001
0010
0000
0010
0100
,
1000
0000
1000
0100
0001
0100
1000
0000
,
2001
0000
0000
3002
0000
0000
2003
0000
,
0000
3002
0000
0000
0103
0000
0110
0000
,
0001
1000
0100
1000
0001
0000
0011
0000
,
0100
0000
1010
0000
1000
0001
0100
0020
,
0000
1030
0010
0100
0001
0000
0011
0000
,
2200
0000
3300
1000
0001
0010
0000
0012
,
0000
0103
0001
0010
0001
1000
0100
0000
,
0000
1000
0100
0010
0001
0000
0000
1020
,
0000
0130
0010
0100
0001
1000
0100
0000
,
0220
0000
0330
0010
0001
0100
0000
0201
,
0000
0310
1000
0100
1000
0001
0010
0000
,
0000
0000
0001
1000
0100
0000
0000
1200
,
0000
1300
0100
0010
0001
1000
0001
0000
,
0022
0000
0033
1000
0001
0100
0000
1020
,
0000
1030
0001
1000
0100
0000
0100
0001
,
0010
0000
0010
0100
1000
0000
0010
0200
,
0000
0301
1000
0001
0010
0000
0010
0100
,
1000
0000
1000
0100
0001
0100
1000
0000
,
2001
0000
0000
3002
0000
0000
2003
0000
,
0000
3002
0000
0000
0103
0000
0110
0000
,
1000
0010
0100
0010
1000
0000
1100
0000
,
0001
0000
0011
0000
1000
0001
1000
0200
,
0000
0310
0001
0100
0001
0000
1001
0000
,
0010
0000
0110
0000
0010
1000
0001
0200
,
0000
0301
0010
0100
1000
0000
1100
0000
,
0001
0000
1001
0000
1000
0001
1000
0200
,
0000
0310
0001
0100
0001
0000
0011
0000
,
0100
0000
1001
0000
0010
1000
0001
0000
,
2020
0030
0002
0003
,
0200
0300
3020
0130
,
0202
0003
2000
3000
,
0020
0030
0302
1003
,
2200
0000
0300
0002
0000
0000
3003
0100
,
0020
0000
1030
0002
0000
0000
1003
0100
,
1000
0001
0100
0020
0000
0000
0000
0130
,
0002
0000
0013
0200
0000
1300
0010
0000
,
1002
0000
0013
0200
0000
0000
0000
1300
,
0001
1000
0020
0000
0230
0000
0310
1000
,
0001
0010
0001
0100
0000
0100
0010
2000
,
0000
0000
0000
3010
1000
0001
1000
0100
,
0010
0000
0001
0200
0000
0000
0301
2000
,
0000
0000
3010
0100
0010
1000
0001
1000
,
0100
0000
0010
0002
0000
1003
0001
0000
,
1100
0000
0101
0000
1100
0000
0010
0100
,
0001
0010
0001
0000
1000
0010
1000
0000
,
0001
0100
0001
0000
1000
0100
1000
0000
,
0010
0100
0000
0010
0100
0000
0110
0000
,
1010
0101
1100
0011
,
2002
0000
3003
0010
0200
0000
0300
0001
,
0020
0000
0030
0100
2000
0000
3001
0000
,
2020
0000
3030
0001
2000
0000
3000
0001
,
0020
0000
0030
0001
0200
0000
0300
0000
,
0202
0000
0303
0010
0200
0000
0300
0001
,
2000
0000
3000
0001
0020
0000
0230
0000
,
1300
0001
1000
0001
1000
0001
1000
0001
,
0100
0010
0100
0010
0110
0000
0000
0000
;

//---------------dance-single - ----------------
#NOTES:
     dance-single:
     :
     Hard:
     12:
     :
0000
0000
0000
0000
,
0000
0000
0000
0000
,
0000
0000
0000
0000
,
0000
0000
0000
0000
,
0021
0000
0031
0100
1010
1010
0000
1001
,
1000
0100
0001
0100
1000
0000
1100
0000
,
0001
0000
0101
0000
1001
0001
0100
0010
,
1000
0100
0001
0100
1000
0000
1100
0000
,
0102
0000
0013
0100
1100
1100
0000
0110
,
0001
0100
1000
0100
0001
0001
0011
0000
,
0100
0010
1000
1000
1100
0000
0010
1001
,
0000
0110
0001
0100
0010
1000
0100
0000
,
2010
0000
3100
0010
0011
0011
0000
0101
,
0010
1000
0001
1000
0100
0100
0110
0000
,
0001
0100
0010
0010
1010
0000
0100
0011
,
0000
1100
0001
1000
0010
1000
0100
0000
,
1002
0000
0013
0100
1100
1100
0000
0011
,
0001
0100
1000
0100
0001
0000
0010
0010
,
0010
0000
0001
0100
0010
1000
0100
0010
,
0001
0100
1000
0100
0010
0000
0010
1000
,
0100
0000
1000
0001
0100
0100
0100
0000
,
0011
0000
0000
0110
0000
0000
1100
0000
,
0000
1001
0000
0000
1010
0000
0101
0000
,
0001
0010
1000
0010
0001
0100
0100
0100
,
0210
0000
0310
1000
0100
0100
0010
0011
,
0000
0001
0100
0010
1000
0001
0100
0000
,
1002
0000
1003
0010
0101
0101
0000
1100
,
0001
0010
0001
0100
1000
1000
1010
0000
,
0010
1000
0100
0100
0110
0000
0001
0011
,
0000
1010
0001
0010
0001
0100
1000
0000
,
1200
0000
0301
0100
1001
1001
0000
0110
,
1000
0001
0010
0100
1000
1000
1001
0000
,
0001
1000
0010
0010
0110
0000
0100
0101
,
0000
0011
0100
0010
1000
0001
1000
0000
,
0021
0000
1030
0010
1001
1001
0000
1100
,
0001
0100
1000
0100
0001
0000
0010
0010
,
0010
0000
0001
1000
0001
0100
0010
1000
,
0100
0001
0100
1000
0010
0000
0010
1000
,
0100
0000
1000
0001
0100
0100
0100
0000
,
0011
0000
0000
0110
0000
0000
1100
0000
,
0000
1001
0000
0000
1010
0000
0101
0000
,
0001
0010
1000
0010
0001
0100
0100
0100
,
0120
0000
1030
0001
0010
0010
0100
1100
,
0000
0010
1000
0001
1000
0100
0100
0100
,
0210
0000
0301
0100
1000
1000
0010
0101
,
0000
0010
0001
1000
0001
0100
0100
0100
,
1002
0000
0013
0100
1000
1000
0001
0011
,
0000
1000
0001
0010
0001
0100
0100
0100
,
2001
0000
3010
1000
0001
0100
0110
0000
,
2020
0000
0030
0001
0002
0000
0003
0100
,
0200
0000
0300
0010
3020
0000
0130
0000
,
0202
0000
0003
1000
2000
0000
3000
0010
,
0020
0000
0030
0001
0302
0000
0013
0000
,
2100
0000
3001
0100
0210
0000
0310
0100
,
0002
0000
1003
0020
0000
1030
0100
0010
,
0001
1000
0001
0200
0000
0000
0000
0010
,
0310
1000
0001
2000
0000
0100
3100
0010
,
0012
0000
0103
2001
0000
3010
1000
0100
,
1000
0001
0020
0030
0020
0000
0031
0100
,
1000
0010
1000
0002
0000
0013
0100
2000
,
0000
0000
0000
3010
1000
0100
0001
0100
,
1000
0010
0100
0102
0000
0013
0100
1200
,
0000
0301
0100
2001
0000
3010
0100
0001
,
1000
0010
0100
1020
0000
1030
0001
0010
,
0001
0100
0001
0010
0100
1000
0010
0100
,
0001
0010
0100
0100
1000
0001
0100
0100
,
0010
1000
0001
0001
0010
0001
0100
0010
,
1000
1100
0000
0001
0011
0000
1001
0000
,
1100
0110
0011
0101
,
2010
0000
3001
1100
1200
0000
0310
0011
,
0012
0000
0103
0010
1001
0000
1001
0000
,
0201
0000
0310
0110
0120
0000
1030
1100
,
2100
0000
3001
0200
0020
0000
0330
0000
,
2001
0000
3010
0100
0002
0000
0013
0001
,
2000
0000
3100
0010
0001
0000
1020
0000
,
1030
1000
0100
0100
0010
0010
0001
0001
,
0100
0010
1000
0001
0110
0000
0000
0000
;

//---------------dance-single - ----------------
#NOTES:
     dance-single:
     :
     Challenge:
     14:
     :
0000
0000
0000
0000
,
0000
0000
0000
0000
,
0000
0000
0000
0000
,
0000
0000
0000
0000
,
2200
0000
3300
1100
0110
0011
0000
1001
,
0001
0100
0010
1000
1100
0000
0110
0000
,
0011
0000
0101
0000
1010
0001
1000
0100
,
0010
0001
1000
0001
0101
0000
1010
0000
,
0022
0000
0033
0011
0110
1100
0000
1001
,
0010
1000
1000
0001
0101
0101
0101
0000
,
0010
1000
1100
1100
1100
0001
0100
0120
,
0000
1000
1030
0001
0010
0100
0100
0000
,
2002
0000
3003
0011
1001
1010
0000
0101
,
0001
0010
0010
0100
1100
1100
1100
0000
,
0010
1000
0101
0101
0101
0001
0010
0210
,
0000
1000
1300
0010
0100
0100
0100
0000
,
0202
0000
0303
1001
1010
1100
0000
1001
,
0010
1000
0010
1000
0100
0010
0001
0100
,
0010
1000
0001
0010
0001
0100
0010
1000
,
0100
0010
0100
1000
0010
1000
0001
0100
,
0010
0000
0100
0000
1000
0000
0001
0100
0001
0000
0010
0000
0100
1000
0100
0000
,
2200
0000
0000
0000
0000
3300
0202
0000
0000
0000
0000
0303
0022
0000
0000
0000
,
0000
0033
2020
0000
0000
0000
0000
3030
1001
0000
0000
0000
0110
0000
0000
0000
,
0001
1000
0010
1000
0100
0010
0010
0010
,
0012
0000
0103
0010
1010
1010
0001
0100
,
0001
0000
1000
0000
0100
0000
0010
0000
0001
0000
0000
1000
0100
0000
0000
0000
,
2020
0000
3030
1100
1001
0101
0000
0011
,
0001
0100
0100
0010
1010
1010
1010
0000
,
1000
0001
0011
0011
0011
0100
0010
2010
,
0000
0100
3100
1000
0001
0001
0100
0000
,
0220
0000
0330
1010
0110
0101
0000
1001
,
1000
0010
1000
1000
1001
1001
1001
0000
,
0010
0100
0110
0110
0110
0001
1000
2100
,
0000
0100
3100
0010
0001
0001
0001
0000
,
0022
0000
0033
1001
0110
1001
0000
1100
,
0001
0100
0001
0010
0100
1000
0001
1000
,
0010
0100
0010
1000
0100
0010
0001
0100
,
0001
0010
0100
1000
0010
0100
0010
1000
,
0001
0000
0010
0000
0100
0000
1000
0001
1000
0000
0010
0000
0100
0001
0100
0000
,
0202
0000
0000
0000
0000
0303
2200
0000
0000
0000
0000
3300
2020
0000
0000
0000
,
0000
3030
0022
0000
0000
0000
0000
0033
1001
0000
0000
0000
0110
0000
0000
0000
,
0100
1000
0001
0100
0010
1000
1000
1000
,
1200
0000
0310
0001
1001
1001
0100
0010
,
1000
0001
1000
0100
0010
0001
0001
0001
,
0201
0000
0310
1000
1100
1100
0001
0010
,
0001
0100
1000
0100
0001
0010
0010
0010
,
0210
0000
1300
0001
0011
0011
0100
0010
,
1000
0001
1000
0100
0010
0100
0100
0100
,
2100
0000
0000
0000
3010
0000
1000
0000
1001
0000
0001
0100
0001
0100
0001
0000
,
0011
0000
0000
0001
1000
0000
0000
1000
0100
0000
0000
0100
1000
0000
0000
1000
,
0010
0000
0000
0010
0100
0000
0000
0100
0001
0000
0000
0001
0010
0000
0100
0000
,
1100
0000
0000
1000
0001
0000
0000
0001
0100
0000
0000
0100
0010
0000
0000
0010
,
1000
0000
0000
0000
0110
0000
0000
0000
0001
0100
0000
0001
0100
0000
0010
0000
,
1002
0000
0103
0110
2010
0000
3001
1100
,
0110
0001
0100
2010
0000
3001
1000
0010
,
0101
0001
0010
0200
1000
0000
0310
0011
,
0011
0000
0001
0100
0001
0000
2000
0000
0000
0000
3010
0000
0100
0000
0001
0000
,
1000
0001
1000
0020
0100
0000
0031
1010
,
1010
0001
0011
0000
1100
1000
0010
0100
,
0001
0000
1000
0100
1000
0000
2010
0000
0000
0000
3001
0000
0100
0000
0020
0000
,
1000
0000
0000
0000
0130
0000
0001
0010
0001
0010
0001
0010
0001
0000
1000
0000
,
0010
0000
1000
0100
2000
0000
3002
0000
0103
0000
0010
1000
0020
0000
0230
0000
,
0301
0000
0010
0100
0010
0000
0001
0000
1000
0100
1000
0000
0010
0000
1000
0000
,
0100
0000
0010
0001
0020
0000
0230
0000
1300
0000
0001
1000
0002
0000
0203
0000
,
0310
1000
0000
0000
0010
1000
0000
0001
1000
0001
1000
0000
0200
0000
0320
0000
,
0032
0000
0203
0000
0310
1000
0010
1000
0002
0000
0023
0000
0130
1000
0100
1000
,
0020
0000
0230
0000
0301
1000
0001
1000
0001
0010
0001
0010
0200
0000
2300
0000
,
3010
1000
0100
0000
0010
0000
0001
0100
0010
0000
1000
0000
0001
0100
0001
0000
,
1000
0100
1000
0000
0001
0100
0001
0000
1000
0010
1000
0000
0001
1000
0001
1000
,
0020
0000
1030
1100
0102
0000
0103
0011
,
2010
0000
3001
0110
1001
0000
1001
0000
,
2100
0000
3010
1001
0210
0000
0301
0011
,
0102
0000
0103
1010
2200
0000
3300
0000
,
1001
0010
1000
0100
1000
0010
1000
0001
,
0010
0100
1000
0010
0100
0001
0101
0000
,
0011
0011
1001
1001
1010
1010
1100
1100
,
0110
0110
0110
0110
0110
0000
0000
0000
;
