#VERSION:0.83;
#TITLE:もぺもぺ;
#SUBTITLE:;
#ARTIST:LeaF;
#TITLETRANSLIT:Mopemope;
#SUBTITLETRANSLIT:;
#ARTISTTRANSLIT:;
#GENRE:Dolphame music;
#ORIGIN:;
#TAGS:;
#CREDIT:tikal.;
#BANNER:mopemope.png;
#BACKGROUND:mopemope-bg.png;
#PREVIEWVID:;
#JACKET:;
#CDIMAGE:;
#DISCIMAGE:;
#LYRICSPATH:;
#CDTITLE:cdtitle.png;
#MUSIC:mopemope.ogg;
#OFFSET:0.001000;
#SAMPLESTART:26.399000;
#SAMPLELENGTH:19.200001;
#SELECTABLE:YES;
#BPMS:0.000000=100.000000;
#STOPS:;
#DELAYS:;
#WARPS:76.000000=16.000000,
92.125000=16.000000,
108.625000=15.000000;
#TIMESIGNATURES:0.000000=4=4;
#TICKCOUNTS:0.000000=4;
#COMBOS:0.000000=1;
#SPEEDS:0.000000=1.000000=0.000000=0;
#SCROLLS:0.000000=1.000000,
76.000000=0.000000,
76.500000=1.000000,
77.000000=7.000000,
78.000000=1.000000,
92.000000=0.000000,
92.500000=1.000000,
93.000000=2.000000,
96.500000=1.000000,
108.000000=0.000000,
108.500000=1.000000,
109.000000=7.000000,
110.000000=1.000000;
#FAKES:;
#LABELS:0.000000=Song Start;
#BGCHANGES:0.000=mopemope.mp4=1.53=1=0=0=StretchNoLoop==CrossFade==,
4=mopemope.mp4=1.000=0=0=1=====,
233=Mopemope-bg.png=1.000=1=0=1=====,
99999.000=-nosongbg-=1.000=0=0=0=StretchNoLoop====,
99999=-nosongbg-=1.000=0=0=0 // don't automatically add -songbackground-
;
#KEYSOUNDS:;
#ATTACKS:
;

//---------------dance-single - tikal.----------------
#NOTEDATA:;
#CHARTNAME:;
#CHARTHASH:4233101312;
#STEPSTYPE:dance-single;
#BANNER:;
#DESCRIPTION:tikal.;
#CHARTSTYLE:;
#DIFFICULTY:Medium;
#METER:12;
#METERF:0.000000;
#RADARVALUES:0.509015,0.862047,0.353591,0.262926,0.598384,393.000000,354.000000,39.000000,29.000000,139.000000,0.000000,0.000000,0.000000,105.000000,0.509015,0.862047,0.353591,0.262926,0.598384,393.000000,354.000000,39.000000,29.000000,139.000000,0.000000,0.000000,0.000000,105.000000;
#CREDIT:;
#NOTES:
0000
0000
0000
0000
,
0000
0000
0000
0000
,
0000
0000
0000
0000
,
0001
0000
0010
0000
0200
0000
0310
0000
0001
1000
0001
0100
0001
0000
0001
1000
,
0010
0000
0010
1000
0100
0000
0010
0000
0002
0000
0013
0000
0200
0000
0300
0000
,
1000
0000
0010
0000
0200
0000
0310
0000
1000
0001
1000
0100
1000
0000
0100
0010
,
0002
0000
1003
0001
1000
0000
0010
0000
2000
0000
3001
0000
0200
0000
0300
0000
,
0001
0000
0001
0100
0010
0000
0010
0000
0100
0000
0100
0001
1000
0000
1000
0000
,
0100
0000
0100
1000
0010
0000
0010
0000
0100
0000
0001
0000
1001
0000
0000
0000
,
1000
0000
1000
0100
0010
0000
0001
0000
0100
0000
0100
0010
1000
0000
1000
0001
,
0010
0000
0010
0100
1000
0000
0001
0000
0100
0000
0010
0000
1001
0000
0000
0000
,
1000
0000
0100
0010
0100
0000
1000
0000
0001
0000
0100
0010
0100
0000
0001
0000
,
1000
0000
0010
0100
0010
0000
1000
0000
0001
0000
0010
0000
1100
0000
0000
0000
,
0001
0000
0100
0010
0100
0000
0001
0000
1000
0000
0100
0010
0100
0000
1000
0000
,
0001
0000
0010
0100
0010
0000
0001
0000
1000
0010
0100
0000
0101
0000
0000
0000
,
0001
0001
0010
0010
0100
0100
1000
1000
,
0010
0000
0010
0000
0001
0000
0001
0000
0010
0000
0010
0000
1000
0001
1000
0000
,
0001
0010
0001
0010
0100
0010
0100
0010
0100
1000
0100
1000
0001
1000
0001
1000
,
0001
0100
0000
0001
0010
0000
0100
0000
1000
0000
0001
0000
1001
0000
0000
0000
,
0000
0200
0300
0000
,
0000
0000
0000
0000
,
0000
0000
0000
0000
,
0000
0000
0000
0000
,
0000
0000
0000
0000
MMMM
0000
MMMM
0000
M2MM
M0MM
M0MM
M0MM
M0MM
M0MM
M0MM
M0MM
M0MM
M0MM
M0MM
M0MM
M0MM
M0MM
M0MM
M0MM
M0MM
M0MM
M0MM
M0MM
M0MM
M0MM
M0MM
M0MM
,
M0MM
M0MM
M0MM
M0MM
M3MM
0000
0000
0000
0000
0000
0000
0000
0000
0000
0000
0000
0000
0000
0000
0000
0000
0000
0000
0000
0000
0000
0000
0000
0000
0000
0000
0000
,
0000
0000
0000
0000
,
0000
0000
0000
0000
,
0000
0200
0300
0000
,
0000
0000
0000
0000
,
0000
0000
0000
0000
,
0000
0000
0000
0000
0000
0000
0000
MMMM
,
0200
0000
0000
0000
,
0000
0000
0000
0000
0000
0000
0000
0000
0000
0000
0000
0000
0000
0000
0000
0000
M000
M000
M000
M000
M0M0
M0M0
M0M0
M0M0
M3MM
M0MM
M0MM
M0MM
MMMM
0000
0000
0000
,
0002
0000
0010
0000
2003
0000
0010
0000
3001
0010
0001
0100
0001
0000
0001
0010
,
0100
0000
0100
1000
0010
0000
0100
0000
0001
0000
0010
0000
2001
0000
3000
0000
,
2000
0000
0010
0000
3002
0000
0010
0000
1003
0010
1000
0100
1000
0000
0100
0010
,
0001
0000
1000
0001
1000
0000
0010
0000
0100
0000
0001
0000
1002
0000
0003
0000
,
2000
0000
0000
0000
0000
0000
0000
0000
3020
0000
0000
0000
0000
0000
0000
0000
0230
0000
0000
00MM
0000
0000
0000
0000
0302
0000
0000
0000
0000
0000
0000
0000
,
MM23
0000
0000
0000
0000
0000
0000
0000
M23M
0000
0000
0000
0000
0000
0000
0000
23MM
0000
0000
0000
0000
0000
0000
0000
0M00
00M0
000M
0M00
00M0
000M
0M00
00M0
,
3M02
0000
0000
0M00
0000
0000
0M00
0000
0203
M000
0000
0000
M000
0000
0000
0000
032M
000M
000M
000M
000M
0000
0000
0000
2M30
0000
000M
0000
000M
0000
0000
0000
,
32M0
0000
0000
0000
000M
0000
0000
0000
000M
0000
0000
0000
000M
0000
0000
0000
M320
0000
0000
0000
000M
0000
0000
0000
000M
0000
0000
0M00
0000
0000
0M00
0000
M032
0000
0000
0000
M000
0000
0000
0000
0M00
0000
0000
0000
0M00
0000
0000
0000
00M0
0000
0000
0000
00M0
0000
0000
0000
00M0
0000
0000
0000
0000
0000
0000
0000
,
1003
0100
1000
0100
0010
0100
0010
0100
0010
0001
0010
0001
1000
0001
1000
0001
,
1000
0010
1000
0010
0100
0010
0100
0010
0100
0001
0100
0001
1000
0100
0010
0000
,
0001
0100
0001
0100
0010
0100
0010
0100
0010
1000
0010
1000
0001
1000
0001
1000
,
0001
0010
0001
0010
0100
0010
0100
0010
0100
1000
0100
1000
0001
0100
0010
0000
,
1M1M
1M1M
11MM
11MM
,
MM11
MM11
M1M1
M1M1
,
1M1M
11MM
MM11
M1M1
,
1M1M
MM11
M1M1
11MM
,
1M1M
0010
M11M
0100
M1M1
0001
MM11
0010
,
M11M
0100
11MM
1000
1MM1
0100
M11M
0000
,
MM11
0010
M11M
0100
11MM
1000
1M1M
0010
,
M11M
0100
M1M1
0001
1MM1
0100
M11M
0000
,
0001
0000
0010
0000
0001
0000
1000
0000
0001
0000
0100
0100
0001
0000
1000
0000
,
0010
0000
0001
0000
0010
0000
0100
0000
0010
0000
1000
1000
0001
0000
0001
0000
,
1000
0000
0010
0000
1000
0000
0001
0000
1000
0000
0100
0100
1000
0000
0001
0100
,
0020
0000
0000
1030
0001
0000
0010
0000
0100
0000
0000
0000
0100
0000
0100
0000
,
0010
0000
0000
0000
0000
0000
0000
0000
0000
0000
0000
M0M0
0000
0000
0001
0000
0100
0000
1000
0000
0010
0000
0000
0000
0000
0000
0000
0000
0000
0000
0000
0000
;

//---------------dance-single - tikal.----------------
#NOTEDATA:;
#CHARTNAME:;
#CHARTHASH:4106223616;
#STEPSTYPE:dance-single;
#BANNER:;
#DESCRIPTION:tikal.;
#CHARTSTYLE:;
#DIFFICULTY:Hard;
#METER:15;
#METERF:0.000000;
#RADARVALUES:0.600975,0.862047,0.435189,0.335458,0.983708,464.000000,416.000000,48.000000,37.000000,220.000000,0.000000,0.000000,0.000000,105.000000,0.600975,0.862047,0.435189,0.335458,0.983708,464.000000,416.000000,48.000000,37.000000,220.000000,0.000000,0.000000,0.000000,105.000000;
#CREDIT:;
#NOTES:
0000
0000
0000
0000
,
0000
0000
0000
0000
,
0000
0000
0000
0000
,
1000
0000
0100
0000
0002
0000
0103
0000
1000
0010
0100
0001
0100
0000
0010
1000
,
0001
0000
0001
1000
0100
0000
0001
0000
0200
0000
1300
0000
2010
0000
3000
0000
,
0001
0000
0100
0000
2000
0000
3100
0000
0001
0010
0100
1000
0100
0000
0100
0010
,
0002
0000
1003
0010
1000
0000
0001
0000
0020
0000
0130
0000
2100
0000
3000
0000
,
0001
0000
0001
0100
0010
0000
0010
0000
1000
0100
1000
0100
0010
0000
0010
0000
,
0001
0000
0001
0010
0100
0000
0100
0000
1000
0000
0010
0000
0102
0000
0003
0000
,
1000
0000
1000
0100
0010
0000
1000
0000
0010
0100
0010
0001
0100
0000
0010
1000
,
0001
0000
0000
0000
0000
0000
0000
0000
0001
0000
0000
0000
1000
0000
0000
0000
0100
0000
0000
0000
0000
0000
0000
0000
0010
0000
0000
0000
0000
0000
0000
0000
0011
0000
0000
0000
0000
0000
0000
0001
1000
0000
0000
0000
0000
0000
0000
0000
1001
0000
0000
0000
0000
0000
0000
0000
0000
0000
0000
0000
0000
0000
0000
0000
,
0101
0000
0100
0010
2000
0000
3100
0000
0010
1000
0010
0001
0010
0000
0010
0001
,
0100
0000
0100
0010
1000
0000
0001
0000
0100
0000
0001
0000
2001
0000
3000
0000
,
1100
0000
0100
0010
0002
0000
0103
0000
0010
0001
0010
1000
0010
0000
0100
0010
,
2000
0000
3100
0001
0100
0000
0010
0000
0001
0000
1000
0000
1002
0000
0003
0000
,
0010
0100
0010
0100
1000
0001
1000
0001
0100
0010
0100
0010
1000
0001
1000
0001
,
0100
0001
0100
0001
1000
0001
1000
0001
1000
0100
1000
0100
0010
0001
0010
0001
,
1000
0010
1000
0010
0001
0010
0001
0010
1000
0100
1000
0100
0001
0100
0001
0100
,
1000
0000
0000
0000
1000
0000
0000
0000
0000
0000
0000
0000
1000
0000
0000
0000
0010
0000
0000
0000
0000
0000
0000
0000
0100
0000
0000
0000
0000
0000
0000
0000
0001
0000
0000
0000
0000
0000
0000
0001
0010
0000
0000
0000
0000
0000
0000
0000
0110
0000
0000
0000
0000
0000
0000
0000
0000
0000
0000
0000
0000
0000
0000
0000
,
0000
0200
0300
0000
,
0000
0000
0000
0000
,
0000
0000
0000
0000
,
0000
0000
0000
0000
,
0000
0000
0000
0000
MMMM
0000
MMMM
0000
M2MM
M0MM
M0MM
M0MM
M0MM
M0MM
M0MM
M0MM
M0MM
M0MM
M0MM
M0MM
M0MM
M0MM
M0MM
M0MM
M0MM
M0MM
M0MM
M0MM
M0MM
M0MM
M0MM
M0MM
,
M0MM
M0MM
M0MM
M0MM
M3MM
0000
0000
0000
0000
0000
0000
0000
0000
0000
0000
0000
0000
0000
0000
0000
0000
0000
0000
0000
0000
0000
0000
0000
0000
0000
0000
0000
,
0000
0000
0000
0000
,
0000
0000
0000
0000
,
0000
0200
0300
0000
,
0000
0000
0000
0000
,
0000
0000
0000
0000
,
0000
0000
0000
0000
0000
0000
0000
MMMM
,
0200
0000
0000
0000
,
0000
0000
0000
0000
0000
0000
0000
0000
0000
0000
0000
0000
0000
0000
0000
0000
M000
M000
M000
M000
M0M0
M0M0
M0M0
M0M0
M3MM
M0MM
M0MM
M0MM
MMMM
0000
0000
0000
,
0001
0000
0101
0001
1000
0000
1100
0000
0100
0001
0100
1000
0100
M000
0100
0001
,
0010
0000
0010
0100
1000
0000
0001
0000
0011
0000
1000
0010
2010
0000
3000
0000
,
1000
00MM
1100
1000
0MM1
0000
0101
0000
0100
1000
0100
0001
0100
000M
0100
1000
,
0010
0000
0100
1000
0100
0000
0001
0000
1010
0000
1000
0001
0012
0000
0003
0000
,
2000
0000
0000
0000
0000
0000
0000
0000
3020
0000
0000
0000
0000
0000
0000
0000
0230
0000
0000
00MM
0000
0000
0000
0000
0302
0000
0000
0000
0000
0000
0000
0000
,
MM23
0000
0000
0000
0000
0000
0000
0000
M23M
0000
0000
0000
0000
0000
0000
0000
23MM
0000
0000
0000
0000
0000
0000
0000
0M00
00M0
000M
0M00
00M0
000M
0M00
00M0
,
3M02
0000
0000
0M00
0000
0000
0M00
0000
0203
M000
0000
0000
M000
0000
0000
0000
032M
000M
000M
000M
000M
0000
0000
0000
2M30
0000
000M
0000
000M
0000
0000
0000
,
32M0
0000
0000
0000
000M
0000
0000
0000
000M
0000
0000
0000
000M
0000
0000
0000
M320
0000
0000
0000
000M
0000
0000
0000
0M00
0000
0000
0M00
0000
0000
0M00
0000
M032
0000
0000
0000
M000
0000
0000
0000
0M00
0000
0000
0000
0M00
0000
0000
0000
00M0
0000
0000
0000
00M0
0000
0000
0000
00M0
0000
0000
0000
0000
0000
0000
0000
,
1003
0010
1000
0100
0001
0100
1000
0010
0001
0010
0100
0001
0010
1000
0010
0100
,
1000
0100
0001
0100
1000
0010
0001
0010
1000
0100
0001
0100
1000
0010
0100
0000
,
0001
0010
0001
1000
0001
0100
0001
1000
0010
0100
0010
0001
0010
0100
0010
1000
,
0100
1000
0100
0010
0100
0001
0100
0010
1000
0010
1000
0001
0100
1000
0010
0000
,
101M
000M
100M
000M
110M
000M
100M
000M
101M
001M
100M
010M
110M
000M
100M
001M
,
011M
000M
010M
001M
101M
000M
100M
000M
110M
000M
010M
000M
012M
000M
003M
0000
,
M011
M000
M001
M000
M101
M000
M001
M000
M011
M010
M001
M100
M101
M000
M001
M100
,
M110
M000
M100
M001
M101
M000
M001
M000
M011
M000
M010
M000
M210
M000
M300
0000
,
11MM
000M
010M
001M
M11M
M000
M010
M001
MM11
M000
M001
M100
M1M1
M000
M100
M010
,
M11M
000M
001M
100M
1M1M
0M00
1M00
0M01
2MM1
0000
010M
0000
0M2M
0M0M
3M3M
0000
,
M1M1
M000
M100
M010
M11M
000M
001M
100M
1M1M
000M
100M
010M
11MM
000M
010M
001M
,
M11M
M000
M010
M001
MM11
0M00
0M01
1M00
1MM2
0000
M100
0000
MM23
0000
M23M
000M
,
1300
0000
0010
0000
1000
0000
0001
0000
1000
0000
0100
0100
1000
0000
0001
0000
,
0010
0000
1000
0000
0010
0000
0100
0000
0010
0000
0001
0001
1000
0000
1000
0000
,
0001
0000
0010
0000
0001
0000
1000
0000
0001
0000
0100
0100
0001
0000
1000
0100
,
0010
0000
0010
0001
1000
0000
0010
0000
0100
0000
0000
0000
0100
0000
0100
0000
,
0010
0000
0000
0000
0000
0000
0000
0000
0000
0000
0000
00MM
0000
0000
1000
0000
0100
0000
0001
0000
0010
0000
0000
0000
0000
0000
0000
0000
0000
0000
0000
0000
;

//---------------dance-single - tikal.----------------
#NOTEDATA:;
#CHARTNAME:;
#CHARTHASH:2186468064;
#STEPSTYPE:dance-single;
#BANNER:;
#DESCRIPTION:tikal.;
#CHARTSTYLE:;
#DIFFICULTY:Challenge;
#METER:17;
#METERF:0.000000;
#RADARVALUES:0.681277,1.202294,0.362657,0.389856,1.201302,526.000000,486.000000,40.000000,43.000000,202.000000,0.000000,12.000000,0.000000,105.000000,0.681277,1.202294,0.362657,0.389856,1.201302,526.000000,486.000000,40.000000,43.000000,202.000000,0.000000,12.000000,0.000000,105.000000;
#CREDIT:;
#NOTES:
// measure 0
0000
0000
0000
0000
,  // measure 1
0000
0000
0000
0000
,  // measure 2
0000
0000
0000
0000
,  // measure 3
1000
0000
0100
0000
0020
0000
1030
0000
1000
0010
0001
0100
0001
0000
1000
0010
,  // measure 4
0100
0000
0100
0010
1000
0000
0100
0000
0002
0000
0103
1000
1020
0000
1030
0000
,  // measure 5
0001
0000
0010
0000
0200
0000
0301
0000
0001
0100
1000
0010
1000
0000
0010
0100
,  // measure 6
0002
0000
0013
1000
0010
0000
0001
0000
0200
0000
0310
1000
2100
0000
0100
0000
,  // measure 7
3001
0000
0001
0010
0100
0000
1000
0000
0100
1000
0010
0100
0001
0000
0010
0001
,  // measure 8
0100
0000
1000
0100
0001
0000
0010
0000
0100
0000
1000
0001
2001
0000
3001
0000
,  // measure 9
1000
0000
1000
0010
0100
0000
1000
0000
0100
0001
0100
0010
1000
0000
0010
1000
,  // measure 10
0100
0000
0000
0000
0000
0000
0000
0000
0001
0000
0000
0000
0100
0000
0000
0000
0010
0000
0000
0000
0000
0000
0000
0000
0001
0000
0000
0000
0000
0000
0000
0000
1001
0000
0000
0000
0000
0000
0000
0100
0010
0000
0000
0000
0000
0000
0000
0000
0110
0000
0000
0000
0000
0000
0000
0000
1000
0000
0000
0000
0001
0000
0000
0000
,  // measure 11
1000
0000
0100
M100
0002
0000
1003
0000
1000
0010
0001
0010
1000
0000
0001
0010
,  // measure 12
0100
0000
0100
0001
1000
0010
0100
0010
0001
0000
0100
0001
0021
0000
0001
0000
,  // measure 13
0031
0000
0100
010M
2000
0000
3001
0000
0001
0010
1000
0010
0001
0000
0010
0001
,  // measure 14
0200
0000
0310
1000
0010
0000
0100
0000
0001
1000
0010
0100
0102
0000
0103
0001
,  // measure 15
1000
0100
1000
0100
0010
0100
0010
0100
0001
0100
0001
0100
0010
0100
0010
0100
,  // measure 16
1000
0010
1000
0010
0100
0010
0100
0010
0001
0010
0001
0010
0100
0010
1000
0001
,  // measure 17
1000
1000
0100
0100
0010
0010
0001
0001
0100
0100
0010
0010
1000
1000
0001
0001
,  // measure 18
0010
0010
0000
0010
0200
0000
2300
0000
3002
0000
0103
0010
0110
0000
0000
0000
,  // measure 19
0000
0200
0300
0000
,  // measure 20
0000
0000
0000
0000
,  // measure 21
0000
0000
0000
0000
,  // measure 22
0000
0000
0000
0000
,  // measure 23
0000
0000
0000
0000
MMMM
0000
MMMM
0000
M2MM
M0MM
M0MM
M0MM
M0MM
M0MM
M0MM
M0MM
M0MM
M0MM
M0MM
M0MM
M0MM
M0MM
M0MM
M0MM
M0MM
M0MM
M0MM
M0MM
M0MM
M0MM
M0MM
M0MM
,  // measure 24
M0MM
M0MM
M0MM
M0MM
M3MM
0000
0000
0000
0000
0000
0000
0000
0000
0000
0000
0000
0000
0000
0000
0000
0000
0000
0000
0000
0000
0000
0000
0000
0000
0000
0000
0000
,  // measure 25
0000
0000
0000
0000
,  // measure 26
0000
0000
0000
0000
,  // measure 27
0000
0200
0300
0000
,  // measure 28
0000
0000
0000
0000
,  // measure 29
0000
0000
0000
0000
,  // measure 30
0000
0000
0000
0000
0000
0000
0000
MMMM
,  // measure 31
0200
0000
0000
0000
,  // measure 32
0000
0000
0000
0000
0000
0000
0000
0000
0000
0000
0000
0000
0000
0000
0000
0000
M000
M000
M000
M000
M0M0
M0M0
M0M0
M0M0
M3MM
M0MM
M0MM
M0MM
MMMM
0000
0000
0000
,  // measure 33
1000
M000
0100
010M
0020
0000
1030
0000
1000
0010
0001
0100
1000
0000
1000
0100
,  // measure 34
0010
0000
0010
0100
0001
0000
0011
0000
1200
0000
0301
0100
0120
0000
0100
0000
,  // measure 35
0031
M00M
0100
M100
M02M
0000
0031
0000
0001
0010
1000
0100
0001
0000
1000
0010
,  // measure 36
0002
0000
0103
0010
0100
0000
0101
0000
1020
0000
0031
0010
0210
0000
0020
0000
,  // measure 37
M330
0000
M000
0000
0000
0000
0000
0000
00M0
0000
00M0
0000
0000
0000
0000
0000
0M00
0000
0M00
4000
0000
3000
0000
0000
000M
0000
000M
0000
0000
0000
0000
0000
,  // measure 38
00M4
0000
00M0
0000
0000
0000
0000
0000
0M03
0040
0M00
0000
0000
0000
0030
0000
M400
0000
M000
0000
M000
0000
M000
0000
M301
0100
M010
0100
M010
0001
M100
0010
,  // measure 39
400M
000M
0000
0000
0M00
0M00
0000
0000
30M4
00M0
0000
0000
M013
M001
2000
0000
,  // measure 40
3M40
0000
0000
0000
0M00
0000
0000
0000
0130
0000
0001
0000
0000
0000
1000
0000
04M0
0000
0000
0000
00M0
0000
0000
0000
0310
0000
0000
0100
0000
0000
1000
0000
001M
0000
0000
0000
010M
0000
0000
0000
001M
0000
0000
0000
100M
0000
0000
0000
040M
0000
0000
0000
000M
0000
0000
0000
030M
0000
0000
0000
000M
0000
0000
0000
,  // measure 41
0010
0000
0001
0000
1000
0010
0100
0010
1000
0000
0100
0000
0010
0001
1000
0001
0100
0010
1000
0000
0100
0000
0001
0100
0010
0000
0001
0000
0100
0000
0001
0000
,  // measure 42
1000
0010
1000
0010
0100
0010
1000
0001
0200
0000
0000
0000
0310
0100
0001
1000
0100
1000
0020
0000
0032
0000
0023
0000
1030
0100
0010
0001
0200
0000
0000
0000
,  // measure 43
0301
0000
0010
0000
1000
0000
0001
M000
0001
0000
0100
0000
1000
0000
0001
M000
0001
0000
0010
0001
0100
0010
1000
0000
0400
0000
0000
0000
0320
0000
0000
0000
,  // measure 44
0034
0000
0000
0000
1003
0000
1000
0000
0001
0100
0001
1000
0400
0000
0000
0000
1300
0001
1000
0001
0100
0001
0100
0100
2000
0000
0010
0000
3002
0000
0013
0000
,  // measure 45
M110
M000
M011
M000
M101
M000
M110
M000
M110
M001
M010
M100
M110
M000
M010
M001
,  // measure 46
M101
M000
M100
M010
M110
M000
M101
M000
M011
M000
M101
M000
M220
M000
M330
MMMM
,  // measure 47
011M
000M
101M
000M
110M
000M
011M
000M
011M
100M
001M
010M
011M
000M
001M
100M
,  // measure 48
110M
000M
010M
001M
011M
000M
110M
000M
101M
000M
110M
000M
022M
000M
033M
MMMM
,  // measure 49
M01M
0010
1000
0001
M1M0
0100
1000
0010
1M0M
1000
0100
0010
MM01
0001
0100
0010
,  // measure 50
M10M
0100
1000
0001
MM10
0010
1000
0100
M21M
0000
M0M1
0000
20MM
00MM
03MM
000M
,  // measure 51
3M1M
0010
0001
1000
01MM
0100
0001
0010
MM01
0001
0100
0010
1M0M
1000
0100
0010
,  // measure 52
M10M
0100
0001
1000
0M1M
0010
0001
0100
M21M
0000
10MM
0000
M3M2
0000
2MM3
00M0
,  // measure 53
3100
0000
1000
0000
0100
0000
0010
0000
0100
0000
0001
0M01
0010
0000
1000
0000
,  // measure 54
0010
0000
0100
0000
0010
0000
0001
0000
0010
0000
010M
M100
010M
0000
010M
0000
,  // measure 55
M100
0000
0001
0000
0100
0000
0010
0000
0100
0000
1000
1M00
0010
0000
0100
0001
,  // measure 56
0010
0000
0010
0100
1000
0000
0001
0000
0100
0000
0000
0000
0100
0000
0100
0000
,  // measure 57
0010
0000
0000
0000
0000
0000
0000
0000
0000
0000
0000
00MM
0000
0000
1000
0100
0010
0100
0001
1000
0100
0010
0000
0000
0000
0000
0000
0000
0000
0000
0000
0000
;

//---------------dance-single - tikal.----------------
#NOTEDATA:;
#CHARTNAME:;
#CHARTHASH:4181721088;
#STEPSTYPE:dance-single;
#BANNER:;
#DESCRIPTION:tikal.;
#CHARTSTYLE:;
#DIFFICULTY:Edit;
#METER:15;
#METERF:0.000000;
#RADARVALUES:0.599680,0.888170,0.453321,0.271993,0.729848,463.000000,381.000000,50.000000,30.000000,113.000000,32.000000,0.000000,0.000000,105.000000,0.599680,0.888170,0.453321,0.271993,0.729848,463.000000,381.000000,50.000000,30.000000,113.000000,32.000000,0.000000,0.000000,105.000000;
#CREDIT:;
#NOTES:
0000
0000
0000
0000
,
0000
0000
0000
0000
,
0000
0000
0000
0000
,
1000
0000
0100
0000
0002
0000
0103
0000
1000
0010
0100
0001
0100
0000
0010
1000
,
0001
0000
0001
1000
0100
0000
0001
0000
0200
0000
1300
0000
2010
0000
3000
0000
,
0001
0000
0100
0000
2000
0000
3100
0000
0001
0010
0100
1000
0100
0000
0100
0010
,
0002
0000
1003
0010
1000
0000
0001
0000
0020
0000
0130
0000
2100
0000
3000
0000
,
0001
0000
0001
0100
0010
0000
0010
0000
1000
0100
1000
0100
0010
0000
0010
0000
,
0001
0000
0001
0010
0100
0000
0100
0000
1000
0000
0010
0000
0102
0000
0003
0000
,
1000
0000
1000
0100
0010
0000
1000
0000
0010
0100
0010
0001
0100
0000
0010
1000
,
0001
0000
0000
0000
0000
0000
0000
0000
0001
0000
0000
0000
1000
0000
0000
0000
0100
0000
0000
0000
0000
0000
0000
0000
0010
0000
0000
0000
0000
0000
0000
0000
0011
0000
0000
0000
0000
0000
0000
0001
1000
0000
0000
0000
0000
0000
0000
0000
1001
0000
0000
0000
0000
0000
0000
0000
0000
0000
0000
0000
0000
0000
0000
0000
,
0101
0000
0100
0010
2000
0000
3100
0000
0010
1000
0010
0001
0010
0000
0010
0001
,
0100
0000
0100
0010
1000
0000
0001
0000
0100
0000
0001
0000
2001
0000
3000
0000
,
1100
0000
0100
0010
0002
0000
0103
0000
0010
0001
0010
1000
0010
0000
0100
0010
,
2000
0000
3100
0001
0100
0000
0010
0000
0001
0000
1000
0000
1002
0000
0003
0000
,
0010
0100
0010
0100
1000
0001
1000
0001
0100
0010
0100
0010
1000
0001
1000
0001
,
0100
0001
0100
0001
1000
0001
1000
0001
1000
0100
1000
0100
0010
0001
0010
0001
,
1000
0010
1000
0010
0001
0010
0001
0010
1000
0100
1000
0100
0001
0100
0001
0100
,
1000
0000
0000
0000
1000
0000
0000
0000
0000
0000
0000
0000
1000
0000
0000
0000
0010
0000
0000
0000
0000
0000
0000
0000
0100
0000
0000
0000
0000
0000
0000
0000
0001
0000
0000
0000
0000
0000
0000
0001
0010
0000
0000
0000
0000
0000
0000
0000
0110
0000
0000
0000
0000
0000
0000
0000
0000
0000
0000
0000
0000
0000
0000
0000
,
0000
0200
0300
0000
,
0000
0000
0000
0000
,
0000
0000
0000
0000
,
0000
0000
0000
0000
,
0000
0000
0000
0000
MMMM
0000
MMMM
0000
M2MM
M0MM
M0MM
M0MM
M0MM
M0MM
M0MM
M0MM
M0MM
M0MM
M0MM
M0MM
M0MM
M0MM
M0MM
M0MM
M0MM
M0MM
M0MM
M0MM
M0MM
M0MM
M0MM
M0MM
,
M0MM
M0MM
M0MM
M0MM
M3MM
0000
0000
0000
0000
0000
0000
0000
0000
0000
0000
0000
0000
0000
0000
0000
0000
0000
0000
0000
0000
0000
0000
0000
0000
0000
0000
0000
,
0000
0000
0000
0000
,
0000
0000
0000
0000
,
0000
0200
0300
0000
,
0000
0000
0000
0000
,
0000
0000
0000
0000
,
0000
0000
0000
0000
0000
0000
0000
MMMM
,
0200
0000
0000
0000
,
0000
0000
0000
0000
0000
0000
0000
0000
0000
0000
0000
0000
0000
0000
0000
0000
M000
M000
M000
M000
M0M0
M0M0
M0M0
M0M0
M3MM
M0MM
M0MM
M0MM
MMMM
0000
0000
0000
,
0001
0000
0101
0001
1000
0000
1100
0000
0100
0001
0100
1000
0100
M000
0100
0001
,
0010
0000
0010
0100
1000
0000
0001
0000
0011
0000
1000
0010
2010
0000
3000
0000
,
1000
00MM
1100
1000
0MM1
0000
0101
0000
0100
1000
0100
0001
0100
000M
0100
1000
,
0010
0000
0100
1000
0100
0000
0001
0000
1010
0000
1000
0001
0012
0000
0003
0000
,
2000
0000
0000
0000
0000
0000
0000
0000
3020
0000
0000
0000
0000
0000
0000
0000
0230
0000
0000
00MM
0000
0000
0000
0000
0302
0000
0000
0000
0000
0000
0000
0000
,
MM23
0000
0000
0000
0000
0000
0000
0000
M23M
0000
0000
0000
0000
0000
0000
0000
23MM
0000
0000
0000
0000
0000
0000
0000
0M00
00M0
000M
0M00
00M0
000M
0M00
00M0
,
3M02
0000
0000
0M00
0000
0000
0M00
0000
0203
M000
0000
0000
M000
0000
0000
0000
032M
000M
000M
000M
000M
0000
0000
0000
2M30
0000
000M
0000
000M
0000
0000
0000
,
32M0
0000
0000
0000
000M
0000
0000
0000
000M
0000
0000
0000
000M
0000
0000
0000
M320
0000
0000
0000
000M
0000
0000
0000
0M00
0000
0000
0M00
0000
0000
0M00
0000
M032
0000
0000
0000
M000
0000
0000
0000
0M00
0000
0000
0000
0M00
0000
0000
0000
00M0
0000
0000
0000
00M0
0000
0000
0000
00M0
0000
0000
0000
0000
0000
0000
0000
,
1003
0010
1000
0100
0001
0100
1000
0010
0001
0010
0100
0001
0010
1000
0010
0100
,
1000
0100
0001
0100
1000
0010
0001
0010
1000
0100
0001
0100
1000
0010
0100
0000
,
0001
0010
0001
1000
0001
0100
0001
1000
0010
0100
0010
0001
0010
0100
0010
1000
,
0100
1000
0100
0010
0100
0001
0100
0010
1000
0010
1000
0001
0100
1000
0010
0000
,
1M11
1M11
11M1
11M1
,
111M
111M
M111
M111
,
1M11
11M1
1M11
11M1
,
111M
M111
111M
M111
,
11M1
1000
111M
0010
1M11
0001
M111
0100
,
11M1
1000
111M
0010
1M11
0001
M111
0000
,
11M1
0001
M111
0010
1M11
1000
111M
0100
,
11M1
0001
M111
0010
1M11
1000
111M
0000
,
1000
0000
0010
0000
1000
0000
0001
0000
1000
0000
0100
0100
1000
0000
0001
0000
,
0010
0000
1000
0000
0010
0000
0100
0000
0010
0000
0001
0001
1000
0000
1000
0000
,
0001
0000
0010
0000
0001
0000
1000
0000
0001
0000
0100
0100
0001
0000
1000
0100
,
0010
0000
0010
0001
1000
0000
0010
0000
0100
0000
0000
0000
0100
0000
0100
0000
,
0010
0000
0000
0000
0000
0000
0000
0000
0000
0000
0000
00MM
0000
0000
1000
0000
0100
0000
0001
0000
0010
0000
0000
0000
0000
0000
0000
0000
0000
0000
0000
0000
;
