#TITLE:Missing Promise;
#SUBTITLE:;
#ARTIST:鈴木このみ;
#TITLETRANSLIT:;
#SUBTITLETRANSLIT:;
#ARTISTTRANSLIT:Konomi Suzuki;
#GENRE:;
#CREDIT:;
#BANNER:Missing Promise.png;
#BACKGROUND:Missing Promise-bg.png;
#LYRICSPATH:;
#CDTITLE:;
#MUSIC:Missing Promise.ogg;
#OFFSET:-0.927000;
#SAMPLESTART:53.159000;
#SAMPLELENGTH:15.000000;
#SELECTABLE:YES;
#BPMS:0.000000=112.000000
;
#STOPS:
;
#BGCHANGES:-1.000=Missing Promise.mp4=1.000=0=0=0=StretchNoLoop====,
99999=-nosongbg-=1.000=0=0=0 // don't automatically add -songbackground-
;
#KEYSOUNDS:;
#ATTACKS:;

//---------------dance-single - ----------------
#NOTES:
     dance-single:
     :
     Hard:
     12:
     0.516821,0.585170,0.233762,0.400735,0.428563,325.000000,304.000000,21.000000,36.000000,0.000000,0.000000,0.516821,0.585170,0.233762,0.400735,0.428563,325.000000,304.000000,21.000000,36.000000,0.000000,0.000000:
0000
0000
0000
0000
,
0000
0000
0000
0000
,
0000
0000
0000
0000
,
0002
0000
0000
0203
0000
0000
2300
0000
,
0000
3200
0000
0000
0320
0000
0000
2030
,
0000
0200
0000
3000
,
0020
0000
0000
0000
0000
0000
0000
0000
0000
0000
0330
0000
0002
0000
0000
0010
,
0000
1003
0010
0100
0001
1000
0200
0000
,
0310
0000
0100
0000
1000
0000
2000
0010
0000
0000
3100
0000
0010
0000
0100
0000
,
0001
0000
0100
0000
1000
0000
0001
0000
0100
0000
0010
0000
2000
0000
0000
0001
,
0000
3001
0010
0000
0100
0000
0001
0000
0100
0020
0000
0001
0000
0130
1000
0000
,
0010
0000
0100
0000
0001
0000
0002
0100
0000
0000
1003
0000
0100
0000
0010
0000
,
0001
0000
0100
0000
0020
0000
0000
0000
0130
0000
0010
0000
1000
0000
2000
0001
,
0000
0000
3100
0000
1000
0000
0010
0000
0002
0000
0000
0013
0000
0000
0100
0000
,
0201
0310
1000
0100
0002
0000
0103
1000
,
1000
0000
0010
0000
0002
0000
0013
0000
1000
0000
0100
0000
1100
0000
0010
0001
,
0010
0000
0001
0000
0100
0000
1000
0000
0100
0000
0010
1000
0010
0000
0100
0000
,
0001
0010
0100
0001
0100
0010
0100
0001
,
0100
0000
1000
0001
1000
0000
0010
0000
0210
0000
0301
0000
0010
0000
0100
1000
,
0001
0000
0100
0000
0010
0000
1000
0000
0100
0000
0010
0001
1000
0000
0010
0000
,
0200
0302
0023
0032
0203
0302
0023
0000
,
0031
0100
0010
1000
0100
0010
0011
0100
,
1000
0001
0100
0010
1010
0100
0001
1000
,
0100
0010
0002
0000
0000
2003
0000
0000
,
3010
0000
0000
0110
0000
0000
1000
0000
0100
0000
0010
0000
1001
0000
0001
1000
,
0000
1000
0010
0000
0100
0000
1000
0000
0200
0000
0000
0301
0000
0001
0010
0000
,
0100
1000
0100
0010
0001
0000
0001
0100
0000
0100
0010
0000
0001
0000
0010
0000
,
1000
0000
0001
0010
0100
1000
0010
0100
0001
0100
0010
1000
0001
0000
0010
0100
,
1000
0000
0100
0000
0010
0001
1000
0000
0010
0000
0000
0101
0000
0001
0010
0000
,
0100
0000
0110
0000
1000
0000
0001
0100
0001
0000
0010
0000
0100
1000
0100
0010
,
0011
0000
0000
0101
0000
0000
1100
0000
0000
1010
0000
0000
1001
0000
1000
0001
,
0000
0001
0010
0000
0100
0000
0001
0000
0200
0000
0000
1300
0000
1000
0010
0000
,
0100
0001
0010
0100
1000
0000
1000
0010
0000
0010
0001
0000
0010
0000
1000
0000
,
0001
0000
1000
0001
0010
0100
1000
0010
0100
0001
1000
0100
0010
0000
0001
0100
,
0001
0000
0010
0000
0100
1000
0001
0000
0100
0000
0000
1010
0000
0100
0001
0000
,
0010
0000
0110
0000
0100
0000
0010
0001
0100
0000
0010
0000
0100
0001
0010
0100
,
1100
0000
0000
0011
0000
0000
0101
0000
0000
1100
0000
0000
1010
0000
0010
0001
,
0000
0010
0100
0000
0001
0010
0000
0100
2000
0000
0000
0001
0000
0000
3010
0000
,
0100
0000
0001
0000
0010
0200
0000
1000
0000
0000
0310
0001
1000
0010
0100
0001
,
0010
0002
0000
1000
0000
0000
0103
0000
0001
0000
0010
0000
0100
2000
0000
0001
,
0000
0000
3010
0100
0010
1000
0100
0001
0000
0000
0000
0000
0000
0000
0000
0000
;

//---------------dance-single - ----------------
#NOTES:
     dance-single:
     :
     Medium:
     10:
     0.351438,0.383203,0.089052,0.256025,0.128012,221.000000,213.000000,8.000000,23.000000,0.000000,0.000000,0.351438,0.383203,0.089052,0.256025,0.128012,221.000000,213.000000,8.000000,23.000000,0.000000,0.000000:
0000
0000
0000
0000
,
0000
0000
0000
0000
,
0000
0000
0000
0000
,
0002
0000
0000
0023
0000
0000
0230
0000
,
0000
2300
0000
0000
3020
0000
0000
0230
,
0000
0302
0000
0000
,
2000
0000
3003
0002
,
0000
0013
0100
1000
0001
0100
0020
0000
,
0030
0000
2000
0000
0000
3010
0100
0001
,
1000
0000
0100
0000
0010
0000
0001
0000
0100
0000
0010
0000
2000
0000
0000
0100
,
0000
0000
3100
0000
0010
0000
0001
0000
0200
0000
0000
0010
0000
0000
0310
0000
,
0100
0001
0020
0000
0000
0130
1000
0001
,
0100
1000
0100
0000
0000
0000
0020
0000
,
0000
1030
0100
0010
0002
0000
0003
1000
,
1001
0000
0001
0100
2000
0000
3000
0100
,
0001
0100
1000
0000
0100
0000
0110
0000
,
1000
0100
0010
0001
0010
0000
0001
0100
,
0010
1000
0001
0000
0001
0010
0000
0010
,
0100
1000
1000
0001
0100
0010
0000
1000
,
1000
0010
0100
0001
0000
0001
0001
0010
,
0100
0010
0100
0010
0100
0010
0200
0000
,
1300
0100
0010
0001
0000
0000
0101
0000
,
0100
0001
0100
0010
1010
0000
0010
1000
,
0100
0010
0002
0000
0000
0000
0000
0000
,
0103
0000
0000
0100
0000
0000
0010
0000
1000
0000
0100
0000
0010
0000
0000
0010
,
0000
0000
0001
0000
1000
0000
0001
0000
0100
0000
0000
0010
0000
0000
0110
0000
,
0000
0000
0010
0000
1000
0000
0000
1000
0000
0000
0001
0000
1000
0000
0100
0000
,
0010
0000
0000
0100
0000
0000
0110
0000
0000
0000
0000
0000
0100
0000
1000
0000
,
1000
0000
0010
0000
0100
0000
0100
0000
0001
0000
0000
0010
0000
0100
0010
0000
,
0001
1000
0001
0100
0100
1000
0100
0100
,
0010
0000
0000
0010
0000
0000
1000
0000
0000
1000
0000
0000
0100
0000
0000
0100
,
0000
0000
1000
0000
0001
0000
1000
0000
0010
0000
0000
0100
0000
0010
0100
0000
,
0000
0000
0100
0000
0001
0000
0000
0001
0000
0000
1000
0000
0001
0000
0010
0000
,
0100
0000
0000
0010
0000
0100
0010
0000
0000
0000
0000
0000
0010
0000
0001
0000
,
0001
0000
0100
0000
0010
0000
0010
0000
1000
0000
0000
0100
0000
0010
0100
0000
,
1000
0001
1000
0010
0010
0001
0010
0010
,
0100
0000
0000
0100
0000
0000
0001
0000
0000
0001
0000
0000
0010
0000
0000
0110
,
0000
0000
1000
0000
0000
1001
0000
0000
0002
0000
0000
0000
0000
0000
0103
0000
,
0010
1000
0200
0000
0000
0310
0001
0100
,
0020
0000
0000
0130
0001
0010
0200
0000
,
0000
1300
0100
0010
0001
0000
0000
0000
;

//---------------dance-single - ----------------
#NOTES:
     dance-single:
     :
     Easy:
     7:
     0.213089,0.315579,0.166973,0.122447,0.033395,134.000000,119.000000,15.000000,11.000000,0.000000,0.000000,0.213089,0.315579,0.166973,0.122447,0.033395,134.000000,119.000000,15.000000,11.000000,0.000000,0.000000:
0000
0000
0000
0000
,
0000
0000
0000
0000
,
0000
0000
0000
0000
,
0000
0000
0000
0000
,
0000
0000
0000
0000
,
0000
0000
0000
0000
,
0000
0000
0000
0002
,
0000
0010
0000
0000
1003
0000
0000
0000
,
0000
0000
2000
0000
0000
0010
0000
0000
,
3001
0000
0000
0100
,
0000
0110
0000
0000
0010
1000
0001
1000
,
0000
0000
0200
0000
0000
0010
0000
0000
,
1300
0000
0000
0001
0000
0000
0200
0000
,
0000
0010
0000
0000
0301
0000
0000
0000
,
0000
1000
0001
1000
,
0001
1000
0001
0100
,
0010
0110
0001
1000
,
1001
1000
0100
1100
,
0010
0001
0011
0100
,
0100
1000
0001
0001
,
0100
0010
0010
0010
,
2000
0000
0000
3001
0000
0000
0010
0100
,
0010
0100
0000
0000
1000
0001
1000
0001
,
0000
0200
0000
0300
,
0002
0000
0000
1003
0100
0010
0001
0000
,
0000
0000
0011
0000
0000
0000
0000
0000
1000
0000
0000
0010
0000
0000
1000
0000
,
0000
0000
0100
0000
0000
1100
0000
0000
,
0010
0000
0000
0001
0000
0000
0010
0000
0000
0000
0000
0000
0001
0000
0100
0000
,
0001
0100
0010
1000
0001
0000
0000
1001
,
0000
0000
1000
0001
0001
0000
0100
0010
,
0110
0000
0000
1001
0000
0000
1000
0000
,
0000
0000
1100
0000
0000
0000
0000
0000
0001
0000
0000
0100
0000
0000
0001
0000
,
0000
0000
0010
0000
0000
0011
0000
0000
,
0100
0000
0000
1000
0000
0000
0100
0000
0000
0000
0000
0000
1000
0000
0010
0000
,
1000
0010
0100
0001
1000
0000
0000
1001
,
0000
0000
0001
1000
1000
0000
0010
0100
,
0110
0000
0000
0000
0000
0000
1001
0000
0000
0000
0000
0000
0001
0000
0000
0001
,
0000
0000
1000
0000
0000
1000
0000
0000
0020
0000
0000
0000
0000
0000
0000
0000
,
0030
2000
0000
3000
,
0200
0000
0300
0020
,
0000
0000
0030
0000
;

//---------------dance-single - ----------------
#NOTES:
     dance-single:
     :
     Beginner:
     2:
     0.109725,0.157789,0.044526,0.089052,0.000000,69.000000,65.000000,4.000000,8.000000,0.000000,0.000000,0.109725,0.157789,0.044526,0.089052,0.000000,69.000000,65.000000,4.000000,8.000000,0.000000,0.000000:
0000
0000
0000
0000
,
0000
0000
0000
0000
,
0000
0000
0000
0000
,
0000
0000
0000
0000
,
0000
0000
0000
0000
,
0000
0000
0000
0000
,
0000
0000
0000
1000
,
0000
0000
1000
0000
,
0000
0001
0000
0000
,
0001
0000
0000
0100
,
0000
0100
0000
0000
0100
0000
0000
0000
,
0000
0020
0000
0000
,
1030
0000
0000
2000
,
0000
0000
3001
0000
,
0000
0010
0010
0000
,
0100
0100
0000
1000
,
0000
0001
0001
0000
,
1000
0000
1000
0000
0000
0001
0000
0000
,
1000
0000
0000
0010
,
0000
0100
0001
0000
,
0001
0000
1000
0000
0000
1000
0000
0000
,
2000
0000
3000
0100
,
0000
0100
0000
0000
0010
0000
0000
0010
,
0000
0002
0000
0000
,
1003
0000
0000
0001
,
0000
0100
0000
0000
0001
0000
0000
0000
,
0000
0000
1000
0000
0000
0010
0000
0000
,
1000
0000
0000
0100
,
0000
0100
0000
0000
0010
0000
0000
0010
,
0000
0000
0001
0000
0000
1000
0000
0000
,
1001
0000
0000
1000
,
0000
0010
0000
0000
1000
0000
0000
0000
,
0000
0000
0001
0000
0000
0100
0000
0000
,
0001
0000
0000
0010
,
0000
0010
0000
0000
0100
0000
0000
0100
,
0000
0000
1000
0000
0000
0001
0000
0000
,
1001
0000
0000
0110
,
0000
0000
2002
0000
,
0000
0000
0000
3003
,
0200
0000
0000
0300
0000
0000
0020
0000
,
0000
0000
0030
0000
;

//---------------dance-double - ----------------
#NOTES:
     dance-double:
     :
     Hard:
     13:
     0.486606,0.585170,0.233762,0.478655,0.367340,306.000000,285.000000,21.000000,43.000000,0.000000,0.000000,0.486606,0.585170,0.233762,0.478655,0.367340,306.000000,285.000000,21.000000,43.000000,0.000000,0.000000:
// measure 0
00000000
00000000
00000000
00000000
,  // measure 1
00000000
00000000
00000000
00000000
,  // measure 2
00000000
00000000
00000000
00000000
,  // measure 3
00000002
00000000
00000000
00000203
00000000
00000000
00002300
00000000
,  // measure 4
00000000
00023000
00000000
00000000
00230000
00000000
00000000
20300000
,  // measure 5
00000000
32000000
00000000
00000000
,  // measure 6
00200000
00000000
00000000
00000000
00000000
00000000
00000000
00000000
00000000
00000000
03300000
00000000
20000000
00000000
00000000
00010000
,  // measure 7
00000000
31000000
00100000
00001000
00010000
00000100
00002000
00000000
,  // measure 8
00003000
00000000
00000010
00000000
00000100
00000000
00000002
00000010
00000000
00000000
00000013
00000000
00001000
00000000
00010000
00000000
,  // measure 9
01000000
00000000
10000000
00000000
00100000
00000000
00010000
00000000
00001000
00000000
00010000
00000000
02000000
00000000
00000000
03100000
,  // measure 10
00000000
00100000
00001000
00000000
00010000
00000000
00000100
00000000
00000010
00001000
00000000
00010000
00000000
00001000
00000010
00000000
,  // measure 11
00000001
00000000
00000100
00000000
00000010
00000000
00000020
00000001
00000000
00000000
00000130
00000000
00000001
00000000
00000010
00000000
,  // measure 12
00001000
00000000
00010000
00000000
02000000
00000000
00000000
00000000
13000000
00000000
00100000
00000000
01000000
00000000
02000000
10000000
,  // measure 13
00000000
03100000
01000000
00001000
00020000
00000000
00000000
00031000
,  // measure 14
00010000
00001000
00000100
00000001
00000020
00000000
00001030
00010000
,  // measure 15
01000000
00000000
10000000
00000000
00200000
00000000
00000000
00000000
00310000
00000000
00001000
00000000
00011000
00000000
00000100
00010000
,  // measure 16
00000100
00000000
00000010
00000000
00000001
00000000
00000100
00000000
00000010
00000000
00010000
00000100
00010000
00000000
00001000
00000000
,  // measure 17
01000000
00100000
10000000
00010000
10000000
01000000
10000000
00010000
,  // measure 18
00100000
00000000
01000000
10000000
01000000
00000000
00100000
00000000
00001000
00000000
00010000
00000000
00000000
00000000
00010000
00001000
,  // measure 19
00010000
00000000
01000000
00000000
00100000
00000000
00001000
00000000
00000000
00000000
00001000
00010000
00001000
00000000
00000100
00000000
,  // measure 20
00000002
00000023
00002030
00003020
00000032
00000023
00002030
00000000
,  // measure 21
00013000
00000000
00100000
00000000
10000000
00000000
00010000
00100000
01000000
00000000
00100000
00000000
01100000
00000000
00100000
00000000
,  // measure 22
00001000
00010000
00000100
00000010
00000110
00000100
00010000
00001000
,  // measure 23
01000000
00100000
20000000
00000000
00000000
32000000
00000000
00000000
,  // measure 24
03100000
00000000
00000000
00101000
00000000
00000000
00200000
00000000
00320000
00000000
00032000
00000000
00003100
00000000
00000010
00000001
,  // measure 25
00000000
00000001
00000100
00000000
00001000
00000000
00010000
00000000
00002000
00000000
00000000
00003010
00000000
00001000
00010000
00000000
,  // measure 26
00001000
00000000
01000000
00000000
00100000
00000000
00100000
10000000
00000000
10000000
01000000
00000000
00010000
00000000
00001000
00000000
,  // measure 27
00020000
00000000
00000000
00130000
00000000
00010000
00002000
00000000
00003020
00000000
00000032
00000000
00000103
00000000
00000010
00000000
,  // measure 28
00001010
00000000
00001000
00000000
00000100
00000000
00010100
00000000
00021000
00000000
00000000
01030000
00000000
00100000
00001000
00000000
,  // measure 29
00010000
00000000
00001000
00000000
00000100
00000000
00001000
00010000
00001000
00000000
00000010
00000000
00001000
00010000
00001000
00010000
,  // measure 30
01000000
00000000
00000000
11000000
00000000
00000000
10100000
00000000
00000000
00110000
00000000
00000000
00100000
00000000
01000000
10000000
,  // measure 31
00000000
10000000
00100000
00000000
00010000
00000000
00001000
00000000
00020000
00000000
00000000
01030000
00000000
00010000
00001000
00000000
,  // measure 32
00010000
00000100
00001000
00000010
00000100
00000000
00000100
00000001
00000000
00000001
00000010
00000000
00001000
00000000
00010000
00000000
,  // measure 33
00002000
00000000
00003100
00001000
00010000
00001000
00100000
00010000
00100000
01000000
10000000
00100000
01000000
00000000
00010000
00000000
,  // measure 34
01010000
00000000
00010000
00000000
00100000
00000000
00101000
00000000
00012000
00000000
00000000
00003010
00000000
00000100
00010000
00000000
,  // measure 35
00001000
00000000
00010000
00000000
00100000
00000000
00010000
00001000
00010000
00000000
01000000
00000000
00010000
00001000
00010000
00001000
,  // measure 36
00000100
00000000
00000000
00000101
00000000
00000000
00000011
00000000
00000000
00001010
00000000
00000000
00011000
00000000
00000000
00110000
,  // measure 37
00000000
00000000
10100000
00000000
00000000
11000000
00000000
00000000
02100000
00000000
00000000
00010000
00000000
00000000
03100000
00000000
,  // measure 38
00001000
00000000
00010000
00000000
00000100
00000010
00000000
00000002
00000000
00000000
00001003
00000010
00000100
00001000
00010000
00001000
,  // measure 39
00010000
00002000
00000000
00100000
00000000
00000000
00013000
00000000
00100000
00000000
10000000
00000000
00010000
00200000
00000000
01000000
,  // measure 40
00000000
00000000
00310000
00100000
00001000
00010000
00000100
00000010
00000000
00000000
00000000
00000000
00000000
00000000
00000000
00000000
;
