#VERSION:0.83;
#TITLE:Millitant;
#SUBTITLE:;
#ARTIST:Will Sparks & Tyron Hapi ft. FERAL is KINKY;
#TITLETRANSLIT:;
#SUBTITLETRANSLIT:;
#ARTISTTRANSLIT:;
#GENRE:;
#ORIGIN:;
#CREDIT:;
#BANNER:Militant.png;
#BACKGROUND:Militant-bg.png;
#PREVIEWVID:;
#JACKET:Militant-jacket.png;
#CDIMAGE:;
#DISCIMAGE:;
#LYRICSPATH:;
#CDTITLE:cdtitle.png;
#MUSIC:Militant.ogg;
#OFFSET:-0.020000;
#SAMPLESTART:67.519997;
#SAMPLELENGTH:15.000000;
#SELECTABLE:YES;
#BPMS:0.000=128.000,
80.000=64.000,
96.000=128.000,
192.000=64.000;
#STOPS:;
#DELAYS:;
#WARPS:;
#TIMESIGNATURES:0.000=4=4;
#TICKCOUNTS:0.000=4;
#COMBOS:0.000=1;
#SPEEDS:0.000=1.000=0.000=0,
120.000=4.000=2.000=0,
124.000=1.000=0.000=0;
#SCROLLS:0.000=1.000,
115.000=0.500,
115.333=1.500,
115.667=1.000,
119.000=0.500,
119.333=1.500,
119.667=1.000,
124.000=0.500,
124.333=2.000,
124.667=0.500,
125.000=2.000,
125.333=0.500,
125.667=2.000,
126.000=0.500,
126.333=2.000,
126.667=1.000,
127.000=0.500,
127.500=2.000,
128.000=1.000,
160.000=0.500,
160.333=1.500,
160.667=1.000,
164.000=0.500,
164.333=1.500,
164.667=1.000;
#FAKES:;
#LABELS:0.000=Song Start;
#BGCHANGES:;
#KEYSOUNDS:;
#ATTACKS:
;

//---------------dance-single - ----------------
#NOTEDATA:;
#CHARTNAME:;
#STEPSTYPE:dance-single;
#DESCRIPTION:;
#CHARTSTYLE:;
#DIFFICULTY:Hard;
#METER:14;
#RADARVALUES:0.612271,0.792099,0.118778,0.178167,0.920528,433.000000,421.000000,12.000000,18.000000,25.000000,0.000000,3.000000,0.000000,0.000000,0.612271,0.792099,0.118778,0.178167,0.920528,433.000000,421.000000,12.000000,18.000000,25.000000,0.000000,3.000000,0.000000,0.000000;
#CREDIT:Pilgrimsito;
#NOTES:
// measure 0
0000
0000
0000
0000
,  // measure 1
0000
0000
0000
0000
,  // measure 2
0000
0000
0000
0000
,  // measure 3
0000
0000
2000
3002
,  // measure 4
1003
0100
0010
0001
0100
0010
0100
0001
,  // measure 5
0010
0100
1000
0010
0100
0010
1000
0100
,  // measure 6
0010
0100
1000
0010
0100
0001
0010
0100
,  // measure 7
0010
0001
0100
0010
1000
0100
2000
0000
,  // measure 8
3001
0100
0010
1000
0100
0010
0100
1000
,  // measure 9
0010
0100
0001
0010
0100
0010
0001
0100
,  // measure 10
0010
0100
0001
0010
0100
1000
0010
0100
,  // measure 11
0004
0000
0000
0003
,  // measure 12
1000
0100
0010
0000
0010
0000
0000
0000
0001
0100
0010
0000
0010
0000
0200
0300
,  // measure 13
0001
1000
0001
0000
0010
0000
1000
0000
0010
0000
0100
0000
1000
0000
0001
0000
,  // measure 14
0100
0000
0010
1000
0100
0000
0100
1000
0010
0000
0001
0000
0010
0000
0100
0000
,  // measure 15
0001
1000
0100
0000
1000
0000
0001
0000
1000
0010
0100
0000
0010
0000
1000
0000
,  // measure 16
0002
0000
0103
0000
0010
1000
0100
0001
0100
1000
0010
0100
0001
0000
0001
0000
,  // measure 17
1010
0000
0100
0000
0100
0000
0001
0010
0001
1000
0001
0100
0001
0000
1000
0000
,  // measure 18
0010
0000
0010
0000
0101
0000
0001
0010
0100
0010
0001
0100
0010
0000
0100
0000
,  // measure 19
0001
1000
0000
0001
1000
0000
0010
0100
0001
0010
1000
0010
0001
0000
1000
0000
,  // measure 20
01M0
0000
1000
0000
0100
0000
1000
0000
0000
0000
0010
0000
0100
0000
0000
0000
0100
0000
0001
0000
0000
0000
0001
0000
1000
0000
0000
0000
1000
0000
0100
0000
0000
0000
0100
0000
2000
0000
0000
3000
0000
0000
0010
0000
0000
0100
0000
0000
,  // measure 21
0001
0000
1000
0000
0001
0000
1000
0000
0000
0010
0000
0000
0100
0000
0000
0001
0000
0000
0001
0000
0000
0100
0000
0000
1000
0000
0000
0100
0000
0000
0001
0000
0000
0010
0000
0000
0200
0000
0000
0000
0000
0000
2300
0000
0000
0000
0000
0000
,  // measure 22
3100
0000
0010
0000
0100
0000
0010
0000
0000
0000
0001
0000
0100
0000
0000
0000
0100
0000
0001
0000
0000
0000
0001
0000
1000
0000
0000
1000
0000
0000
0010
0000
0000
0100
0000
0000
0001
0000
0000
0010
0000
0000
1000
0000
0000
0010
0000
0000
,  // measure 23
0001
0100
0010
1000
0100
1000
0010
0100
0001
1000
0100
0010
0200
0000
2300
0000
,  // measure 24
30M1
0000
0100
0000
0001
0000
0010
0000
0001
0000
0100
0000
0001
0000
0010
0000
0001
0000
0100
0010
0100
0000
0001
0000
,  // measure 25
1000
0100
0010
0100
1000
0010
0100
0010
1000
0100
0010
0010
,  // measure 26
0001
0000
0100
0000
0001
0000
0010
0000
0001
0000
0100
0000
0001
0000
0010
0000
0001
0000
1000
0100
1000
0000
0001
0000
,  // measure 27
0100
0010
1000
0100
0010
0100
1000
0010
0100
0010
1000
1000
,  // measure 28
0001
0010
0010
0001
0010
0010
0001
1000
0010
0100
0000
0100
,  // measure 29
0010
1000
1000
0010
1000
1000
0100
0010
0001
1000
0000
1000
,  // measure 30
004M
0000
0400
M000
0000
0000
000M
0000
0000
M000
0000
0000
000M
0000
0000
M000
0000
0000
000M
0000
0000
M000
0000
0000
000M
0000
0000
M000
0000
0000
000M
0000
0000
M000
0000
0000
000M
0000
0000
M000
0000
0000
000M
0000
0000
M000
0000
0000
,  // measure 31
033M
0000
0110
0000
0110
0000
1001
0000
1001
0000
MMMM
0000
,  // measure 32
1001
0000
0001
0010
0000
0010
0001
0000
0001
0100
0000
0100
,  // measure 33
0010
0000
0010
1000
0000
1000
0001
0000
0000
2000
0000
3001
,  // measure 34
0010
1000
0010
0001
0000
1000
0010
0000
0100
0001
0000
0010
,  // measure 35
0100
0000
0000
0000
1000
0000
0001
0000
0000
0000
0100
0000
0010
0000
0000
0000
0000
0000
2200
0000
0000
3300
0000
0000
,  // measure 36
1000
0010
1000
0001
0000
0001
0100
0000
0100
0001
0000
0001
,  // measure 37
1000
0000
1000
0100
0000
0100
0010
0000
0000
0001
1000
1000
,  // measure 38
0010
0100
0001
0010
0000
0100
0010
0000
0001
0010
0000
0100
,  // measure 39
0010
0001
1000
0010
0100
0001
1000
0100
0010
0100
1000
0001
,  // measure 40
1001
0000
1000
0001
0000
0001
0010
0000
001M
1000
0000
1000
,  // measure 41
1001
0000
0000
0000
1000
0000
0100
0000
0000
0000
M100
0000
0001
0000
0000
0000
0000
0000
2000
0000
0000
3000
0001
0000
,  // measure 42
0100
1000
0100
0001
0000
1000
0100
0000
0010
0001
0000
0100
,  // measure 43
0010
0000
0000
0000
1000
0000
0001
0000
0000
0000
0010
0000
0100
0000
0000
0000
0000
0000
2020
0000
0000
3030
0000
0000
,  // measure 44
1000
0100
1000
0001
0000
0001
0010
0000
0010
0001
0000
0001
,  // measure 45
1000
0000
0000
0000
1000
0000
0010
0000
0000
0000
0010
0000
0100
0000
0000
0000
0000
0000
0001
0000
1000
0100
1000
0100
,  // measure 46
1000
0001
0010
1000
0000
0010
0001
0000
0010
1000
0000
0010
,  // measure 47
0001
1000
0010
1000
0100
1000
0010
0100
0001
0010
0001
0100
,  // measure 48
0202
0000
0303
0000
;

//---------------dance-single - ----------------
#NOTEDATA:;
#CHARTNAME:;
#STEPSTYPE:dance-single;
#DESCRIPTION:;
#CHARTSTYLE:;
#DIFFICULTY:Medium;
#METER:11;
#RADARVALUES:0.459557,0.624078,0.138574,0.247454,0.445417,325.000000,311.000000,14.000000,25.000000,18.000000,0.000000,2.000000,0.000000,0.000000,0.459557,0.624078,0.138574,0.247454,0.445417,325.000000,311.000000,14.000000,25.000000,18.000000,0.000000,2.000000,0.000000,0.000000;
#CREDIT:Pilgrimsito;
#NOTES:
// measure 0
0000
0000
0000
0000
,  // measure 1
0000
0000
0000
0000
,  // measure 2
0000
0000
0000
0000
,  // measure 3
0000
0000
2000
3002
,  // measure 4
1003
0010
1000
0010
0100
0001
0100
0001
,  // measure 5
0010
0001
0010
0001
1000
0100
1000
0100
,  // measure 6
0010
0100
0010
0100
1000
0001
1000
0001
,  // measure 7
0100
0010
1000
0001
0010
0100
2000
0000
,  // measure 8
3001
0010
0001
0010
0100
1000
0100
1000
,  // measure 9
0010
1000
0010
1000
0001
0100
0001
0100
,  // measure 10
0010
0100
0010
0100
0001
0010
0100
1000
,  // measure 11
0004
0000
0000
0003
,  // measure 12
1000
0100
0001
0000
0001
0100
1000
0000
,  // measure 13
0001
0100
0010
0100
0001
0010
0100
0000
,  // measure 14
1000
0010
0001
0010
1000
0100
0010
0000
,  // measure 15
0001
0100
0001
0010
0001
0100
0010
1000
,  // measure 16
0002
0003
0100
0001
0010
0001
0101
0000
,  // measure 17
1001
0000
0100
1000
0010
1000
1100
0000
,  // measure 18
0110
0000
1001
0000
0001
0100
0010
1000
,  // measure 19
0001
0000
0000
0001
0000
0000
0001
0000
1000
0000
0100
0000
0010
0000
0100
0000
,  // measure 20
2000
0001
0010
3001
0200
0010
0001
0310
,  // measure 21
2000
0100
0001
3100
0020
0001
0100
0031
,  // measure 22
1000
0100
0110
0100
1000
0010
1010
1000
,  // measure 23
0001
0000
0000
0010
0000
0000
0110
0000
0000
0100
0000
0000
1000
0001
1000
0001
1000
0001
1000
0001
1000
0001
0000
0000
,  // measure 24
2000
0000
0000
3020
0000
0000
0230
0000
0000
0301
0010
0001
,  // measure 25
0020
0000
0000
0230
0000
0000
2300
0000
0000
3001
0100
0001
,  // measure 26
0200
0000
0000
0320
0000
0000
2030
0000
0000
3100
0010
0100
,  // measure 27
0020
0000
0000
0032
0000
0000
0203
0000
0000
0310
1000
0010
,  // measure 28
1000
0000
1000
0000
1000
0000
1000
0000
1000
0001
0000
0001
,  // measure 29
0010
0000
0010
0000
0010
0000
0010
0000
0010
0100
0000
0100
,  // measure 30
40M0
0M00
00M0
0M00
00M0
0M00
00M0
0M00
00M0
0M00
00M0
0M00
00M0
0M00
00M0
0M00
,  // measure 31
30M0
0000
0001
0000
0001
0000
0001
0000
0001
0000
000M
0000
,  // measure 32
0110
0000
0000
1001
0000
1000
0010
0000
1000
0010
0000
1000
,  // measure 33
0100
0000
1000
0100
0000
1000
0001
0000
0000
0200
0000
0300
,  // measure 34
0001
0010
0001
0010
0000
0001
1000
0000
0001
1000
0000
0100
,  // measure 35
0010
0000
0100
0010
0000
0001
0100
0000
0000
0020
0000
0030
,  // measure 36
1000
0001
1000
0001
0000
1000
0100
0000
1000
0100
0000
0010
,  // measure 37
0001
0000
0010
0001
0000
1000
0001
0000
0000
1000
0100
0010
,  // measure 38
0001
0000
0100
0010
0000
0010
0100
0000
0100
0010
0000
0010
,  // measure 39
0100
1001
1100
0110
,  // measure 40
0011
0000
0000
0001
0000
0001
0100
0000
0100
0010
0000
0010
,  // measure 41
1000
0000
0000
0010
0000
0010
0100
0000
0000
0020
0000
0030
,  // measure 42
1000
0100
1000
0100
0000
1000
0001
0000
1000
0001
0000
0010
,  // measure 43
0100
0000
0010
0100
0000
1000
0010
0000
0000
0200
0000
0300
,  // measure 44
0001
1000
0001
1000
0000
0001
0010
0000
0001
0010
0000
0100
,  // measure 45
1000
0000
0100
1000
0000
0001
1000
0000
0000
0001
0010
0100
,  // measure 46
1000
0000
0010
0100
0000
0100
0010
0000
0010
0100
0000
0100
,  // measure 47
0010
0000
0010
0000
0010
0000
1000
0100
0010
0001
0010
0100
,  // measure 48
2000
0000
3000
0000
;

//---------------dance-single - ----------------
#NOTEDATA:;
#CHARTNAME:;
#STEPSTYPE:dance-single;
#DESCRIPTION:;
#CHARTSTYLE:;
#DIFFICULTY:Easy;
#METER:6;
#RADARVALUES:0.287046,0.403844,0.267250,0.188065,0.009898,203.000000,176.000000,27.000000,19.000000,13.000000,0.000000,0.000000,0.000000,0.000000,0.287046,0.403844,0.267250,0.188065,0.009898,203.000000,176.000000,27.000000,19.000000,13.000000,0.000000,0.000000,0.000000,0.000000;
#CREDIT:Pilgrimsito;
#NOTES:
0000
0000
0000
0000
,
0000
0000
0000
0000
,
0000
0000
0000
0000
,
0000
0000
0000
0000
,
1000
1000
0010
0010
,
0100
0100
0001
0001
,
0010
0010
0100
0100
,
1000
1000
0001
0002
,
1003
1000
0100
0100
,
0010
0010
0001
0001
,
0100
0100
0010
0010
,
2000
0000
0000
3000
,
0000
0001
0000
0100
0000
1000
0000
0200
,
0300
0001
0000
0010
0000
1000
0000
0010
,
0000
0001
0000
0100
0000
0001
0000
0010
,
0000
0001
0000
0100
0000
0010
0000
1000
,
0002
0003
1000
0000
0001
0010
0001
0000
,
0100
0000
0010
0000
1000
0001
1000
0000
,
0100
0000
1000
0000
0010
0100
0010
0000
,
1000
0000
1000
0000
0001
0001
0010
0010
,
0002
0100
2003
0100
,
3002
0010
2003
0010
,
3200
0010
0010
0010
0320
0001
0001
0001
,
0032
0010
0010
0010
0023
0100
0100
0130
,
1000
0100
0001
0100
,
1000
0010
0001
0010
,
1000
0100
0001
0100
,
1000
0010
0001
0010
,
2000
0000
0000
3001
,
0002
0000
0000
0103
,
M200
M000
M000
M000
M000
M000
M000
M000
,
M300
0000
0000
000M
0000
M000
0000
000M
0000
M000
0000
0000
,
1001
0001
1000
0001
,
0011
0011
1010
0002
,
1003
0001
1100
1100
,
0101
0101
1001
0200
,
0310
0100
0110
0110
,
1001
1001
0011
1000
,
0001
0100
1000
0100
,
0001
0001
1000
1000
,
0110
1000
0001
0010
,
0110
0001
1000
0020
,
1030
0001
1010
1010
,
0011
0011
1001
0020
,
0130
0010
0110
0110
,
1001
1001
0101
1000
,
0001
0010
1000
0010
,
0001
0001
1000
1000
,
0110
0000
0000
0000
;
