#VERSION:0.83;
#TITLE:ミュウ (三枝明那 cover);
#SUBTITLE:ZIV SC2022 Restep;
#ARTIST:Rain Drops;
#TITLETRANSLIT:Mew (Saegusa Akina cover);
#SUBTITLETRANSLIT:;
#ARTISTTRANSLIT:;
#GENRE:;
#CREDIT:;
#MUSIC:Mew.ogg;
#BANNER:Mew.png;
#BACKGROUND:Mew-bg.png;
#JACKET:Mew-jacket.png;
#CDTITLE:;
#SAMPLESTART:15.076;
#SAMPLELENGTH:13.333;
#SELECTABLE:YES;
#OFFSET:-0.076;
#BPMS:0.000=288.000;
#STOPS:;
#SCROLLS:0.000=1.000;
#BGCHANGES:;
#FGCHANGES:;

//--------------- dance-single - XO+ ----------------
#NOTEDATA:;
#STEPSTYPE:dance-single;
#DESCRIPTION:XO+;
#DIFFICULTY:Hard;
#METER:14;
#RADARVALUES:0,0,0,0,0;
#NOTES:
0000
0000
0000
0000
,
0000
0000
0000
0000
,
0000
0000
0000
0000
,
0000
0000
0000
0000
,
0000
0000
0000
0000
,
0000
0000
0000
0000
,
0000
0000
0000
0000
,
0000
0000
0000
0000
,
0000
0000
0000
0000
,
0000
0000
0000
0000
,
1000
0000
0100
1000
0000
0001
0100
0000
0000
0001
0000
0010
,
0000
0000
0100
1000
0000
0001
0100
0000
0010
1000
0000
0000
,
0001
0000
0010
0100
0000
1000
0001
0000
0000
0100
0000
1000
,
0000
0000
0100
0000
0000
0001
0000
0000
0010
0000
0000
0001
,
1000
0000
0010
1000
0000
0001
0010
0000
0000
0001
0000
0100
,
0000
0000
0010
1000
0000
0001
0010
0000
0100
1000
0000
0000
,
0001
0000
0100
0010
0000
1000
0001
0000
0000
0010
0000
1000
,
0000
0000
0010
0000
0000
0001
0200
0000
0000
0000
0000
0000
,
0301
0000
0100
0001
0000
1000
0100
0000
0000
1000
0000
0010
,
0000
0000
0100
0001
0000
1000
0100
0000
0010
0000
0000
0000
,
0001
0000
0010
0100
0000
1000
0001
0000
0000
0100
0000
1000
,
0000
0000
0100
0000
0000
0001
0000
0000
0010
0000
0000
0001
,
1000
0000
0010
1000
0000
0001
0010
0000
0000
0001
0000
0100
,
0000
0000
0010
1000
0000
0001
0010
0000
0100
1000
0000
0000
,
0001
0000
0100
0010
0000
1000
0001
0000
0000
0010
0000
1000
,
0000
0000
0010
0000
0000
0001
0010
0000
0000
0001
0000
0100
,
0000
0100
0001
1000
,
0001
0000
0100
0000
0001
0000
1000
0000
0100
0000
1000
0000
,
0010
0001
0010
1000
,
0100
0010
0001
0100
,
0010
0000
0000
1000
0000
0100
0000
0000
0010
0001
0000
0000
,
1000
0000
0000
0001
0000
0100
0000
0000
0010
1000
0000
0000
,
0001
0010
0001
0100
,
0010
0000
0000
MMMM
,
1000
0001
0010
0001
,
1000
0000
0100
0000
1000
0000
0001
0000
0100
0000
0001
0000
,
0010
1000
0010
0001
,
0100
0010
1000
0100
,
0010
0001
1000
0010
,
1000
0001
0100
0010
,
1000
0100
0010
0001
,
0100
0000
0000
0010
0000
0000
1000
0000
0001
0000
0000
0010
,
0001
0100
0001
1000
,
0001
0000
0010
0000
0001
0000
1000
0000
0010
0000
1000
0000
,
0100
0001
1000
0010
,
0001
0100
0001
0100
,
0001
0000
0000
1000
0000
0100
1000
0000
0000
0001
0000
0000
,
1000
0000
0000
0001
0000
0100
0001
0000
0000
1000
0000
0000
,
0100
1000
0010
0100
,
0001
0000
0000
1000
0000
0000
0100
0000
0001
0100
0000
1000
,
0010
1000
0100
1000
,
0001
0000
0010
0000
0001
0000
1000
0000
0010
0000
1000
0000
,
0100
0001
1000
0010
,
0001
0100
0001
0010
,
0100
0000
0000
1000
0000
0010
0000
0000
0000
1000
0000
0000
,
0001
0000
0000
1000
0000
0010
0000
0000
0100
0001
0000
0000
,
0010
0001
0100
0001
,
0010
0000
MMMM
0000
,
1001
0100
1001
0010
,
1001
0000
1000
0100
,
0001
0000
0000
0100
0000
0010
0001
0000
0000
0010
0000
0000
,
0100
1000
0000
0010
,
1001
0100
1001
0010
,
1001
0000
0001
0100
,
1000
0000
0000
0100
0000
0001
1000
0000
0000
0001
0000
0000
,
0010
0001
0100
0010
,
0001
0000
0000
0000
0000
0010
0000
0000
0000
1000
0000
0000
,
0100
0000
0000
0000
0000
1000
0000
0000
0000
0100
0000
0000
,
0001
0000
0000
0000
0000
0100
0000
0000
0000
1000
0000
0000
,
0010
0000
0100
0000
0000
0001
1000
0000
0000
0100
0000
0000
,
0001
0100
0010
0001
,
1000
0000
0010
0100
0000
0000
0001
0000
0010
0100
0000
0000
,
0001
0000
0000
0100
0000
0000
1000
0000
0010
0000
0000
0000
,
0001
0000
0010
0000
,
1000
0000
0000
0001
0000
1000
0010
0000
0000
1000
0000
0001
,
0010
0000
0000
0001
0000
1000
0010
0000
0000
1000
0000
0001
,
0010
0000
0000
0001
0000
1000
0010
0000
0000
1000
0000
0001
,
0010
0001
1000
0100
,
0001
0000
0000
0100
0000
0000
1000
0000
0000
0010
0000
0001
,
0010
1000
0001
0010
,
0001
0000
0000
0100
0000
0000
0001
0000
0000
0100
0000
1000
,
0000
0100
0001
0010
,
0001
0000
0000
1000
0000
0001
0100
0000
0000
0001
0000
1000
,
0100
0000
0000
1000
0000
0001
0100
0000
0000
0001
0000
1000
,
0100
0000
0000
1000
0000
0001
0100
0000
0000
0001
0000
1000
,
0100
1000
0001
0010
,
1000
0000
0000
0010
0000
0000
0001
0000
0000
0100
0000
1000
,
0100
0001
0010
1000
,
0010
0000
0001
0000
0100
0000
0010
0000
1000
0000
0100
0000
,
0010
0000
0001
0000
0100
0000
0010
0000
1000
0000
0100
0000
,
0010
0000
0000
0100
0000
0010
0000
0000
0100
1000
0000
0000
,
0010
0000
0000
0100
0000
0001
0000
0000
1000
0100
0000
0000
,
0001
0000
0000
0100
0000
1000
0001
0000
0000
0100
0000
0000
,
1000
0100
0001
0010
,
0100
0000
0000
0001
0000
0000
0100
0000
0000
0010
0000
0001
,
0000
0000
0000
1000
0000
0000
0100
0000
0000
0010
0000
1000
,
0010
0100
1000
0010
,
1000
0000
0000
0100
0000
0000
0010
0000
0001
0000
0000
0100
,
0001
0000
0000
0100
0000
0001
0010
0000
0000
0100
0000
1000
,
0010
0000
0000
0100
0000
0001
0010
0000
0000
0001
0000
0100
,
0010
0000
0000
1000
0000
0100
0010
0000
0000
0001
0000
0100
,
0010
0000
1000
0100
0000
0010
0001
0000
0000
0100
0000
0000
,
1000
0000
0000
0100
0000
0000
0001
0000
0000
0010
0000
1000
,
0010
0001
1000
0010
,
1000
0100
0010
1000
,
0002
0000
0000
0000
0000
1003
0010
0000
0100
0000
0000
0000
,
1000
0000
0010
0100
0000
0001
0010
0000
0000
0001
0000
0100
,
0000
0000
0010
1000
0000
0001
0010
0000
0100
1000
0000
0000
,
0001
0000
0010
0100
0000
1000
0010
0000
0000
0001
0000
1000
,
0000
0000
0100
0000
0000
0001
0000
0000
0010
0000
0000
0001
,
1000
0000
0100
0010
0000
0001
0100
0000
0000
0001
0000
0010
,
0000
0000
0100
1000
0000
0001
0100
0000
0010
1000
0000
0000
,
0001
0000
0100
0010
0000
1000
0100
0000
0000
0001
0000
1000
,
0000
0000
0010
0000
0000
0001
2000
0000
0000
0000
0000
0000
,
3001
0000
0010
0100
0000
1000
0010
0000
0000
1000
0000
0100
,
0000
0000
0010
0001
0000
1000
0010
0000
0100
0001
0000
0000
,
1000
0000
0010
0100
0000
0001
0010
0000
0000
1000
0000
0001
,
0000
0000
0100
0000
0000
1000
0010
0000
0000
0000
0000
0000
,
1000
0000
0100
0010
0000
0001
0100
0000
0000
0001
0000
0010
,
0000
0000
0100
1000
0000
0001
0100
0000
0010
1000
0000
0000
,
0002
0000
0000
0000
,
0000
0000
0003
0000
;

//--------------- dance-single - XO+ ----------------
#NOTEDATA:;
#STEPSTYPE:dance-single;
#DESCRIPTION:XO+;
#DIFFICULTY:Challenge;
#METER:16;
#RADARVALUES:0,0,0,0,0;
#NOTES:
0000
0000
0000
0000
,
0000
0000
0000
0000
,
0000
0000
0000
0000
,
0000
0000
0000
0000
,
0000
0000
0000
0000
,
0000
0000
0000
0000
,
0000
0000
0000
0000
,
0000
0000
0000
0000
,
0000
0000
0000
0000
,
0000
0000
0000
0000
,
1000
0000
0010
0100
0000
0001
0010
0000
0000
0001
0000
0100
,
0000
0000
0010
1000
0000
0001
0010
0000
0100
1000
0000
0000
,
0001
0000
0010
0100
0000
1000
0010
0000
0000
0001
0000
1000
,
0000
0000
0100
0000
0000
0001
0000
0000
0010
0000
0000
0001
,
1000
0000
0100
0010
0000
0001
0100
0000
0000
0001
0000
0010
,
0000
0000
0100
1000
0000
0001
0100
0000
0010
1000
0000
0000
,
0001
0000
0100
0010
0000
1000
0100
0000
0000
0001
0000
1000
,
0000
0000
0010
0000
0000
0001
2000
0000
0000
0000
0000
0000
,
3001
0000
0010
0100
0000
1000
0010
0000
0000
1000
0000
0100
,
0000
0000
0010
0001
0000
1000
0010
0000
0100
0001
0000
0000
,
1000
0000
0010
0100
0000
0001
0010
0000
0000
1000
0000
0001
,
0000
0000
0100
0000
0000
1000
0000
0000
0010
0000
0000
1000
,
0001
0000
0100
0010
0000
1000
0100
0000
0000
1000
0000
0010
,
0000
0000
0100
0001
0000
1000
0100
0000
0010
0001
0000
0000
,
1000
0000
0100
0010
0000
0001
0100
0000
0000
1000
0000
0001
,
0000
0000
0010
0000
0000
1000
0010
0000
0000
1000
0000
0100
,
0000
1000
0010
1000
,
0001
0000
0100
0000
0001
0000
1000
0000
0100
0000
1000
0000
,
0010
0001
1000
0100
,
0001
0010
0001
0100
,
0010
0000
0000
1000
0000
0100
0000
0000
0010
0001
0000
0000
,
1000
0000
0000
0001
0000
0100
0000
0000
0010
1000
0000
0000
,
0001
0010
0001
0100
,
0010
0000
0000
MMMM
,
1000
0001
0010
0001
,
1000
0000
0100
0000
1000
0000
0001
0000
0100
0000
0001
0000
,
0010
1000
0001
0100
,
1000
0100
0001
0100
,
0010
0001
1000
0010
,
1000
0001
0100
0010
,
1000
0100
0010
0001
,
0100
0000
0000
0010
0000
0000
1000
0000
0001
0000
0000
0010
,
0001
0000
1000
0100
0000
0010
0001
0000
1000
0010
0000
1000
,
0100
0000
0010
0000
0001
0000
1000
0000
0010
0000
0100
0000
,
1000
0000
0100
0001
0000
0010
0001
0000
0100
0001
0000
0010
,
0001
0000
1000
0010
0000
1000
0100
0000
1000
0010
0000
1000
,
0100
0000
0000
0010
0000
0001
0000
0000
0010
0100
0000
0000
,
1000
0000
0000
0001
0000
0100
0000
0000
0010
1000
0000
0000
,
0001
0010
0001
0100
,
0001
0000
0000
0010
0000
0000
1000
0000
0010
0001
0000
0100
,
1000
0000
0100
0010
0000
0100
0001
0000
1000
0100
0000
1000
,
0010
0000
0100
0000
0001
0000
1000
0000
0100
0000
0010
0000
,
1000
0000
0010
0001
0000
0100
0001
0000
0010
0001
0000
0100
,
0001
0000
1000
0100
0000
1000
0010
0000
1000
0100
0000
1000
,
0010
0000
0000
0100
0000
0001
0000
0000
0100
0010
0000
0000
,
1000
0000
0000
0001
0000
0010
0000
0000
0100
1000
0000
0000
,
0010
0000
0000
1000
0000
0001
0010
0000
0100
1000
0000
0001
,
0100
0000
MMMM
0000
,
1001
0100
1001
0010
,
1001
0000
1000
0100
,
0001
0000
0000
0100
0000
0010
0001
0000
0000
0010
0000
0000
,
0100
1000
0000
0010
,
1001
0100
1001
0010
,
1001
0000
0001
0100
,
1000
0000
0000
0100
0000
0001
1000
0000
0000
0001
0000
0000
,
0010
0001
0100
0010
,
0001
0000
0000
0000
0000
0010
0000
0000
0000
1000
0000
0000
,
0100
0000
0000
0000
0000
1000
0000
0000
0000
0100
0000
0000
,
0001
0000
0000
0000
0000
0100
0000
0000
0000
1000
0000
0000
,
0010
0000
0100
0000
0000
0001
1000
0000
0000
0100
0000
0000
,
0001
0100
0010
0001
,
1000
0000
0010
0100
0000
0000
0001
0000
0010
0100
0000
0000
,
0001
0000
0000
0100
0000
0000
1000
0000
0010
0000
0000
0000
,
0001
0000
0010
0000
,
1000
0000
0000
0010
0000
1000
0100
0000
0000
0010
0000
0001
,
0100
0000
0000
0010
0000
1000
0100
0000
0000
1000
0000
0010
,
0100
0000
0000
0001
0000
0010
0100
0000
0000
1000
0000
0010
,
0100
0001
1000
0100
,
0001
0000
0100
1000
0000
0001
0100
0000
0010
0100
0000
0001
,
0010
0000
0100
1000
0000
0001
0100
0000
0010
0001
0000
0000
,
0010
0000
0000
0100
0000
0000
0001
0000
0000
0100
0000
1000
,
0000
0100
0001
0010
,
0001
0000
0000
0010
0000
0001
0100
0000
0000
0010
0000
1000
,
0100
0000
0000
0010
0000
0001
0100
0000
0000
0001
0000
0010
,
0100
0000
0000
1000
0000
0010
0100
0000
0000
0001
0000
0010
,
0100
1000
0001
0100
,
1000
0000
0100
0001
0000
1000
0100
0000
0010
0100
0000
1000
,
0010
0000
0100
0001
0000
1000
0100
0000
0010
1000
0000
0000
,
0010
0000
0001
0000
1000
0000
0100
0000
0001
0000
1000
0000
,
0010
0000
0001
0000
0100
0000
1000
0000
0001
0000
0010
0000
,
1000
0000
0000
0100
0000
0010
0000
0000
0100
1000
0000
0000
,
0010
0000
0000
0100
0000
0001
0000
0000
1000
0100
0000
0000
,
0001
0000
0000
0100
0000
1000
0001
0000
0000
0100
0000
0000
,
1000
0001
0010
1000
,
0010
0000
0000
0001
0000
0000
0010
0000
0000
0100
0000
0001
,
0000
0000
0000
1000
0000
0000
0100
0000
0000
0010
0000
1000
,
0010
0100
1000
0010
,
1000
0000
0000
0100
0000
0000
0010
0000
0001
0000
0000
0100
,
0001
0000
0000
0100
0000
0001
0010
0000
0000
0100
0000
1000
,
0010
0000
0000
0100
0000
0001
0010
0000
0000
0001
0000
0100
,
0010
0000
0000
1000
0000
0100
0010
0000
0000
0001
0000
0100
,
0010
0000
1000
0100
0000
0010
0001
0000
0000
0100
0000
0010
,
0001
0000
0010
1000
0000
0001
0010
0000
0100
0010
0000
0001
,
0100
0000
0010
1000
0000
0001
0010
0000
0001
0100
0000
0010
,
0001
0010
1000
0100
,
0002
0000
0000
0000
0000
1003
0010
0000
0100
0000
0000
0000
,
1000
0000
0001
0100
0000
0001
0010
0000
0000
0001
0000
0100
,
0010
0000
0100
0001
0000
1000
0100
0000
0010
0001
0000
0000
,
1000
0000
0100
0010
0000
0001
0100
0000
0000
1000
0000
0001
,
0010
0000
1000
0100
0000
0001
0100
0000
1000
0010
0000
1000
,
0001
0000
1000
0100
0000
1000
0010
0000
0000
1000
0000
0100
,
0010
0000
0100
1000
0000
0001
0100
0000
0010
1000
0000
0000
,
0001
0000
0100
0010
0000
1000
0100
0000
0000
0001
0000
1000
,
0010
0000
0001
0100
0000
1000
0100
0000
0000
0001
0000
0000
,
1000
0000
0100
0010
0000
0100
0001
0000
0100
1000
0000
0001
,
0100
0000
0010
1000
0000
0100
1000
0000
0001
0100
0000
0010
,
1000
0000
0010
0100
0000
0010
0001
0000
0010
0100
0000
1000
,
0001
0000
0010
1000
0000
0001
0010
0000
0000
0000
0000
0000
,
0001
0000
0100
0010
0000
0100
1000
0000
0100
0001
0000
1000
,
0100
0000
0010
0001
0000
0100
0001
0000
1000
0100
0000
0010
,
0002
0000
0000
0000
,
0000
0000
0003
0000
;
