#VERSION:0.83;
#TITLE:Memory Garden (Synthion Remix);
#SUBTITLE:;
#ARTIST:Skygate & Snowcloak;
#TITLETRANSLIT:;
#SUBTITLETRANSLIT:;
#ARTISTTRANSLIT:;
#GENRE:;
#CREDIT:;
#MUSIC:Memory Garden (Synthion Remix).ogg;
#BANNER:Memory Garden (Synthion Remix)-bn.png;
#BACKGROUND:Memory Garden (Synthion Remix)-bg.png;
#CDTITLE:;
#SAMPLESTART:30.916;
#SAMPLELENGTH:15.000;
#SELECTABLE:YES;
#OFFSET:0.959;
#BPMS:0.000=128.000;
#STOPS:;
#SPEEDS:0.000=1.000=0.000=0;
#SCROLLS:0.000=1.000,
72.000=0.000,
72.500=1.000,
73.000=0.000,
73.500=1.000,
74.000=0.000,
74.500=1.000,
200.000=0.000,
200.375=1.000,
200.750=0.000,
201.125=1.000
;
#LASTSECONDHINT:129.293;
#BGCHANGES:;
#FGCHANGES:;

//--------------- dance-single - XMOD DSFS+ XO+ DS FS SJ ----------------
#NOTEDATA:;
#STEPSTYPE:dance-single;
#DESCRIPTION:XMOD DSFS+ XO+ DS FS SJ;
#DIFFICULTY:Hard;
#METER:13;
#RADARVALUES:0,0,0,0,0;
#CREDIT:Talkion;
#NOTES:
0000
0000
0000
0000
,
1000
0000
0100
0000
,
0010
0000
0000
0000
0001
1000
0100
1000
,
0002
0203
0010
0300
,
0001
0000
1000
0100
,
0010
0000
0001
0000
,
1000
0000
0000
0000
0010
0100
0001
0100
,
0020
2030
0001
3000
,
0100
0000
0100
0010
0000
0010
0001
0000
,
1002
0000
0000
0000
0103
0000
0010
0000
1000
0000
0000
1000
0000
0000
0001
0000
,
0010
0000
0000
0010
0000
0000
0100
0000
0000
0000
1000
0000
0001
0000
1000
0000
,
0020
0000
0130
0100
0001
1000
0001
0010
,
0200
0000
0000
1000
0000
0000
0320
0000
0000
0000
0031
0000
0010
0000
0001
0000
,
2000
0000
0000
0000
3001
0000
0100
0000
0010
0100
0000
0010
0100
0000
0010
0000
,
2000
0000
0000
0000
3001
0000
0010
0000
0100
0010
0000
0100
0010
0000
0100
0000
,
1000
0001
1000
0000
0010
0100
0010
0000
4000
0000
0000
0000
0000
0000
0000
0000
,
3001
0100
1000
0010
,
1002
0000
0103
0010
2001
0000
3100
0010
,
0011
1001
0101
1010
,
2001
0000
0000
0000
3100
0010
0001
0000
0010
M000
0010
0000
0100
0000
0001
0000
,
020M
0000
0000
1000
0000
0000
0320
0000
0000
0000
0031
0000
0010
0000
0001
0000
,
1002
0000
0000
0000
0103
0000
0010
0000
1001
0000
0000
1000
0010
0000
1000
0000
,
M020
0000
0000
0001
0000
0000
0130
0000
0010
000M
0010
0000
1000
0000
0001
0100
,
0020
0000
0000
0000
0130
0000
0010
0001
0000
0001
0010
0000
0100
0000
0001
0000
,
2001
3400
0340
0031
,
2001
0000
0000
0000
3010
0000
0100
0000
1001
0000
0000
0001
0010
0000
0001
0000
,
002M
0000
0000
1000
0000
0000
0130
0000
0010
000M
0010
0000
0001
0000
1000
0000
,
1020
0000
0000
0000
0130
0000
0001
1000
0000
0010
000M
0010
0100
0000
1000
0000
,
M200
0000
0000
0001
0000
0000
0320
0000
0000
0000
1030
0000
0010
0000
1000
0000
,
2001
0000
0000
0000
3100
0000
0010
0000
1001
0000
0000
0001
0010
0000
0001
0000
,
002M
0000
0000
1000
0000
0000
0230
0000
0000
0000
0301
0000
0100
0000
0010
0000
,
2010
0000
3001
0101
0000
1001
0000
0021
,
0000
0000
0000
0130
,
2000
0000
0000
3100
0020
0000
0000
0130
,
2000
0000
0000
3001
0200
0000
0000
0300
,
0002
0000
0000
1003
0100
0010
0100
1000
,
0002
0000
0203
0000
2300
0000
0000
3000
,
0100
0010
1000
0001
1000
0100
0010
0001
,
1000
0001
0100
0010
1000
0010
0100
0001
,
2000
0000
0000
0000
3100
0010
0001
0000
,
0200
0000
0000
0000
0000
0310
0100
0001
,
1002
0000
0000
0000
0013
0000
0100
0000
1000
0000
0000
1000
0000
0000
0001
0000
,
0100
0000
0000
0100
0000
0000
0010
0000
0000
0000
1000
0000
0001
0000
1000
0000
,
0200
0000
0310
0010
0001
1000
0001
0100
,
0020
0000
0000
1000
0000
0000
0230
0000
0000
0000
0301
0000
0100
0000
0001
0000
,
4000
0000
3001
0010
0400
0000
1300
0000
,
0004
0000
1003
0010
0400
0000
0301
1000
,
0001
0010
0001
0000
1000
0010
1000
0000
0001
0010
0001
0000
1000
0001
1000
0000
,
0040
0000
0031
0100
,
2001
0000
3010
0100
1002
0000
0013
0100
,
1100
0000
0000
1001
0000
0000
1010
0000
0010
0000
0100
0010
0000
0010
1000
0000
,
2001
0000
0000
3100
1002
0103
0020
0000
,
0031
0000
1000
0100
0000
0100
0010
0000
1000
0000
0001
0000
0100
0000
0001
0000
,
1002
0000
0013
0100
1001
1000
0010
0100
,
0101
0000
0000
1010
0000
0000
1001
0000
0001
0000
0010
0000
0100
0000
0010
0000
,
0012
0000
1003
0020
0100
0000
0032
0000
,
2003
0000
3100
0010
0100
0001
1002
0000
,
0023
0000
0000
0000
0130
0000
0010
0000
1001
0000
0000
0001
0100
0000
0001
0000
,
020M
0000
0000
0010
0000
0000
1300
0000
0100
00M0
0100
0000
0001
0000
1000
0000
,
1200
0000
0000
0000
0310
0000
0001
1000
0000
0100
000M
0100
0010
0000
1000
0000
,
M020
0000
0000
0100
0000
0000
0032
0000
0000
0000
0013
0000
0100
0000
1000
0000
,
2001
0000
0000
0000
3010
0000
0100
0000
1001
0000
0000
0001
0100
0000
0001
0000
,
020M
0000
0000
0010
0000
0000
2300
0000
0000
0000
3100
0000
0010
0000
0001
0000
,
0012
0000
1003
1100
0000
1001
0000
2040
,
0000
0000
0000
0000
,
0000
0000
0000
0000
0030
3001
0010
0200
,
0000
0000
0000
0000
,
0000
0000
0000
0000
,
0300
0000
0000
0000
;

//--------------- dance-single - XMOD DSFS+ FS SJ BU- Rolls- XO- ----------------
#NOTEDATA:;
#STEPSTYPE:dance-single;
#DESCRIPTION:XMOD DSFS+ FS SJ BU- Rolls- XO-;
#DIFFICULTY:Challenge;
#METER:15;
#RADARVALUES:0,0,0,0,0;
#CREDIT:Talkion;
#NOTES:
0000
0000
0000
0000
,
1000
0001
0010
0100
1000
0001
0010
0100
,
1000
0001
0010
0100
1000
0002
0023
0032
,
2003
3010
0200
0301
1000
0010
0100
0001
,
1000
0001
0010
0100
0001
0100
0010
0100
,
1000
0001
0100
0010
1000
0001
0100
0010
,
1000
0001
0100
0010
1000
0002
0203
0302
,
2003
3100
0020
0031
1000
0100
0010
0001
,
2000
3010
1000
0002
0013
0001
1000
0010
,
0110
0000
0000
1000
0001
0000
0010
0000
0100
0010
0000
0010
0000
0000
0100
0000
,
1000
0000
0000
1000
0000
0000
0001
0000
0100
0010
0000
0010
0000
0000
0100
0000
,
0001
0000
0000
0001
0000
1000
0100
1000
0001
0010
0000
0100
0010
0001
1000
0001
,
0200
0000
0000
0320
0000
0000
0130
0000
0001
1000
0000
1000
0100
0010
0001
0000
,
1000
0000
0000
1000
0010
0100
0001
0000
1000
0100
0000
0100
0010
0001
1000
0000
,
0001
0000
0000
0000
0000
0000
0000
0000
0000
0001
0000
0000
0100
0000
0000
0010
0000
0000
1000
0000
0000
0000
0000
0000
0001
0000
0000
0010
0000
0000
0000
0000
0000
0010
0000
0000
0100
0000
0000
1000
0000
0000
0001
0000
1000
0000
0001
0000
,
0100
00M0
0100
0000
1000
0000
0000
0000
0100
00M0
0100
0000
0001
0000
0000
0000
1004
0000
0000
0000
0000
0000
0000
0000
0000
0000
0000
0000
0000
0000
0000
0000
,
0013
0000
0100
0000
0010
0000
0100
0000
0010
0001
1000
0001
0100
0010
1000
0000
,
2001
0000
0000
0000
3100
0010
0100
0000
1002
0000
0000
0000
0103
0000
0010
0000
,
1010
0000
0000
0000
1001
0000
0000
0000
1100
0000
0000
0000
0100
0010
0100
0000
,
1002
0000
0000
0000
0103
0000
0000
0000
0010
0000
1000
0001
1000
0000
0010
0000
0100
0000
000M
0000
0100
0000
0000
0000
1000
0000
0001
0000
0010
0000
0200
0000
,
1000
0300
M200
0001
0300
010M
2000
0000
0000
0000
3100
0000
0010
0100
1000
0000
,
2001
0000
0000
0000
3010
0100
0010
0000
1001
0000
0000
1000
0100
0000
0020
0000
,
0001
0030
002M
1000
0030
M010
0002
0000
0103
0040
1000
0000
0130
0000
0001
1000
,
0200
0000
0000
0000
0310
0000
0000
0000
0100
0000
1000
0001
1000
0000
0010
0000
0M00
0000
0010
0000
0001
0000
0000
0000
0100
0000
0000
0000
0010
0000
0000
0000
,
2010
0000
0000
0000
3001
0100
0001
1000
0001
0010
0100
1000
1004
0000
0000
0000
,
0023
0000
0000
0000
0130
0010
0100
0000
1001
0000
0000
1000
0010
0000
0200
0000
,
0001
0300
020M
1000
0300
M100
0002
0000
0013
0400
1000
0000
0310
0000
0001
0000
,
0102
0000
0000
0000
1003
0000
0000
0000
0010
0000
1000
0001
1000
0000
0010
0000
000M
0000
0010
0000
0000
0000
0100
0000
0001
0000
0100
0000
0020
0000
0000
0000
,
0001
0030
002M
1000
0030
M010
0002
0000
0000
0000
0013
0000
0100
0010
0001
0000
,
1002
0000
0000
0000
0103
0010
0100
0000
1001
0000
0000
0001
1000
0001
0010
0200
,
1000
0300
M200
0001
0300
010M
2000
0000
0000
0000
3100
0000
0010
0000
0001
0000
,
1002
0100
0103
1010
0000
1001
0000
1200
,
0000
0000
0000
0310
,
0002
0000
0000
0013
0200
0000
0000
0310
,
0002
0000
0000
1003
0020
0000
0000
0030
,
0100
0010
1000
0001
1000
0100
0010
0001
,
1000
0010
0100
0010
0002
0000
0000
0003
,
0010
0100
0001
1000
0100
0010
0001
1000
,
0010
0100
0001
0010
0100
0010
0001
0100
,
0010
1000
0001
0010
0100
1000
0100
0010
,
0002
0000
0000
0000
0003
1000
0001
0100
,
0110
0000
0000
0001
1000
0000
0100
0000
0010
0100
0000
0100
0000
0000
0010
0000
,
0001
0000
0000
0001
0000
0000
1000
0000
0010
0100
0000
0100
0000
0000
0010
0000
,
1000
0000
0000
1000
0000
0001
0010
0001
1000
0100
0000
0010
0100
1000
0001
1000
,
0020
0000
0000
0230
0000
0000
0310
0000
1000
0001
0000
0001
0010
0100
1000
0000
,
0001
0100
0001
1000
0001
0010
0100
1000
0001
1000
0010
0100
0002
0000
0003
0000
,
1000
0000
0000
0100
0000
0000
1000
0000
0000
0001
0000
0000
1000
0000
0000
0010
0000
0000
0100
0000
0000
0001
0000
0000
1000
0000
0000
0001
0000
0000
0010
0000
0000
0100
0000
0000
1000
0000
0000
0000
0000
0000
0001
0000
1000
0000
0001
0000
,
0100
00M0
0100
0000
1000
0000
0000
0000
0100
00M0
0100
0000
0001
0000
0000
0000
0010
0M00
0010
0000
1000
0000
0000
0000
0010
0M00
0010
0000
0001
0000
0000
0000
,
1004
0000
0000
0000
0000
0000
0000
0000
0013
0000
0100
0000
1000
0100
1000
0001
,
1002
0000
0000
0000
0103
0010
0100
0000
2001
0000
0000
0000
3100
0000
0010
0000
,
0011
0000
0000
1001
0000
0000
0101
0000
0100
0010
1000
0001
1000
0100
0010
0001
,
0200
0000
0000
0000
0000
0000
0310
0000
2001
0000
3100
0000
0010
0100
0010
0100
,
0001
0000
1000
0010
0100
1000
0001
1000
0020
0000
0230
0000
0302
0000
0203
0000
,
0320
0000
0000
0000
1030
0001
1000
0000
2100
0000
3001
0000
0010
0000
0001
0000
,
1001
0000
0000
0101
0000
0000
1010
0000
1001
0001
0010
0000
0001
1000
0010
0100
,
2000
0000
0000
0000
3100
0000
0001
0000
1001
1000
0100
0000
0002
0000
0000
0000
,
2003
0000
0000
0000
3010
0001
1000
0001
0100
0010
0100
0001
4001
0000
0000
0000
,
3200
0000
0000
0000
0310
0100
0010
0000
1001
0000
0000
0001
0100
0000
0020
0000
,
1000
0030
M020
0100
0030
0M10
2000
0000
3001
0400
0010
0000
0301
1000
0001
0000
,
0011
0000
0000
0000
0010
0000
0100
0000
0010
0000
0001
1000
0001
0000
0100
0000
M000
0000
0100
0000
0000
0000
0010
0000
1000
0000
0010
0000
0200
0000
0000
0000
,
1000
0300
M200
0010
0300
01M0
2000
0000
0000
0000
3100
0000
0010
0100
1000
0000
,
2001
0000
0000
0000
3010
0100
0010
0000
1001
0000
0000
1000
0001
1000
0100
0020
,
0001
0030
002M
0100
0030
0M10
0002
0000
0000
0000
0013
0000
0100
0000
1000
0000
,
2001
0010
3010
0101
0000
1001
0000
0042
,
0000
0000
0000
0000
,
0000
0000
0000
0000
0030
1003
0010
0200
,
0000
0000
0000
0000
,
0000
0000
0000
0000
,
0300
0000
0000
0000
;
