#VERSION:0.83;
#TITLE:Melonaid;
#SUBTITLE:;
#ARTIST:KATOMORI;
#TITLETRANSLIT:;
#SUBTITLETRANSLIT:;
#ARTISTTRANSLIT:;
#GENRE:;
#ORIGIN:;
#CREDIT:;
#BANNER:Melonaid.png;
#BACKGROUND:Melonaid-bg.png;
#PREVIEWVID:;
#JACKET:Melonaid-jacket.png;
#CDIMAGE:;
#DISCIMAGE:;
#LYRICSPATH:;
#CDTITLE:;
#MUSIC:Melonaid.ogg;
#OFFSET:-0.406244;
#SAMPLESTART:93.048546;
#SAMPLELENGTH:11.180001;
#SELECTABLE:YES;
#BPMS:0.000=145.000;
#STOPS:;
#DELAYS:;
#WARPS:;
#TIMESIGNATURES:0.000=4=4;
#TICKCOUNTS:0.000=4;
#COMBOS:0.000=1;
#SPEEDS:0.000=1.000=0.000=0;
#SCROLLS:0.000=1.000;
#FAKES:;
#LABELS:0.000=Song Start;
#BGCHANGES:0.000=Melonaid.avi=1.000=0=0=0=StretchNoLoop====,
99999=-nosongbg-=1.000=0=0=0 // don't automatically add -songbackground-
;
#KEYSOUNDS:;
#ATTACKS:
;

//---------------dance-single - ----------------
#NOTEDATA:;
#CHARTNAME:;
#STEPSTYPE:dance-single;
#DESCRIPTION:;
#CHARTSTYLE:;
#DIFFICULTY:Hard;
#METER:12;
#RADARVALUES:0.585628,0.586792,0.325996,0.578642,0.281171,503.000000,463.000000,40.000000,71.000000,0.000000,0.000000,0.000000,0.000000,0.000000,0.585628,0.586792,0.325996,0.578642,0.281171,503.000000,463.000000,40.000000,71.000000,0.000000,0.000000,0.000000,0.000000,0.000000;
#CREDIT:Ben Speirs;
#NOTES:
0000
0000
0000
0000
,
0000
0000
0000
0000
,
1001
1001
1001
1001
,
0001
0000
0100
0000
0010
0000
1000
0000
0100
0000
0010
0000
0001
1000
0001
0000
,
1000
0000
0000
0000
0000
1100
0000
0001
,
0001
0000
0000
0000
0000
0101
0000
0000
,
0110
0000
0000
0000
0000
1010
0000
0000
,
1001
0000
0000
0000
0000
0000
0000
1000
0000
0000
0100
0000
0010
0000
0001
0000
,
2000
0000
3010
0000
1000
0100
0000
0100
,
0020
0000
0031
0000
1000
0010
0000
0010
,
0200
0000
0301
1000
0010
0100
0001
0000
,
0101
0000
0000
0000
1100
0000
0000
0000
0110
0000
0000
0000
0001
1000
0001
0000
,
1000
0000
0100
0000
1000
0000
0100
0000
0010
0000
0000
0010
0000
0000
0001
0000
,
1000
0000
0010
0000
1000
0000
0010
0000
0100
0000
0000
0001
0000
0000
1000
0000
,
0001
0000
0010
0000
0001
0000
0010
0000
0100
0000
0000
0100
0000
0000
1000
0000
,
0001
0000
0100
0000
0001
0000
0100
0000
0010
0000
1000
0001
0000
0000
1000
0000
,
0100
0000
0100
0000
0010
0000
0001
0000
1000
0000
0010
0100
0000
0000
0001
0000
,
0100
0000
0100
0000
0010
0000
1000
0000
0001
0000
1000
0100
0000
0000
0010
0000
,
0001
0000
0001
0000
1000
0010
1000
0000
0001
0000
0010
0000
1000
0000
0010
0000
,
0011
0000
1103
0000
1001
0000
3001
0100
,
0020
0000
1030
0100
0020
0000
0031
1000
,
0002
0000
0100
0000
1000
0000
0013
0100
,
2000
0000
0000
0000
3000
0000
0001
0000
0100
0000
0001
0000
1000
0000
0000
0001
,
0200
0000
0310
1000
0100
0010
0001
0000
,
1000
0100
0001
0100
2000
0000
3010
0000
,
1000
0010
0100
0001
1000
0001
0010
0100
,
0020
0000
0030
0001
1000
0001
0010
0100
,
2000
0000
0000
0000
0002
0000
3003
3000
,
0102
0000
0003
0000
1002
0000
0003
0010
0002
0000
0103
0000
0002
0000
1003
0000
,
2010
0000
3000
0000
2001
0000
3000
0010
2000
0000
3100
0000
2000
0000
3001
0000
,
0201
0000
0300
0000
0210
0000
0300
1000
0200
0000
0301
0000
0200
0000
0310
0000
,
1000
0100
0001
1000
0010
0001
1000
1000
,
0001
0100
0101
0000
1000
0100
1100
0000
,
0001
0010
0011
0000
1000
0010
1010
0000
,
0001
0000
0100
0000
0010
0000
1000
0000
0100
0000
0010
0000
0001
1000
0001
0000
,
2000
3002
0103
2001
,
3020
0000
0000
0000
0130
0000
0001
0000
1000
0100
0000
0100
0000
0000
1000
0000
,
0001
0000
0100
0000
0010
1000
0000
0001
0000
1000
0000
1000
0100
0000
0010
0000
,
0001
0000
0000
0000
1000
0000
0001
0100
0001
0000
2000
0000
3010
0000
0200
0000
,
0301
0010
1000
0010
0001
1000
0010
0010
,
0100
0000
0002
0000
0000
0000
1003
0000
0001
0010
0000
0010
0100
0000
1000
0001
,
0000
0000
1000
0000
0010
0000
0000
0100
0000
0100
0000
0000
0001
0000
1000
0000
,
0001
0100
0120
0000
1030
0001
0010
0100
,
2200
3300
2020
3030
0202
0303
0022
0033
,
2000
0000
0000
0001
3001
0000
0000
0001
,
0100
0000
0010
0000
1000
0001
0000
0010
0000
0010
0000
0100
1000
0000
0001
0000
,
0100
0000
0010
0000
1000
0000
0001
0100
0001
0000
1000
0000
0100
0000
0010
0000
,
0002
0000
1003
0000
0002
0000
1003
3000
0020
0000
0130
0000
0020
0000
0130
0000
,
0001
0000
0010
0000
0100
0000
1000
0000
0010
0100
0000
0100
3001
0000
1000
0001
,
2000
0000
0000
3100
0000
0000
0010
0000
0012
0000
0000
0000
2003
0000
0000
0000
,
3010
0000
0100
0000
1000
0000
0100
0000
0001
0000
1000
0001
1000
0001
0000
0000
,
2000
3200
0302
0023
,
1030
0000
0001
0010
0200
0000
1300
0010
,
0200
0000
0300
0001
2000
0000
3010
0000
,
1002
0000
0103
0010
0100
1000
0100
0001
,
2000
0000
0000
0000
0000
0000
0000
0000
3100
0000
0010
0000
0001
1000
0001
0000
,
1000
0000
0000
0000
0000
0000
0000
0000
0010
0100
0000
0000
1001
0000
0000
0000
,
0201
0000
0000
0000
0310
0000
1000
0000
0001
0010
0000
0010
0000
0000
0001
0100
,
0002
0000
0000
0000
1003
0000
0010
0000
1000
0100
0000
0100
0000
0000
1000
0001
,
2000
0000
0000
0000
3001
0000
0100
0000
0010
0000
1000
0100
0000
0010
0001
0000
,
0200
0000
0000
0000
0301
1000
0001
0000
1000
0010
0000
0010
0000
0000
0100
0000
,
0002
0000
0000
0000
1003
0100
1000
0000
0001
0010
0000
0010
0000
0000
0100
0000
,
2000
0000
0000
0000
3001
0100
0001
0000
1000
0000
0010
0000
0001
0000
0010
0000
,
2010
0000
0000
0000
3002
0000
0000
0000
0013
0000
0100
0000
1000
0001
1000
0000
,
0010
0010
2001
0000
3001
0100
0010
1000
,
0100
0000
0010
0000
0100
0000
1000
0001
1000
0000
0010
0000
0100
0000
0001
0000
,
1000
0100
0001
0100
1000
0010
0001
0010
,
1000
0000
0001
0000
0100
0010
0000
0100
0000
0001
0010
0000
0100
0000
1000
0000
,
0010
0000
0010
0100
0000
0100
0001
0000
2300
0000
0000
0000
3001
0000
0000
0000
,
0101
0000
0000
1000
0000
0100
0000
0010
0000
0010
0001
0000
1000
0000
0010
0000
,
0110
0000
0000
0100
0000
0000
0001
0000
0001
0000
1000
0100
1000
0000
0001
0000
,
0200
0320
0130
2002
,
3003
0000
0000
0000
;

//---------------dance-double - ----------------
#NOTEDATA:;
#CHARTNAME:;
#STEPSTYPE:dance-double;
#DESCRIPTION:;
#CHARTSTYLE:;
#DIFFICULTY:Hard;
#METER:12;
#RADARVALUES:0.579807,0.616132,0.301546,0.692741,0.277096,498.000000,461.000000,37.000000,85.000000,0.000000,0.000000,0.000000,0.000000,0.000000,0.579807,0.616132,0.301546,0.692741,0.277096,498.000000,461.000000,37.000000,85.000000,0.000000,0.000000,0.000000,0.000000,0.000000;
#CREDIT:Ben Speirs;
#NOTES:
// measure 0
00000000
00000000
00000000
00000000
,  // measure 1
00000000
00000000
00000000
00000000
,  // measure 2
00011000
00011000
00011000
00011000
,  // measure 3
00001000
00000000
00010000
00000000
00100000
00000000
10000000
00000000
01000000
00000000
00100000
00000000
00010000
10000000
00010000
00000000
,  // measure 4
10000000
00000000
00000000
00000000
00000000
11000000
00000000
00010000
,  // measure 5
00010000
00000000
00000000
00000000
00000000
01001000
00000000
00000000
,  // measure 6
00011000
00000000
00000000
00000000
00000000
00010100
00000000
00000000
,  // measure 7
00001100
00000000
00000000
00000000
00000000
00000000
00000000
00000001
00000000
00000000
00000001
00000000
00001000
00000000
00000010
00000000
,  // measure 8
00000210
00000000
00000301
00000000
00001000
00000100
00000000
00000100
,  // measure 9
00020000
00000000
00031000
00000000
00100000
00010000
00000000
00010000
,  // measure 10
20000000
00000000
30100000
01000000
00010000
10000000
00010000
00000000
,  // measure 11
20000000
00000000
00000000
00000000
32000000
00000000
00000000
00000000
03010000
00000000
00000000
00000000
00001000
00010000
00001000
00000000
,  // measure 12
00100000
00000000
00100000
00000000
00001000
00000000
00010000
00000000
00000100
00000000
00000000
00000100
00000000
00000000
00000010
00000000
,  // measure 13
00000001
00000000
00000001
00000000
00000100
00000000
00000010
00000000
00001000
00000000
00000000
00001000
00000000
00000000
00000100
00000000
,  // measure 14
00010000
00000000
00010000
00000000
00001000
00000000
00100000
00000000
00010000
00000000
00000000
00010000
00000000
00000000
10000000
00000000
,  // measure 15
00100000
00000000
01000000
00000000
00010000
00000000
10000000
00000000
00010000
00000000
00100000
00001000
00000000
00001000
00010000
00000000
,  // measure 16
00000100
00000000
00000010
00000000
00000100
00001000
00000100
00000000
00002000
00000000
00000000
00003020
00000000
00000000
00000130
00000000
,  // measure 17
00000001
00000000
00001000
00000000
00000100
00010000
00000100
00000000
00020000
00000000
00000000
00032000
00000000
00000000
00103000
00000000
,  // measure 18
00010000
00000000
10000000
00000000
00100000
01000000
00100000
00000000
10000000
00000000
00000000
00010000
00000000
00000000
00100000
00000000
,  // measure 19
00110000
00000000
00000000
00000000
00101000
00000000
00000000
00000000
00011000
00033000
00000000
00000000
00010000
00000000
00000100
00000000
,  // measure 20
00000020
00000000
00000031
00001000
00000020
00000000
00000130
00000001
,  // measure 21
00002000
00000000
00000100
00000000
00000010
00000000
00003001
00000100
,  // measure 22
00002000
00000000
00000000
00000000
00003000
00000000
00010000
00000000
00001000
00000000
00100000
00000000
00001000
00000000
00000000
01000000
,  // measure 23
00020000
00000000
10030000
00100000
01000000
00010000
10000000
00000000
,  // measure 24
00010000
00100000
10000000
00100000
00002000
00000000
00023000
00000000
,  // measure 25
00030010
00000100
00000001
00000100
00000010
00001000
00000100
00010000
,  // measure 26
00002000
00000000
00003000
00100000
00100000
01000000
10000000
00010000
,  // measure 27
00200000
00000000
00002000
30333000
,  // measure 28
00021000
00000000
00030000
00000000
00021000
00000000
00030000
00001000
00020000
00000000
00130000
00000000
00020000
00000000
00031000
00000000
,  // measure 29
00012000
00000000
00003000
00000000
00012000
00000000
00003000
00010000
00002000
00000000
00003100
00000000
00002000
00000000
00013000
00000000
,  // measure 30
00020100
00000000
00030000
00000000
00021000
00000000
00033000
00000010
00020000
00000000
00030100
00000000
00020000
00000000
00031000
00000000
,  // measure 31
00102000
00000000
00003000
00000000
00012000
00000000
00033000
01000000
00002000
00000000
00103000
00000000
00002000
00000000
00013000
00000000
,  // measure 32
00100000
00100000
10000000
00010000
10000000
01000000
00100000
00001000
,  // measure 33
00010000
00010000
00100000
00010000
00001000
00000100
00000001
00001000
,  // measure 34
00000100
00000010
00000100
00000000
00001000
00000000
00000010
00000000
00001000
00000001
00001000
00000000
00000100
00000000
00010000
00000000
,  // measure 35
00002000
00100000
01003000
00021000
,  // measure 36
00030100
00000000
00000000
00000000
00010000
00000000
00001000
00000000
00100000
00010000
00000000
00010000
00000000
00000000
10000000
00000000
,  // measure 37
00100000
00000000
01000000
00000000
00010000
10000000
00000000
01000000
00000000
01000000
00000000
00100000
00001000
00000000
00010000
00000000
,  // measure 38
00000200
00003000
00000000
00000000
00001300
00000000
00000001
00000100
00000001
00000000
00002000
00000000
00003310
00000000
00020000
00000000
,  // measure 39
00031000
01000000
00100000
01000000
20000000
32000000
03020000
00230000
,  // measure 40
00301000
00000000
00011000
00000000
30000000
00000000
00010000
00000000
00000100
00000010
00000000
00000010
00000001
00000000
00001000
00000001
,  // measure 41
00001000
00000000
00000001
00000000
00000100
00000000
00000000
00000010
00000000
00000010
00000000
00000000
00001000
00000000
00000100
00010000
,  // measure 42
00000100
00010000
00002000
00000000
00103000
00010000
01000000
00100000
,  // measure 43
20000000
30000000
00020000
00030000
00002000
00003000
00000002
00000003
,  // measure 44
00000201
00000000
00000000
00000010
00000310
00000000
00000000
00001000
,  // measure 45
00000001
00000000
00001000
00000000
00000100
00010000
00000000
00001000
00000000
00001000
00000000
00100000
00010000
00000000
10000000
00000000
,  // measure 46
00100000
00000000
01000000
00000000
00010000
00000000
10000000
00100000
10000000
00000000
00010000
00000000
00100000
00000000
00001000
00000000
,  // measure 47
00020000
00000000
00030100
00000000
00020000
00000000
00030100
00000300
00002000
00000000
00003010
00000000
00002000
00000000
00003010
00000000
,  // measure 48
00000100
00000000
00000001
00000000
00001000
00000000
00000100
00000000
00010000
00001000
00000000
00010000
00001000
00000000
00100000
00000000
,  // measure 49
00020000
00000000
00000000
02030000
00000000
00000000
03100000
00000000
20100000
00000000
00000000
00000000
30020000
00000000
00000000
00000000
,  // measure 50
10030000
01000000
00010000
00001000
00000010
00000001
00001000
00000000
,  // measure 51
00000201
00000010
00001000
00000310
,  // measure 52
00001002
00000000
00000103
00000010
00002000
00000000
00003100
00010000
,  // measure 53
00002000
00000000
00000000
00103000
02000000
00000000
13000000
00000000
,  // measure 54
10020000
00000000
10030000
00100000
00010000
00001000
00000100
00000001
,  // measure 55
00002000
00000000
00000000
00000000
00003000
00000000
00000000
00000000
00000100
00000000
00010000
00000000
00001000
00010000
00001000
00000000
,  // measure 56
00020000
00100000
01000000
00031000
,  // measure 57
00010200
00000000
00000000
00000000
00001300
00000000
00000010
00000000
00000100
00000001
00000000
00000001
00001000
00000000
00000100
00010000
,  // measure 58
00000200
00000000
00000000
00000000
00010300
00000000
00001000
00000000
00100000
00010000
00000000
00010000
01000000
00000000
00100000
10000000
,  // measure 59
00200000
00000000
00000000
00000000
10330000
00000000
01000000
00000000
00100000
00000000
00001000
00010000
00000000
00001000
00010000
00000000
,  // measure 60
00000200
00000000
00001300
00000000
00000001
00000100
00000001
00000100
00000020
00000000
00000000
00002030
00000000
00000000
00003100
00000000
,  // measure 61
00020000
00000000
00031000
00000000
00100000
00010000
00100000
00000000
00020000
00000000
00000000
02030000
00000000
00000000
03100000
00000000
,  // measure 62
20000000
00000000
31000000
00000000
00100000
00010000
00100000
00000000
00002000
00000000
00000000
00023000
00000000
00000000
00030100
00000000
,  // measure 63
00002000
00000010
00000130
00003001
,  // measure 64
00000100
00000100
00001002
00000000
00000103
00000010
00001000
00000100
,  // measure 65
00010000
00000000
00001000
00000000
00100000
00000000
00001000
00010000
00001000
00000000
01000000
00000000
00100000
00000000
10000000
00000000
,  // measure 66
00010000
00100000
10000000
00100000
00010000
01000000
10000000
01000000
,  // measure 67
00010000
00100000
00001000
00010000
00000010
00000100
00000101
00000000
,  // measure 68
00001000
00000000
00000100
00010000
00000000
00010000
00001000
00000000
00200000
00000000
00000000
00000000
00310000
00000000
00000000
00000000
,  // measure 69
10000000
00000000
00100000
01000000
00000000
01000000
00000000
00010000
00000000
10000000
01000000
00000000
00100000
00000000
00001000
00000000
,  // measure 70
00021000
00030100
00002100
00003010
,  // measure 71
00000101
00001010
01010000
20200000
,  // measure 72
30300000
00000000
00000000
00000000
;

//---------------dance-single - ----------------
#NOTEDATA:;
#CHARTNAME:;
#STEPSTYPE:dance-single;
#DESCRIPTION:;
#CHARTSTYLE:;
#DIFFICULTY:Medium;
#METER:8;
#RADARVALUES:0.373731,0.440094,0.228197,0.578642,0.000000,321.000000,293.000000,28.000000,71.000000,0.000000,0.000000,0.000000,0.000000,0.000000,0.373731,0.440094,0.228197,0.578642,0.000000,321.000000,293.000000,28.000000,71.000000,0.000000,0.000000,0.000000,0.000000,0.000000;
#CREDIT:Ben Speirs;
#NOTES:
0000
0000
0000
0000
,
0000
0000
0000
0000
,
0001
0001
1000
1000
,
0001
0000
0100
0000
0001
1000
0001
0000
,
1001
0000
0000
0000
0000
1000
0000
0100
,
0100
0000
0000
0000
0000
0010
0000
0000
,
0001
0000
0000
0000
0000
1000
0000
0000
,
0010
0000
0000
0000
0010
0010
0000
0100
,
0002
0103
0010
1000
,
2000
3100
0010
0001
,
2000
3001
0002
0103
,
0101
0110
2020
3030
,
0001
0100
0001
0000
2000
0000
3100
0000
,
1000
0010
1000
0000
0002
0000
0103
0000
,
0001
0010
0100
0000
2000
0000
3001
0000
,
1000
0100
0010
0000
0002
0000
1003
0000
,
0001
0100
0010
0000
0120
0000
1030
0000
,
1000
0100
0010
0000
0120
0000
0031
0000
,
0010
0001
0100
0000
0001
0100
0010
0000
,
0200
0320
2030
3001
,
2200
3300
0002
0003
,
0200
0000
0000
0000
0300
0000
0010
1000
,
0200
0000
0300
0000
1000
0100
0010
0000
,
0002
1003
0010
0100
,
0001
0100
0001
0000
0200
0000
0310
0000
,
1000
0100
1000
0000
0001
0100
0001
0000
,
2000
3000
0001
0010
,
0200
0000
0020
0330
,
2001
0100
0001
3001
,
1002
0100
1000
1003
,
2001
0010
0001
3001
,
1002
0010
1000
1003
,
0001
0100
0010
0000
1000
0010
0100
0000
,
0001
0010
0100
0000
1000
0100
0010
0000
,
0001
1000
0001
1000
0001
1000
0001
1000
,
0020
0130
0000
0010
,
1002
0000
0103
0000
0001
0100
0010
0000
,
1000
0001
2000
0000
3100
0000
1000
0000
,
0001
1000
0020
0000
0130
0001
1000
0000
,
0001
0100
0010
0100
0002
0000
1003
0000
,
2200
0000
3300
0000
0001
1000
0010
0000
,
0100
0000
0100
0000
0010
1000
0001
0000
,
1000
0100
0010
0000
0001
0010
0100
0000
,
2000
3200
0320
0032
,
2003
0000
3010
0000
,
1000
0010
0100
0000
0001
1000
0100
0000
,
0010
0001
0100
0000
0001
1000
0010
0000
,
2000
3002
0203
0320
,
1030
0000
1010
0000
,
0001
0010
0011
0000
,
1000
0100
0010
0000
0001
0010
0100
0000
,
2000
3002
0203
0310
,
2001
0000
0010
0000
,
3002
0000
0010
0000
,
2003
3200
0320
0032
,
0203
0000
0000
0000
0310
1000
0001
0000
,
2002
0000
0000
3003
,
1100
0000
1100
0000
1000
0001
0100
0000
,
0101
0000
0101
0000
0001
0100
0010
0000
,
2000
3002
0103
0000
,
0101
0000
0110
0000
1000
0010
0100
0000
,
0002
0013
0020
0130
,
1100
0000
1001
0000
1000
0100
0010
0000
,
0002
2003
3020
0030
,
0100
0100
0100
0000
0010
0000
1001
0000
,
1000
0000
0100
0000
0010
0001
1000
0000
,
0001
1000
0010
0000
1000
0010
0100
0000
,
0001
0000
1000
0000
0001
0010
0100
0000
,
2000
0000
3100
0000
,
0020
0031
1000
0001
,
0202
0303
2000
3000
,
0010
0010
0010
2002
,
3003
0000
0000
0000
;

//---------------dance-single - ----------------
#NOTEDATA:;
#CHARTNAME:;
#STEPSTYPE:dance-single;
#DESCRIPTION:;
#CHARTSTYLE:;
#DIFFICULTY:Easy;
#METER:5;
#RADARVALUES:0.218883,0.264057,0.048899,0.179298,0.000000,188.000000,182.000000,6.000000,22.000000,0.000000,0.000000,0.000000,0.000000,0.000000,0.218883,0.264057,0.048899,0.179298,0.000000,188.000000,182.000000,6.000000,22.000000,0.000000,0.000000,0.000000,0.000000,0.000000;
#CREDIT:Ben Speirs;
#NOTES:
0000
0000
0000
0000
,
0000
0000
0000
0000
,
1000
0000
0001
0000
,
0100
0100
0010
0000
,
1001
0000
0000
0000
,
1000
0000
0000
0000
,
0001
0000
0000
0000
,
0100
0000
0100
0000
,
0010
0010
0000
0000
,
1000
1000
0000
0000
,
0001
0000
1000
0000
,
0100
0100
0100
0000
,
1000
0010
1000
0000
,
0001
0001
0010
0000
,
0001
0100
0001
0000
,
1000
1000
0100
0000
,
1000
0100
0010
0000
,
0001
0001
1000
0000
,
0001
0100
0010
0000
,
0100
0100
0100
0000
,
0002
0003
0020
0030
,
0200
0000
0300
0000
,
2000
3000
0020
0030
,
0200
0000
0300
0000
,
0001
0001
0200
0300
,
0010
0010
2000
3000
,
0001
0000
1000
0000
,
0200
0000
0000
0300
,
2002
3003
1000
1000
,
0010
0000
0010
0010
,
0100
0000
0100
0100
,
0001
0000
0001
0001
,
1000
0100
1000
0000
,
0001
0100
0001
0000
,
1000
0100
0010
0001
,
0100
0000
0000
0000
,
2002
3003
0001
0000
,
1000
0010
0100
0000
,
0010
0010
0100
0000
,
0001
0001
1000
0000
,
0001
0010
0100
0000
,
1000
0010
0100
0000
,
0010
0010
1000
0000
,
0002
0003
2000
3000
,
0200
0000
0300
0000
,
1000
0001
0100
0100
,
0010
0000
1000
0000
,
0001
0001
1000
1000
,
0100
0000
1001
0000
,
1000
0001
0100
0000
,
0001
0001
1000
1000
,
0010
0100
0010
0100
,
0001
0000
0001
0000
,
1000
0000
1000
0000
,
0100
0100
0010
0010
,
0002
0000
0003
1000
,
1001
0000
0000
0000
,
0001
0001
0100
0000
,
0010
0010
1000
0000
,
0001
0010
0100
0000
,
1000
1000
0100
0000
,
0010
0001
1000
0000
,
0001
0001
1000
1000
,
0020
0000
0030
0000
,
1000
0001
1000
0000
0001
0000
0100
0000
,
0010
0010
1000
0000
,
0001
0001
0010
0000
,
0100
0100
1000
0000
,
0002
0003
0001
0000
,
2000
3000
1000
0000
,
0010
0000
0010
0000
,
0100
0100
0100
2002
,
3003
0000
0000
0000
;

//---------------dance-single - ----------------
#NOTEDATA:;
#CHARTNAME:;
#STEPSTYPE:dance-single;
#DESCRIPTION:;
#CHARTSTYLE:;
#DIFFICULTY:Beginner;
#METER:2;
#RADARVALUES:0.122248,0.146189,0.024450,0.000000,0.000000,105.000000,102.000000,3.000000,0.000000,0.000000,0.000000,0.000000,0.000000,0.000000,0.122248,0.146189,0.024450,0.000000,0.000000,105.000000,102.000000,3.000000,0.000000,0.000000,0.000000,0.000000,0.000000,0.000000;
#CREDIT:Ben Speirs;
#NOTES:
0000
0000
0000
0000
,
0000
0000
0000
0000
,
1000
1000
0000
0000
,
0001
0001
0000
0000
,
0100
0000
0000
0000
,
0010
0000
0000
0000
,
1000
0000
0000
0000
,
0001
0000
0000
0000
,
1000
0000
0000
0000
,
0100
0000
0000
0000
,
0010
0000
0000
0000
,
0001
0000
0000
0000
,
1000
1000
0000
0000
,
0001
0001
0000
0000
,
0100
0100
0000
0000
,
0100
0100
0000
0000
,
0010
0010
0000
0000
,
1000
1000
0000
0000
,
0001
0001
0000
0000
,
1000
0000
0000
0000
,
0010
0000
0010
0000
,
0010
0000
0000
0000
,
0100
0000
0100
0000
,
0100
0000
0000
0000
,
0001
0000
0000
0000
,
1000
0000
0000
0000
,
0010
0000
0010
0000
,
0010
0000
0000
0000
,
1001
0000
0000
0000
,
1000
0000
1000
0000
,
1000
0000
0000
0000
,
0010
0000
0010
0000
,
0010
0000
0000
0000
,
0100
0000
0000
0000
,
0001
0000
0001
0000
,
0001
0000
0000
0000
,
1000
0000
1000
0000
,
1000
0000
0000
0000
,
0010
0000
0010
0000
,
0010
0000
0000
0000
,
0100
0000
0000
0000
,
0100
0000
0000
0000
,
0001
0000
0001
0000
,
0001
0000
0000
0000
,
1000
0000
0000
0000
,
0010
0010
0000
0000
,
0010
0000
0000
0000
,
0100
0100
0000
0000
,
0100
0000
0000
0000
,
0001
0000
0000
0000
,
1000
0000
1000
0000
,
1000
0000
0000
0000
,
0010
0000
0000
0000
,
0010
0000
0000
0000
,
0100
0000
0100
0000
,
0100
0000
0000
0000
,
1001
0000
0000
0000
,
0001
0001
0000
0000
,
0100
0100
0000
0000
,
0010
0000
0010
0000
,
0010
0010
0000
0000
,
1000
1000
0000
0000
,
0100
0000
0100
0000
,
0100
0000
0000
0000
,
1000
0000
1000
0000
,
1000
0000
0000
0000
,
0001
0000
0001
0000
,
0001
0000
0000
0000
,
0100
0000
0000
0000
,
0010
0000
0000
0000
,
1000
0000
1000
0000
,
1000
0000
0000
1001
;

//---------------dance-double - ----------------
#NOTEDATA:;
#CHARTNAME:;
#STEPSTYPE:dance-double;
#DESCRIPTION:;
#CHARTSTYLE:;
#DIFFICULTY:Medium;
#METER:8;
#RADARVALUES:0.412152,0.469434,0.366745,0.431944,0.000000,354.000000,309.000000,45.000000,53.000000,0.000000,0.000000,0.000000,0.000000,0.000000,0.412152,0.469434,0.366745,0.431944,0.000000,354.000000,309.000000,45.000000,53.000000,0.000000,0.000000,0.000000,0.000000,0.000000;
#CREDIT:Ben Speirs;
#NOTES:
00000000
00000000
00000000
00000000
,
00000000
00000000
00000000
00000000
,
00001000
00013000
00031000
00013000
,
00001000
00010000
00000100
00000010
00000001
00000000
00001000
00000000
,
00001001
00000000
00000000
00000000
00000000
00000101
00000000
00001000
,
00001000
00000000
00000000
00000000
00000000
00010100
00000000
00000000
,
00011000
00000000
00000000
00000000
00000000
00101000
00000000
00000000
,
00110000
00000000
00000000
00000000
10000000
10000000
00000000
00010000
,
02000000
00000000
03100000
00000000
10000000
00100000
01000000
00000000
,
00020000
00000000
00130000
00000000
00001000
00010000
00001000
00000000
,
00020000
00000000
00030100
00000000
00001000
00000100
00000010
00000000
,
00000110
00000110
00002002
00003003
,
00000001
00000100
00000020
00000000
00001030
00000000
00000100
00000000
,
00010000
00000000
00012000
00000000
00103000
00010000
01000000
00000000
,
00010000
01000000
00200000
00000000
10300000
00000000
00010000
00000000
,
00100000
00000000
00102000
00000000
00013000
00000100
00001000
00000000
,
00000001
00001000
00000001
00001000
00000020
00000000
00000130
00000000
,
00001000
00010000
00001000
00010000
00200000
00000000
10300000
00000000
,
00010000
00100000
00010000
00100000
02000000
00000000
13000000
00000000
,
11000000
01100000
20020000
30030000
,
10000000
00100000
01000000
00001000
,
00020000
00000000
00000000
00000000
00030000
00000000
00000100
00001000
,
00000020
00000000
00000030
00000000
00000100
00000001
00001000
00000000
,
00000002
00000103
00000010
00001000
,
00000100
00010000
00000100
00000000
00020000
00000000
00031000
00000000
,
00100000
00001000
00100000
00000000
00001000
00010000
00001000
00000000
,
02000000
00000000
03000000
00000000
00010000
01000000
00100000
10000000
,
00020000
00000000
20000000
30030000
,
11000000
00000000
11000000
00000000
00010000
00100000
00020000
00000000
,
01030000
00000000
00001000
00000000
00010000
00000100
00001000
00000000
,
00000011
00000000
00000011
00000000
00001000
00000100
00002000
00000000
,
00003010
00000000
00010000
00000000
00001000
01000000
00020000
00000000
,
10033000
01000000
10000000
00000000
00010000
01000000
00010000
00000000
,
00100000
00010000
00100000
00000000
00001000
00010000
00001000
00000000
,
00020000
00030200
00000320
00000032
,
00002000
00000000
00003003
00001001
,
00000201
00000000
00000310
00000000
00001000
00000100
00010000
00000000
,
00000100
00010000
00002000
00000000
00103000
00000000
10010000
00000000
,
10000000
00100000
01000000
00000000
00010000
00100000
01000000
00000000
,
10000000
00010000
10000000
00010000
00200000
00000000
00301000
00000000
,
00021000
00000000
00030100
00000000
00001000
00000100
00000010
00000000
,
00000001
00001000
00000001
00000000
00001000
00000010
00000100
00000000
,
00000010
00001000
00000100
00000000
00010000
00000100
00000010
00000000
,
00000001
00001000
00010000
10000000
,
20010000
00000000
31000000
00000000
,
10000000
01000000
00100000
00010000
20000000
00000000
30010000
00000000
,
10000000
00100000
01000000
00000000
00010000
00100000
00010000
00000000
,
10000000
30000000
00010000
00000000
00001000
00000000
00000001
00000000
,
00001002
00000000
00000103
00000000
,
00000001
00000100
00000010
00000000
00002000
00000000
00003000
00000000
,
00000100
00000000
00000100
00000000
00010000
00001000
00010000
00000000
,
00002000
00203000
00320000
10030000
,
20010000
00000000
01000000
00000000
,
30020000
00000000
00100000
00000000
,
01030000
01000000
00001000
00001000
,
00020000
00000000
00030000
00000000
00010000
00000100
00000010
00000000
,
00001001
00000000
00000000
00000000
,
00000101
00000000
00000101
00000000
00001000
00000100
00010000
00000000
,
00011000
00000000
00011000
00000000
00001000
00100000
00010000
00000000
,
00110000
11000000
20020000
30030000
,
10100000
00000000
01010000
00000000
10000000
01000000
00010000
00000000
,
00011000
00000000
00101000
00000000
00001000
00010000
00001000
00000000
,
00011000
00000000
00010100
00000000
00010000
00001000
00000100
00000001
,
00002000
00003002
00000203
00000300
,
00000010
00000010
00000010
00000000
00000100
00000000
00001001
00000000
,
00000001
00000100
00000010
00000000
00001000
00000100
00010000
00000000
,
00001000
00010000
00001000
00000000
00100000
00010000
00100000
00000000
,
00010000
00100000
01000000
10000000
00100000
00000000
01000000
00000000
,
20010000
00000000
31000000
00000000
,
10000000
01000000
00010000
00010000
,
00002000
00013000
00020000
00030100
,
00001100
00001100
00000110
00002002
,
00003003
00000000
00000000
00000000
;

//---------------dance-double - ----------------
#NOTEDATA:;
#CHARTNAME:;
#STEPSTYPE:dance-double;
#DESCRIPTION:;
#CHARTSTYLE:;
#DIFFICULTY:Easy;
#METER:5;
#RADARVALUES:0.227033,0.293396,0.065199,0.285246,0.000000,195.000000,187.000000,8.000000,35.000000,0.000000,0.000000,0.000000,0.000000,0.000000,0.227033,0.293396,0.065199,0.285246,0.000000,195.000000,187.000000,8.000000,35.000000,0.000000,0.000000,0.000000,0.000000,0.000000;
#CREDIT:Ben Speirs;
#NOTES:
00000000
00000000
00000000
00000000
,
00000000
00000000
00000000
00000000
,
00001000
00000000
00010000
00000000
,
00001000
00001000
00010000
00000000
,
00011000
00000000
00000000
00000000
,
00100000
00000000
00000000
00000000
,
01000000
00000000
00000000
00000000
,
10000000
00000000
00010000
00000000
,
01000000
01000000
00000000
00000000
,
00100000
00100000
00000000
00000000
,
10000000
00000000
00010000
00000000
,
00100000
00001000
00010000
00000000
,
00001000
00001000
00020000
00030000
,
00000100
00000100
00000020
00000030
,
00000001
00000001
00000200
00000300
,
00000010
00001000
00000002
00000003
,
00001000
00001000
00000200
00000300
,
00010000
00010000
00002000
00003000
,
00100000
00010000
02000000
03000000
,
00100000
10000000
00010000
00000000
,
20000000
30000000
02000000
03000000
,
00020000
00000000
00030000
00000000
,
00002000
00003000
00000200
00000300
,
00000002
00000000
00000003
00000000
,
00001000
00001000
00000001
00000000
,
00000001
00000001
00000010
00000010
,
00000200
00000300
00000100
00000000
,
00020000
00000000
00002000
00033000
,
00011000
00000000
00001000
00100000
,
00010000
00000000
00010000
10000000
,
00100000
00000000
00100000
01000000
,
00001000
00000000
00010000
00000000
,
00011000
00000000
00010000
00000100
,
00000010
00000000
00000010
00000001
,
00000100
00000000
00000100
00000010
,
00010000
00010000
00001000
00000000
,
00022000
00033000
00100000
00000000
,
00100000
00010000
02000000
03000000
,
00100000
00100000
10000000
00000000
,
00010000
00100000
01000000
00000000
,
20000000
30000000
01000000
00000000
,
00100000
00100000
00001000
00000000
,
00010000
00010000
00000100
00000000
,
00000100
00000010
00000001
00001000
,
00000020
00000000
00000030
00000000
,
00000100
00000010
00001000
00000000
,
00000001
00000100
00000001
00000000
,
00001000
00000100
00010000
00001000
,
00200000
00300000
00011000
00000000
,
00001000
01000000
00010000
00000000
,
10000000
10000000
00100000
00100000
,
10000000
00010000
10000000
00010000
,
02000000
00000000
03000000
00000000
,
00002000
00000000
00003000
00000000
,
00020000
00030000
00000200
00000300
,
00000020
00000000
00000030
00000100
,
00002002
00000000
00000000
00003003
,
00000001
00000100
00000010
00000010
,
00002000
00003000
00000100
00000100
,
00010000
00000000
00010000
00001000
,
00100000
00100000
00010000
10000000
,
00200000
00300000
01000000
00000000
,
00010000
01000000
00010000
00000000
,
10000000
01000000
00100000
00001000
,
00010000
00001000
00010000
00000000
00000000
00000000
00011000
00000000
,
00010000
00000100
00000010
00000010
,
00000001
00001000
00000010
00000010
,
00000100
00001000
00010000
00000000
,
00002000
00003000
00010000
00000000
,
00020000
00030000
00100000
00000000
,
00100000
10000000
00010000
10000000
,
01000000
01000000
00100000
20020000
,
30030000
00000000
00000000
00000000
;

//---------------dance-single - ----------------
#NOTEDATA:;
#CHARTNAME:;
#STEPSTYPE:dance-single;
#DESCRIPTION:;
#CHARTSTYLE:;
#DIFFICULTY:Challenge;
#METER:16;
#RADARVALUES:0.804511,0.968207,0.203747,0.431944,1.002437,691.000000,666.000000,25.000000,53.000000,29.000000,0.000000,0.000000,0.000000,0.000000,0.804511,0.968207,0.203747,0.431944,1.002437,691.000000,666.000000,25.000000,53.000000,29.000000,0.000000,0.000000,0.000000,0.000000;
#CREDIT:Ben Speirs;
#NOTES:
0000
0000
0000
0000
,
0000
0000
0000
0000
,
1001
0000
0001
0010
0100
0000
1000
0000
0010
0000
0100
0000
0010
0000
0010
0000
,
1000
0000
0100
0000
0001
0000
0100
0000
1000
0000
0010
0000
0100
0001
1000
0000
,
1001
0000
0000
0000
0000
0101
0000
1000
,
1000
0000
0000
0000
0000
1100
0000
0000
,
1001
0000
0000
0000
0000
0011
0000
0000
,
1001
0000
0000
0000
0000
0000
0000
1000
0000
0000
0001
0000
0100
0000
0010
0000
,
2010
0000
0000
0000
3100
0000
0000
0000
1000
0000
0000
0100
0000
0000
0010
0000
,
0012
0000
0000
0000
0103
0000
0000
0000
0001
0000
0000
0100
0000
0000
0010
0000
,
2010
0000
0000
0000
3001
0000
0000
0000
1000
0000
0000
0100
0000
0000
0010
0000
,
0011
0000
0000
0000
0110
0000
0000
0000
1100
0000
0000
0000
0001
1000
0001
0000
,
0103
0000
010M
0000
1000
0100
1000
0010
0100
0001
0000
1000
0000
0001
0100
0000
,
0010
0000
0M10
0000
0001
0010
0001
0100
0010
1000
0000
0001
0000
1000
0010
1000
,
0100
0000
M100
0000
0001
0100
0001
1000
0100
0010
0000
0001
0000
1000
0001
0010
,
0100
0000
01M0
0000
0001
0100
0001
1000
0100
0010
0001
1000
0000
0001
0010
0100
,
1000
0000
1M00
0000
0100
0010
0100
0010
1000
0100
0010
0001
0000
1000
0010
1000
,
0001
0000
00M1
0000
0010
1000
0010
0000
1000
0100
0010
0001
0000
1000
0001
1000
,
0010
0000
M010
0000
0001
0010
0100
0000
1000
0100
1000
0001
0000
1000
0010
0100
,
0002
0000
0000
0000
0203
0000
0000
0000
0320
0000
0000
0000
1030
0100
0010
0001
,
2000
0000
3001
0100
0020
0000
1030
0100
,
0020
0000
0031
0000
1000
0010
0100
0100
,
0002
0000
0000
0000
0003
0000
1000
0100
1000
0000
0001
0000
0100
0000
0000
0001
,
1000
0000
0001
0100
0010
1000
0100
0010
0001
1000
0001
0010
0100
1000
0001
0100
,
0010
0000
0000
0000
1000
0000
0000
0000
0001
0000
0000
0000
0010
0000
0000
0000
0100
1000
0000
0000
0000
0000
0000
0000
0002
0000
0000
0000
0000
0000
0000
0000
,
1033
0100
1000
0100
0010
0001
1000
0010
0100
0001
0100
0001
1000
0100
0010
0001
,
2000
0000
0000
0000
0000
0000
3001
0100
0010
1000
0100
0010
0001
1000
0001
0100
,
0020
0000
0200
0330
,
1002
0000
0000
0000
1003
0100
M100
0001
0000
0100
0010
0000
1000
0010
1000
0000
,
0002
0000
1003
0000
3001
0010
001M
1000
0000
0010
0100
0000
0001
0100
0010
0000
,
2000
0000
0000
0000
3001
0100
0001
0010
0000
001M
1000
0000
0001
0100
0001
0100
,
0010
0000
0010
0000
1000
0001
1000
0100
0000
M100
0001
0000
1000
0100
0010
0001
,
0200
0000
0310
0000
1000
0010
0100
0010
2000
0000
3002
0000
0013
0100
1000
0000
,
0020
0000
0130
0000
0001
0100
0010
0100
0002
0000
2003
0000
3100
0010
0001
0000
,
1000
0100
1000
0100
0010
0001
0010
0001
0100
0010
1000
0001
0010
0100
1000
0001
,
1000
0000
0000
0000
0001
0100
0001
0010
0000
001M
1000
0000
2002
0000
3003
0000
,
1100
0000
0100
0000
0020
0000
0031
1000
0010
0100
0000
01M0
1000
0000
0001
0000
,
1000
0000
0000
0000
0000
0000
0010
0000
0000
0000
0000
0000
0100
0000
0000
0001
0000
0000
0000
0000
0000
1000
0000
0000
0000
0000
0000
1000
0000
0000
0001
0000
0000
0010
0000
0000
0001
0000
0000
0000
0000
0000
1000
0000
0100
0000
1000
0000
,
0100
0000
0010
0001
1000
0000
1020
0000
0130
0000
0001
1000
0001
0000
1000
0000
,
0001
0010
001M
1000
0100
M100
0001
2000
,
3100
0000
0100
0000
0010
0000
0002
0000
1003
0010
0000
0100
0001
1003
0010
M010
,
0001
0000
0000
0000
0000
0000
1000
0000
0000
0100
0000
0000
0010
0000
0000
0000
0000
0000
0001
0000
0000
0100
0000
0000
0000
0000
0000
0201
0000
0000
0000
0000
0000
0000
0000
0000
0310
0000
0000
0000
0000
0000
1000
0000
0001
0000
1000
0000
,
0001
0000
1000
0000
0001
0010
0001
0200
0000
0310
1000
0100
0010
0001
1000
0001
,
0200
0320
2030
3002
,
1003
0000
0000
0000
0000
0000
0001
0010
0100
0000
0000
0000
0000
0000
1000
0001
,
1000
0000
0010
0000
1000
0100
0000
M100
0000
0001
0000
1000
0010
0100
0010
1000
,
0001
0000
0010
0000
0001
0000
0010
0000
0000
0000
0000
0000
0100
0000
0000
0000
0000
0000
2000
0000
0000
0000
0000
0000
3001
0000
0000
0000
0000
0000
0100
0000
0000
0010
0000
0000
1000
0000
0000
0000
0000
0000
0001
0000
0000
0000
0000
0000
,
2000
0100
3002
0010
2003
0010
3002
0100
,
1003
0000
0000
0000
0000
0000
0001
0000
0100
0010
0000
0M10
0001
1000
0001
1000
,
0010
0000
0000
0000
0000
0000
1000
0000
0000
0100
0000
0000
0000
0000
0000
0100
0000
0000
0010
0000
0000
0000
0000
0000
0012
0000
0000
0000
0000
0000
0000
0000
0000
0000
0000
0000
1003
0000
0010
0000
1000
0000
0010
0000
0000
0000
0000
0000
,
0100
0000
0100
0000
0001
0000
0001
0000
1000
0100
0010
0001
0100
0010
1000
0001
,
2000
3002
0103
1301
,
1000
0100
0001
0100
2000
0000
3010
0100
,
0002
0000
0013
0100
2000
0000
3001
0100
,
0101
0000
0000
0000
1000
0100
1000
0001
0010
0100
1000
0001
0100
0010
1000
0001
,
0020
0000
0000
0000
0000
0000
0000
0000
0130
0000
1000
0000
0001
1000
0001
0000
,
1001
0000
0000
0110
,
2001
0000
0000
0000
3001
0100
0001
1000
0010
0100
0000
01M0
0000
1000
0100
0010
,
0002
0000
0000
0000
1003
0010
1000
0001
0100
0010
0000
0M10
0000
0001
0010
0100
,
2000
0000
0000
0000
3001
0100
0001
1000
0100
0010
0001
1000
0000
0001
0010
0100
,
1000
0000
0001
0000
0100
010M
1000
0010
1000
0001
0000
0001
0000
1000
0100
0010
,
0001
0000
1000
0000
0010
M010
0001
0000
1000
0001
0100
0001
0000
1000
0100
0010
,
0001
0000
1000
0000
0001
0100
0010
0000
1000
0100
1000
0100
0010
0001
1000
0001
,
0200
0000
0000
0000
1000
0000
0000
0000
0301
0000
1000
0000
0100
0010
0001
0000
,
1000
0010
1000
0001
0000
M001
0100
1000
0100
1000
0010
0100
0000
01M0
1000
0001
,
0100
0010
1000
0100
0010
0001
0100
0010
1000
0001
1000
0001
0100
0010
1000
0100
,
0010
0001
1000
0001
0100
0010
1000
0100
0010
0001
1000
0010
0100
0010
1000
0100
,
0010
0001
1000
0001
0100
0010
0000
0M10
0000
0001
0010
0100
1000
0000
0001
0100
,
0001
0000
1000
0010
0000
M010
0001
1000
0001
0010
0100
1000
0001
0100
0010
1000
,
0010
0000
0100
0001
0000
0M01
0000
0100
0000
1000
0100
0000
0010
0000
0001
0000
,
1000
0010
0000
0100
0000
0001
0010
001M
1000
0000
0001
1000
0100
0000
1000
0000
,
0001
0000
1000
0100
0010
0000
0M10
1000
0001
0000
0000
0000
2002
0000
0000
0000
,
3003
0000
0000
0000
;

//---------------dance-double - ----------------
#NOTEDATA:;
#CHARTNAME:;
#STEPSTYPE:dance-double;
#DESCRIPTION:;
#CHARTSTYLE:;
#DIFFICULTY:Challenge;
#METER:16;
#RADARVALUES:0.797525,0.968207,0.154848,0.440094,1.006512,685.000000,666.000000,19.000000,54.000000,28.000000,0.000000,0.000000,0.000000,0.000000,0.797525,0.968207,0.154848,0.440094,1.006512,685.000000,666.000000,19.000000,54.000000,28.000000,0.000000,0.000000,0.000000,0.000000;
#CREDIT:Ben Speirs;
#NOTES:
00000000
00000000
00000000
00000000
,
00000000
00000000
00000000
00000000
,
00011000
00000000
00010000
00000100
00001000
00000000
00000010
00000000
00000100
00000000
00000100
00000000
00000001
00000000
00001000
00000000
,
00000001
00000000
00000010
00000000
00001000
00000000
00010000
00000000
01000000
00000000
10000000
00000000
00010000
10000000
00100000
00000000
,
10100000
00000000
00000000
00000000
00000000
01010000
00000000
00001000
,
00010000
00000000
00000000
00000000
00000000
00010100
00000000
00000000
,
00000110
00000000
00000000
00000000
00000000
00000011
00000000
00000000
,
00001100
00000000
00000000
00000000
00000000
00000000
00000000
00000001
00000000
00000000
00000001
00000000
00000100
00000000
00001000
00000000
,
00021000
00000000
00000000
00000000
00030100
00000000
00000000
00000000
00010000
00000000
00000000
00001000
00000000
00000000
00100000
00000000
,
00201000
00000000
00000000
00000000
00310000
00000000
00000000
00000000
10000000
00000000
00000000
00100000
00000000
00000000
01000000
00000000
,
02010000
00000000
00000000
00000000
03100000
00000000
00000000
00000000
10000000
00000000
00000000
01000000
00000000
00000000
00010000
00000000
,
00002000
00000000
00000000
00000000
00203000
00000000
00000000
00000000
00301000
00000000
00000000
00000000
00010000
00001000
00010000
00000000
,
00001000
00000000
000M1000
00000000
00000100
00001000
00000100
00001000
00000001
00000100
00000000
00000010
00000000
00001000
00000010
00001000
,
00000100
00000000
0000M100
00000000
00000001
00000100
00000001
00001000
00000100
00001000
00000000
00000010
00000000
00010000
00001000
00000000
,
00010000
00000000
0001M000
00000000
00100000
00010000
00100000
00010000
10000000
00100000
00000000
01000000
00000000
00010000
01000000
00010000
,
00100000
00000000
001M0000
00000000
10000000
00100000
10000000
00010000
00100000
01000000
10000000
00010000
00000000
10000000
00100000
01000000
,
00010000
00000000
0M010000
00000000
00001000
00130000
00001000
00010000
00000100
00000010
00000000
00000001
00000000
00001000
00000010
00001000
,
00000001
00000000
000000M1
00000000
00000100
00001000
00000100
00000000
00001000
00000010
00000100
00000001
00000000
00001000
00000100
00000000
,
00001000
00000000
00001M00
00000000
00010000
00003100
00010000
00000000
00001000
01000000
00100000
10000000
00000000
00010000
00100000
01000000
,
20000000
00000000
00000000
00000000
30200000
00000000
00000000
00000000
02330000
00000000
00000000
00000000
03013000
00100000
01000000
10000000
,
00020003
00000000
00130000
00001000
02000000
00000000
03100000
00010000
,
00002000
00000000
00013000
00000100
00000010
00000001
00000100
00000010
,
00002000
00000000
00030000
00000000
00003000
00000000
00000001
00000100
00000001
00000000
00001000
00000000
00000100
00000000
00000000
00010000
,
00001000
00000000
00100000
00010000
00100000
00010000
10000000
00100000
01000000
00010000
00100000
01000000
10000000
00010000
10000000
00010000
,
01000000
00000000
00000000
00000000
00100000
00000000
00000000
00000000
00010000
00000000
00000000
00000000
00001000
00000000
00000000
00000000
00010000
00000100
00000000
00000000
00000000
00000000
00000000
00000000
00001002
00000000
00000000
00000000
00000000
00000000
00000000
00000000
,
00000103
00000010
00000100
00000010
00001000
00000100
00000010
00000001
00001000
00000100
00001000
00000100
00010000
00001000
00100000
00010000
,
02000000
00000000
00000000
00000000
03000000
00000000
00010000
10000000
00010000
10000000
01000000
00100000
00010000
01000000
00010000
00100000
,
00002000
00000000
00020000
00033000
,
00010100
00000000
00000100
00000000
00010300
00001000
000M1000
00000010
00000000
00001000
00000100
00000000
00010000
00001000
00010000
00001000
,
00100000
00000000
00100000
00000000
00301000
00010000
0001M000
01000000
00000000
00010000
00100000
00000000
00001000
00010000
00001000
00000000
,
00010000
00000000
00000100
00000000
00001000
00000001
00001000
00000010
00000000
0000M010
00000001
00000000
00000100
00000001
00000010
00000001
,
00001000
00000000
00001000
00000000
00000100
00010000
00000100
00001000
00000000
00001M00
00100000
00000000
00010000
00000000
01000000
00000000
,
00200000
00000000
10300000
00000000
00010000
01000000
00010000
10000000
00000000
00010000
00100000
00000000
00001000
00010000
00001000
00000000
,
00020000
00000000
00030100
00000000
00001000
00000010
00001000
00000001
00000000
00001000
00000010
00000000
00000100
00000001
00001000
00000000
,
00000001
00000010
00000001
00000010
00000100
00010000
00000100
00010000
00001000
00100000
01000000
10000000
00010000
01000000
00100000
10000000
,
00020000
00000000
00000000
00000000
10030000
00000000
00010000
01000000
00000000
010M0000
13000000
00000000
00020000
00000000
00000000
00000000
,
10030000
00000000
02000000
00000000
03100000
00000000
00010000
01000000
00010000
00100000
00000000
001M0000
10000000
00000000
00010000
00000000
,
00100000
00000000
00000000
00000000
00000000
00000000
00001000
00000000
00000000
00000000
00000000
00000000
00010000
00000000
00000000
00000100
00000000
00000000
00000000
00000000
00000000
00010000
00000000
00000000
00000000
00000000
00000000
00001000
00000000
00000000
00000100
00000000
00000000
00000001
00000000
00000000
00001000
00000000
00000000
00000000
00000000
00000000
00000001
00000000
00000100
00000000
00000001
00000000
,
00000100
00000000
00000010
00001000
00000001
00000030
00001003
00000100
00001000
00000000
00003002
00000000
00001033
00000000
00000020
00000300
,
00000130
00000001
00000010
00001000
00020000
02030000
23000000
30020000
,
01030000
00000000
01010000
00000000
00000000
00000000
10000000
00000000
00010000
00100000
00000000
00010000
10000000
00000000
00010000
01000000
,
00001000
00000000
00010000
00000100
00010000
00000000
00030100
00000010
00000000
00000010
00000000
00000001
00001000
00000010
00000100
00000001
,
00001000
00000000
00000100
00000000
00010000
00000100
00010000
00001000
00000000
000M1000
00000100
00000010
00000001
00000100
00000010
00001000
,
00000002
00002003
00023000
20030000
,
31000000
00000000
00000000
00000000
00000000
00000000
10000000
01000000
00100000
00000000
00000000
00000000
00000000
00000000
00010000
10000000
,
00010000
00000000
01000000
00000000
00010000
00100000
00000000
001M0000
00000000
10000000
00000000
00010000
00100000
00010000
01000000
00001000
,
00010000
00000000
00000100
00000000
00010000
00000000
00000100
00000000
00000000
00000000
00000000
00000000
00010000
00000000
00000000
00000000
00000000
00000000
00000020
00000000
00000000
00000000
00000000
00000000
00000130
00000000
00000000
00000000
00000000
00000000
00000001
00000000
00000000
00001000
00000000
00000000
00000001
00000000
00000000
00000000
00000000
00000000
00001000
00000000
00000000
00000000
00000000
00000000
,
00000002
00000100
00000203
00001000
00002300
00010000
00023000
01000000
,
01030000
00000000
10000000
00000000
00000000
00000000
10000000
00000000
00010000
01000000
00000000
010M0000
10000000
00100000
10000000
00100000
,
01000000
00000000
00000000
00000000
00000000
00000000
00010000
00000000
00000000
00100000
00000000
00000000
00000000
00000000
00000000
00100000
00000000
00000000
00001000
00000000
00000000
00000000
00000000
00000000
00021000
00000000
00000000
00000000
00000000
00000000
00000000
00000000
00000000
00000000
00000000
00000000
00030100
00000000
00001000
00000000
00000100
00000000
00001000
00000000
00000000
00000000
00000000
00000000
,
00000001
00000000
00000001
00000000
00000100
00000000
00000100
00000000
00000001
00000010
00000100
00001000
00000010
00000100
00000001
00001000
,
00000002
00000203
00000310
00001001
,
00000001
00000010
00001000
00010000
02000000
00000000
03100000
00010000
,
10000000
00100000
00010000
00001000
00000200
00000000
00000310
00001000
,
00000002
00000000
00000000
00000000
00001003
00000100
00000010
00000001
00000100
00000010
00000100
00000010
00001000
00000100
00010000
00001000
,
00010000
00000000
00000000
00000000
00000000
00000000
00000000
00000000
00002000
00000000
00023000
00000000
00130000
10000000
00010000
00000000
,
10010000
00000000
00000000
01100000
,
10020000
00000000
00000000
00000000
10030000
00100000
10000000
00010000
01000000
00100000
00000000
0M100000
00000000
00010000
00100000
00001000
,
00020000
00000000
00000000
00000000
00030100
00001000
00000010
00001000
00000001
00000010
00000000
0000001M
00000000
00001000
00000100
00000010
,
00000002
00000000
00000000
00000000
00001003
00000010
00000100
00000010
00001000
00000100
00010000
00001000
00000000
000M1000
00000100
00010000
,
00002000
00000000
00103000
00000000
00001000
00010000
0001M000
00100000
00010000
01000000
00000000
00010000
00000000
10000000
01000000
00100000
,
00002000
00000000
00013000
00000000
00001000
000M1000
00000100
00000000
00001000
00000010
00000100
00000001
00000000
00001000
00000100
00001000
,
00000001
00000000
00000010
00000000
00000001
00000100
00000010
00000000
00001000
00000100
00001000
00000100
00010000
00001000
00100000
00010000
,
02000000
00000000
00000000
00000000
10000000
00000000
00000000
00000000
03010000
00000000
10000000
00000000
00010000
00100000
01000000
00000000
,
10000000
01000000
10000000
00010000
00000000
M0010000
01000000
00100000
00001000
00100000
00001000
00010000
00000000
0001M000
00100000
00001000
,
00010000
00000100
00010000
00000100
00001000
00000010
00000100
00000001
00001000
00000100
00000010
00000100
00000010
00000001
00000100
00000010
,
00001000
00000100
00010000
00001000
00010000
00001000
00100000
00010000
01000000
00100000
10000000
00010000
00100000
01000000
10000000
00010000
,
01000000
00100000
10000000
00010000
00100000
01000000
00000000
01M00000
00000000
00010000
01000000
00100000
10000000
00000000
00010000
10000000
,
00010000
00000000
00100000
00010000
00000000
00M10000
00001000
00000000
00010000
00000100
00000010
00000001
00000100
00000010
00001000
00000100
,
00010000
00000010
00010000
00001000
00000000
000M1000
00000000
00000100
00000000
00001000
00000001
00000000
00000100
00000000
00000010
00000000
,
00001000
00000100
00000000
00010000
00000000
00000100
00001000
00001M00
00010000
00000000
00001000
01000000
00200000
00000000
20300000
00000000
,
30010000
00000000
10000000
00100000
01000000
00000000
01M00000
10000000
00010000
00000000
00000000
00000000
20020000
00000000
00000000
00000000
,
30030000
00000000
00000000
00000000
;
