#TITLE:Mass Destruction;
#SUBTITLE:;
#ARTIST:目黒将司 feat. Lotus Juice & Yumi Kawamura;
#TITLETRANSLIT:;
#SUBTITLETRANSLIT:;
#ARTISTTRANSLIT:Shoji Meguro feat. Lotus Juice & Yumi Kawamura;
#GENRE:;
#CREDIT:;
#MUSIC:Mass Destruction.ogg;
#BANNER:Mass Destruction.png;
#BACKGROUND:Mass Destruction-bg.png;
#CDTITLE:;
#SAMPLESTART:52.427;
#SAMPLELENGTH:15.000;
#SELECTABLE:YES;
#OFFSET:2.027;
#BPMS:0.000=119.000;
#STOPS:;
#BGCHANGES:;
#FGCHANGES:;

//--------------- dance-single - chrononical ----------------
#NOTES:
     dance-single:
     chrononical:
     Beginner:
     2:
     0,0,0,0,0:
0000
0000
0000
0000
,
0000
0000
0000
0000
,
0000
0000
0000
0000
,
2002
3003
0000
1000
,
0001
0000
0020
0000
,
0130
2000
3000
0000
,
0001
0000
0100
0100
,
0200
0000
0000
0000
,
0000
0300
0001
0000
,
0001
2000
3000
0000
,
0100
0000
1000
0000
,
0001
0000
0100
0100
,
0100
0000
0001
0000
,
1000
0000
0100
0010
,
0001
0000
0100
0010
,
1000
0000
0001
0001
,
0001
0000
1000
0000
,
0100
0100
0100
0000
,
0010
0010
0010
0000
,
0001
0000
1000
0010
,
1000
0000
0001
0010
,
0001
0000
1000
0000
,
0100
0000
0010
0000
,
0001
0000
1000
0100
,
1000
0000
0001
0100
,
0001
0000
0010
0000
,
1000
0000
0001
0000
,
0100
0000
1000
0000
,
0020
0000
0230
0000
,
0301
0000
0001
0000
,
2000
0000
3002
0000
,
1003
0000
0100
0000
,
0020
0000
0230
0000
,
1300
0000
0001
0000
,
0100
0000
0010
0000
,
1000
0000
0100
0000
,
0010
0010
0010
0000
,
0001
0000
0100
0000
,
0010
0010
0010
0000
,
1000
0000
0001
0000
,
0100
0100
0100
0000
,
0001
0000
1000
0000
,
0100
0100
0100
0000
,
1000
0000
0100
0000
,
0002
0000
0023
0000
,
0030
0000
0000
0000
;

//--------------- dance-single - chrononical ----------------
#NOTES:
     dance-single:
     chrononical:
     Easy:
     7:
     0,0,0,0,0:
0000
0000
0000
0000
,
0000
0000
0000
0000
,
0000
0000
0000
0000
,
1002
0000
0103
0000
0010
1000
0001
0000
,
0010
0000
0100
0000
2000
0000
0000
3010
,
0100
2001
3100
0010
,
0001
1000
0010
0000
0010
1000
0100
0000
,
0020
1000
1000
0100
,
0100
0031
1000
0010
,
0100
1002
0013
0100
,
1000
0000
0000
0001
0000
0000
0100
0000
,
0001
0000
1000
0000
0010
0100
0010
0000
,
1000
0001
1000
0000
0100
0000
0010
0000
,
0001
1000
0010
0000
1000
0001
0020
0000
,
0031
1000
0100
0000
1000
0001
0200
0000
,
0301
1000
0001
0000
0100
0000
0010
0000
,
1000
0100
0001
0100
,
1000
0010
1000
0000
1000
0100
1000
0000
,
0001
0000
0100
0000
0010
0000
1000
0100
,
1000
0010
0001
0010
,
1000
0100
0001
0100
,
1000
0001
0100
0100
,
0001
1000
0100
0100
,
1000
0000
0001
0000
0100
0010
0100
0000
,
0001
0010
0001
0000
1000
0010
1000
0000
,
0001
0010
1000
0001
,
0100
1000
0001
1000
,
0100
0002
0203
1300
,
0020
0001
2030
0100
,
3001
0010
0100
1000
,
0001
0100
0010
0000
0010
0100
0001
0000
,
0010
2000
3020
0031
,
0200
1000
0302
0010
,
1003
0100
0010
0001
,
1000
0010
0010
1000
,
0001
0010
1000
0010
,
0200
0001
2300
0010
,
3001
0100
1000
0100
,
0020
0001
2030
0010
,
3100
0100
0001
0100
,
0020
1000
0032
0100
,
1003
0010
0001
0010
,
1000
0010
1000
0000
1000
0001
1000
0001
,
2000
0000
0000
0000
,
3020
0000
0200
0000
,
0330
0000
0000
0000
;

//--------------- dance-single - chrononical ----------------
#NOTES:
     dance-single:
     chrononical:
     Medium:
     11:
     0,0,0,0,0:
0000
0000
0000
0000
,
0000
0000
0000
0000
,
0000
0000
0000
0000
,
2001
0000
0000
0000
3010
0000
0000
0000
0100
0001
1000
0000
0100
0010
0000
0100
,
1000
0000
0000
0000
0010
0000
0000
0010
0200
0000
0000
0000
0000
0000
2300
0000
,
3100
0001
0000
0000
2001
0000
0000
0000
3100
0000
0000
0000
0010
0000
0000
0000
,
0100
1000
0001
0000
0100
0010
0000
0100
0001
1000
0000
0100
0000
0200
0000
0000
,
0320
1000
1000
0100
,
0100
0000
0000
0000
0031
1000
0000
0010
0000
0100
0000
0100
0000
0002
0000
0000
,
1003
0001
0000
0000
2001
0000
0000
0000
3010
0000
0000
0000
0100
0000
0000
0000
,
0001
0000
1000
0100
0000
0000
1000
0000
0001
0100
0000
0000
0001
0000
1000
0000
,
0010
0000
0100
0000
0010
0000
0001
0000
0010
0000
1000
0001
0000
1000
0001
0000
,
1000
0000
0100
0000
0010
0000
0100
0000
0000
0000
1000
0000
0001
0000
0100
0010
,
0000
0100
0010
0000
1000
0000
0100
0010
0000
0100
0020
0000
1000
0000
1000
0000
,
0130
1000
0010
0100
0020
0000
0001
0001
,
1030
0001
0100
0010
0100
1000
0100
0001
,
0001
0000
0010
0100
0000
0010
0001
0000
1000
0000
0010
0100
0000
0010
0000
1000
,
0001
0010
0100
0100
1000
0010
0100
0100
,
0001
0100
0010
0100
0001
0010
0100
1100
,
1000
0000
0010
0000
0100
0000
0001
1000
0000
0001
0100
0000
1000
0000
0100
0000
,
0001
0000
0010
0000
0100
0000
1000
0001
0000
1000
0100
0000
0001
0100
0000
0000
,
1000
0010
0000
0100
0010
0000
1000
0100
0000
0010
0100
0000
1000
0001
0000
0100
,
0000
0010
0000
1000
0001
0000
0010
0000
0100
0000
1000
0000
1000
0000
0001
0000
,
1000
0000
0010
0000
0100
0010
0000
0100
0001
0000
1000
0000
0100
0000
0010
0000
,
0001
0000
0100
0010
0000
0000
1000
0000
0010
0100
0000
0000
0001
0000
1000
0000
,
0001
0010
1000
0001
0100
0010
0001
0100
,
1000
0001
0010
0110
0000
0100
0001
1001
,
1000
1100
0102
1003
,
0010
0100
0000
1000
0000
2000
0000
0000
3100
0010
0000
0001
0000
0002
0000
0000
,
0013
0000
1000
0000
0001
0000
0010
0100
0000
0000
1002
0000
0000
0000
0000
0103
,
0020
0000
0000
0100
0000
1000
0000
1030
0200
0000
0000
0010
0000
1000
0000
1300
,
0001
0101
2100
3001
,
0010
0100
0000
0001
0000
0002
0000
0000
0103
0010
0000
1000
0000
2000
0000
0000
,
3010
0000
0001
0000
1000
0000
0010
0100
0000
0000
2001
0000
0000
0000
0000
3010
,
0100
0000
0000
0010
0000
0010
0000
0100
0000
0000
0200
0000
0000
0000
0000
0000
,
0301
1000
0100
0000
1000
0001
0100
0000
,
0020
0100
1030
0000
0020
0100
1030
1000
,
0001
1000
0010
0000
1000
0001
0010
0000
,
0020
0100
0031
0000
0020
0100
0031
0001
,
1000
0001
0100
0000
0001
1000
0100
0000
,
0200
1000
0310
0000
0020
0100
0031
0000
,
0001
1000
0010
0000
1000
0001
0010
0000
,
0100
1000
0001
0100
0010
0100
0001
1000
,
0001
0000
0010
0100
0000
0010
0100
0000
0010
0001
0000
0010
0001
0000
1000
0001
,
0200
0000
0000
0000
0000
0000
0000
0000
0000
0020
0000
0000
0000
0000
0000
0000
,
0330
0000
0000
0000
;

//--------------- dance-single - chrononical ----------------
#NOTES:
     dance-single:
     chrononical:
     Hard:
     14:
     0,0,0,0,0:
0000
0000
0000
0000
,
0000
0000
0000
0000
,
0000
0000
0000
0000
,
2001
0000
0000
0000
3100
0000
0000
0000
0010
0001
1000
0001
0100
0010
0000
0010
,
0100
0000
0000
0000
0001
0000
0000
1000
0200
0000
0000
0000
0010
0000
0302
0000
,
0103
1000
0000
0000
1002
0000
0000
0000
0103
0000
0000
0000
0010
0000
0000
0000
,
0100
0001
1000
0001
0010
0100
0000
0100
0001
0100
0000
1000
0000
0002
0000
0000
,
0203
1000
1000
0010
,
0010
0000
0000
0000
0301
0010
0000
0010
0000
0100
0000
0100
0000
2000
0000
0000
,
3001
0100
0000
0000
2001
0000
0000
0000
3100
0000
0000
0000
0010
0000
0000
0000
,
0001
0000
1000
0001
0000
1000
0100
0000
1000
0001
0000
1000
0010
0000
0100
0001
,
1000
0000
0010
1000
0001
0000
0010
0000
0100
0000
0001
0100
0000
0100
1000
0000
,
0001
0100
0010
0000
0010
0100
0001
0000
1000
0100
0010
0100
1000
0000
0001
1000
,
0000
0001
1000
0010
0100
0000
0010
0100
0000
0100
2000
0000
0001
0000
0001
0000
,
3100
0001
1000
0000
0100
0000
0010
0100
0002
0000
0000
0000
1000
0000
1000
0000
,
0103
0000
1000
0000
0001
0100
0010
0100
1000
0000
0001
0000
0010
0000
1000
0000
,
0001
0000
0010
0100
0000
0010
0001
0000
1000
0000
0010
0100
0000
0010
1000
0001
,
1000
0000
0100
0000
0001
0000
0100
0000
1000
0010
0100
1000
0100
0000
0001
0000
,
1000
0100
0000
0010
0000
0000
0100
0000
1000
0001
0100
0010
0000
1000
1010
0000
,
1000
0000
0100
0010
0100
0000
1000
0010
0000
0010
0100
0000
1000
0000
0100
0000
,
0001
0000
0010
0100
0010
0000
0001
0100
0000
0100
0010
0001
0010
2000
0000
0000
,
3001
0100
0000
0100
1000
0000
1000
0100
0000
0100
0001
0000
0001
0010
0000
0100
,
0000
1000
0000
0100
0010
0000
0100
0000
1000
0000
0001
0100
0001
0000
1000
0000
,
0001
0000
0100
0000
0010
1000
0000
1000
0001
0010
0100
0000
1000
0000
0001
0000
,
1000
0010
0100
0010
0000
0010
0001
0010
0100
0010
0000
1000
0001
0010
0100
1000
,
0100
0000
0010
0000
1000
0000
0001
0000
0100
0000
1000
0001
1000
0010
0100
0000
,
1000
0000
0001
0010
0100
0000
0110
0000
0100
0000
0010
0000
1000
0000
1100
0000
,
0100
0000
0001
0000
0101
0000
0000
0000
2100
0000
0000
0000
3001
0000
0100
0001
,
1000
0200
0000
0001
0000
0010
0000
1300
0001
0200
0000
1000
0000
0010
0000
0301
,
1000
0000
0001
0000
1000
0000
0100
0010
0000
0000
2001
0000
0010
0000
0000
3001
,
0100
0020
0000
0001
0000
0001
0000
1030
0100
0020
0000
1000
0000
1000
0000
0031
,
0100
0000
1000
0000
1100
0000
0000
0000
0102
0000
0000
0000
1003
0000
0010
1000
,
0001
0020
0000
1000
0000
0100
0000
0031
1000
0020
0000
0001
0000
0100
0000
1030
,
0001
0000
1000
0000
0001
0000
0010
0100
0000
0000
1002
0000
0100
0000
0000
1003
,
0010
0100
0000
1000
0000
0100
0000
0110
0000
0000
1001
0000
0001
0000
0010
0100
,
1000
0000
0010
0000
0100
0000
0010
0000
1000
0001
0010
0000
0100
0000
1000
0020
,
0100
0000
0001
0000
1030
0000
0001
0020
0100
0000
1000
0000
0031
0000
0010
0001
,
1000
0000
0100
0000
0010
0000
0100
0000
1000
0001
0100
0000
0010
0000
1000
0200
,
0010
0000
0001
0000
1300
0000
0001
0200
0010
0000
1000
0000
0301
0000
0001
1000
,
0001
0000
0010
0000
0100
0000
0010
0000
0001
1000
0010
0000
0100
0000
0001
0020
,
0100
0000
1000
0000
0031
0000
1000
0200
0010
0000
0001
0000
1300
0000
0100
1000
,
0001
0000
0100
0000
0010
0000
0100
0000
0001
1000
0100
0000
0010
0000
0001
0100
,
0010
0000
0100
0000
0001
1000
0000
0100
0000
1000
0001
0000
0100
0000
0100
0001
,
1000
0000
1000
0100
0000
0100
0010
0000
0010
0001
0000
0001
1000
0000
1000
0001
,
0200
0000
0000
0000
0000
0000
0000
0000
0000
0020
0000
0000
0000
0000
0000
0000
,
0330
0000
0000
0000
;
