#TITLE:Make it Critical;
#SUBTITLE:;
#ARTIST:lapix;
#TITLETRANSLIT:;
#SUBTITLETRANSLIT:;
#ARTISTTRANSLIT:;
#GENRE:;
#CREDIT:;
#BANNER:Make it Critical.png;
#BACKGROUND:Make it Critical-bg.png;
#LYRICSPATH:;
#CDTITLE:;
#MUSIC:Make it Critical.ogg;
#OFFSET:-1.405416;
#SAMPLESTART:42.515007;
#SAMPLELENGTH:15.000000;
#SELECTABLE:YES;
#BPMS:0.000000=175.000000
;
#STOPS:
;
#BGCHANGES:;
#KEYSOUNDS:;
#ATTACKS:;

//---------------dance-single - ----------------
#NOTES:
     dance-single:
     :
     Hard:
     13:
     0.611096,0.725406,0.927459,0.321772,0.056783,452.000000,354.000000,98.000000,34.000000,0.000000,0.000000,0.611096,0.725406,0.927459,0.321772,0.056783,452.000000,354.000000,98.000000,34.000000,0.000000,0.000000:
0000
0000
0000
0000
,
0000
0000
0000
0000
,
0000
0000
0000
0000
,
0000
0000
0000
0000
,
1000
0100
0010
0000
0010
0001
0100
0000
,
0001
0100
0100
0010
0000
1000
0100
0000
,
1000
0001
0010
0000
0010
0100
1000
0000
,
0001
0000
1000
0000
0010
0000
0100
0000
0010
0000
0100
0000
0001
1000
0000
1000
,
0001
0000
0001
0010
0100
1000
0000
1010
,
0000
1001
0000
1100
0000
0100
0010
0000
,
1001
0000
1000
0010
0100
1000
0000
1010
,
0000
0101
0000
0011
0000
0010
0100
0100
,
1000
0000
0001
0010
1000
0010
0000
0011
,
0000
1001
0000
0101
0000
0100
0010
0000
,
1001
0000
0001
0010
0100
0001
0000
0011
,
0000
1100
0000
0110
0000
0100
1000
0010
,
0200
0000
0010
0001
,
0010
1000
0010
0001
,
0310
0020
0100
1000
,
0100
0001
0100
1000
,
2030
0000
0010
0100
,
0001
0100
0010
0100
,
3001
0002
0100
0010
,
0103
0100
0001
1000
0001
1000
0100
0010
,
0200
0010
0320
0001
,
0032
0100
0203
0010
,
0320
2030
3002
2003
,
3200
0320
0032
0203
,
0310
0100
0001
1000
0100
0010
0001
1000
,
0010
1000
0001
1000
0100
1000
0001
0010
,
0200
0000
0000
0300
,
0110
0000
0110
0000
0011
0100
1001
0000
,
1000
0010
0100
0010
1010
0000
0101
0000
,
0011
0000
0101
0000
1001
1000
0010
0000
,
1000
0001
0010
0100
0110
0000
0011
0000
,
1010
0010
0100
0010
1000
0100
0001
0000
,
0100
0010
0011
0000
0110
0000
1100
0000
,
0101
0000
0110
0000
1010
0000
1001
0001
,
0100
0010
1010
0000
1100
0000
0101
0000
,
0011
0000
0000
0001
0000
0000
0001
0000
1000
0000
0001
0100
0020
0000
0000
0000
,
1030
0010
0001
0000
0011
0000
0110
0000
,
1010
0000
1001
0000
1010
0010
0110
0000
,
1000
0020
0001
0000
1000
0000
0001
0000
,
0130
0000
0100
0001
1000
0100
0010
0000
,
0001
0010
1000
0000
1010
0000
0110
0000
,
0011
0101
2020
0030
,
0002
0000
0000
3003
,
0001
0000
1000
0100
0010
0000
0001
0010
0100
0000
0100
0000
0110
0000
0000
0000
,
2001
3001
0101
0110
,
1010
0110
0101
1001
,
0012
0103
1010
1001
,
1100
0000
1001
0000
0011
0010
0100
0000
,
2100
3010
1010
0011
,
0101
1100
1001
0110
,
1002
0100
1003
1001
,
1000
0000
0100
0000
0010
0000
0001
0000
1000
0000
0000
1010
0000
0000
1010
0000
,
0120
0130
0101
1001
,
1100
1010
0021
0130
,
0011
1001
0101
0110
,
0010
1000
0100
1000
0010
0100
0001
0000
,
1002
0103
0110
1001
,
0011
0110
1100
0101
,
0001
0010
0110
0100
1000
0001
1001
0001
,
0100
0000
0100
0000
0001
0000
0100
0010
0000
0010
1000
0001
0200
0000
0000
0000
,
0301
1000
0001
0000
0001
0010
0000
2010
,
0000
0001
0000
3100
0000
0100
0010
0000
,
0100
1000
0100
0000
0100
0010
0000
0011
,
0000
0110
0000
1100
0000
0100
1000
0001
,
0100
0010
0100
0000
0001
0001
0000
0012
,
0000
1000
0000
0103
0000
0100
0010
0100
,
0001
0010
0100
0000
1000
0010
0100
0000
,
0001
0000
0001
0000
1000
0000
1000
0000
0001
0010
0001
1000
0100
0000
0000
0000
,
2002
0000
0000
0000
,
3003
0000
0000
0000
;

//---------------dance-single - ----------------
#NOTES:
     dance-single:
     :
     Medium:
     10:
     0.447506,0.587233,0.397483,0.605688,0.009464,331.000000,289.000000,42.000000,64.000000,0.000000,0.000000,0.447506,0.587233,0.397483,0.605688,0.009464,331.000000,289.000000,42.000000,64.000000,0.000000,0.000000:
0000
0000
0000
0000
,
0000
0000
0000
0000
,
0000
0000
0000
0000
,
0000
0000
0000
0000
,
1000
0000
0100
1000
0000
0000
0001
0000
,
0001
0000
0100
0001
0000
0000
1000
0000
,
1000
0000
0100
0010
0000
0000
0010
0000
,
0001
0000
0100
0000
0100
0010
0100
0000
,
0001
0000
0100
0000
0010
0020
0000
1000
,
0000
0100
0000
2030
0000
0000
3100
0000
,
1000
0000
0100
0000
0010
0020
0000
1000
,
0000
0100
0000
0032
0000
0000
0103
0000
,
0001
0000
0010
0000
0100
0200
0000
1000
,
0000
0010
0000
2300
0000
0000
3010
0000
,
1000
0000
0010
0000
0100
0200
0000
0310
,
0000
0110
0000
1001
0000
0001
1000
0100
,
2000
0000
0100
0100
,
0001
0001
0100
0100
,
3010
0010
0100
0100
,
0001
1000
0100
0010
,
0002
0000
0100
0100
,
1000
1000
0100
0100
,
0013
0010
0100
0100
,
1000
0100
1000
0100
0010
0001
0010
0000
,
0002
1000
2003
3200
,
0320
0032
0023
0230
,
2300
0010
3020
0230
,
0302
0203
0320
2030
,
3001
0101
1001
1100
,
1001
0011
1010
0110
,
2002
0000
0000
3003
,
0001
0000
0001
0100
0010
1000
0002
0000
,
1003
0100
2000
0000
0010
0000
0100
0000
,
0001
0100
3010
0101
,
0001
0010
0002
0000
0100
0000
1003
0000
,
1000
1100
0001
0101
,
0001
0100
0020
0000
1000
0000
0100
0000
,
0001
0100
1030
1000
,
0001
0010
1000
0000
0010
0000
0001
0000
,
1000
0000
0000
1000
0000
0000
1000
0000
0010
0000
0000
0000
0101
0000
0000
0000
,
0001
0100
0002
0000
0010
0000
0100
0000
,
1000
0100
0013
1100
,
1000
0010
2000
0000
0100
0000
3001
0000
,
0001
0101
1000
1100
,
2000
3200
0320
0032
,
0203
0320
2030
3020
,
0032
0000
0000
0003
,
0110
0000
0110
0000
0010
1000
0001
0000
,
0101
0101
2100
0001
,
0010
0001
3100
0110
,
0022
0033
1002
0103
,
2001
0010
3100
0010
,
0100
1000
0001
0000
0101
0000
0101
0000
,
0001
1000
0100
0000
1100
0000
0100
0000
,
2000
3020
0230
0302
,
0013
0000
0000
0000
0100
0000
0010
0000
0001
0000
0000
0001
0000
0000
0001
0000
,
0200
0310
1010
1010
,
1000
0011
0011
0100
,
0012
1000
0100
1003
,
0001
0100
0010
0000
1000
0100
0010
0000
,
0200
1300
1100
1001
,
0101
1001
1010
0110
,
0002
0023
0230
2300
,
3010
0000
0010
0000
0010
0100
0010
0000
,
1000
0000
0100
0000
0010
0020
0000
0001
,
0000
0100
0000
0032
0000
0000
0103
0000
,
0001
0000
0100
0000
0010
0020
0000
0001
,
0000
0100
0000
2030
0000
0000
3100
0000
,
1000
0000
0010
0000
0100
0200
0000
0001
,
0000
0010
0000
0302
0000
0000
0013
0000
,
0001
0000
0010
0000
0100
0200
0000
0310
,
0000
0110
0000
1001
0000
0001
1000
0100
,
0020
0000
0000
0000
,
0030
0000
0000
0000
;

//---------------dance-single - ----------------
#NOTES:
     dance-single:
     :
     Easy:
     7:
     0.315012,0.345431,0.085175,0.312308,0.000000,233.000000,224.000000,9.000000,33.000000,0.000000,0.000000,0.315012,0.345431,0.085175,0.312308,0.000000,233.000000,224.000000,9.000000,33.000000,0.000000,0.000000:
0000
0000
0000
0000
,
0000
0000
0000
0000
,
0000
0000
0000
0000
,
0000
0000
0000
0000
,
2000
3100
0000
0100
,
0000
1000
0000
1000
,
0002
0103
0000
0100
,
0000
0001
0000
1001
,
0001
0000
0100
0000
0010
0000
0000
0010
,
0000
0100
0000
0002
0000
0000
0003
0000
,
1000
0000
0100
0000
0010
0000
0000
0100
,
0000
1000
0000
0002
0000
0000
0003
0000
,
1000
0000
0010
0000
0100
0000
0000
0100
,
0000
0010
0000
2000
0000
0000
3000
0000
,
0001
0000
0010
0000
0100
0000
0000
0100
,
0000
1000
0000
0002
0000
0000
0003
0000
,
2002
3003
0001
0100
,
0010
0100
0001
0100
,
0010
1000
0100
1000
,
0010
1000
0100
0010
,
0220
0330
1000
0100
,
0010
0100
1000
0100
,
0010
0001
0100
0001
,
0010
0010
0020
0030
,
0001
0200
0300
0020
,
0030
2000
3000
0100
,
2000
3000
0200
0300
,
0010
0001
1000
0010
,
1000
0100
0000
1100
,
0000
1001
0000
0101
,
0200
0000
0000
0300
,
0010
0100
0010
0110
,
1000
0010
0100
0001
,
0100
0010
1000
0001
,
1000
0001
0010
0100
,
1000
1000
0200
1300
,
0001
0100
0010
1000
,
0010
0100
0001
1000
,
0001
0010
0100
1000
,
0020
0000
0130
1001
,
0001
0100
0010
0100
,
1000
0100
0001
1000
,
0001
0010
0100
0010
,
1000
0010
0001
0100
,
0001
0100
0010
0100
,
0010
1000
1001
0000
,
0200
0000
0000
0300
,
1000
1000
2000
3000
,
0001
0001
0010
0010
,
0100
0010
0001
1000
,
0002
0003
1000
1000
,
0010
0100
0020
0030
,
2000
3010
0010
0010
,
0100
0001
1000
0100
,
2000
3000
0001
0001
,
0010
0100
0020
0030
,
0002
0103
0001
0001
,
0100
0100
0010
0100
,
0010
0010
1000
1000
,
0100
1000
0001
1000
,
0010
0010
1000
0100
,
0010
0001
0100
0010
,
0100
0001
0010
0100
,
2000
0000
0000
3000
,
0001
0000
0010
0000
0100
0000
0000
0100
,
0000
0010
0000
0002
0000
0000
0003
0000
,
1000
0000
0010
0000
0100
0000
0000
0010
,
0000
1000
0000
0002
0000
0000
0003
0000
,
1000
0000
0100
0000
0010
0000
0000
0010
,
0000
0100
0000
2000
0000
0000
3000
0000
,
0001
0000
0100
0000
0010
0000
0000
0010
,
0000
1000
0000
0002
0000
0000
0003
0000
,
0200
0000
0000
0000
,
0300
0000
0000
0000
;

//---------------dance-single - ----------------
#NOTES:
     dance-single:
     :
     Beginner:
     2:
     0.158182,0.204420,0.066247,0.000000,0.000000,117.000000,110.000000,7.000000,0.000000,0.000000,0.000000,0.158182,0.204420,0.066247,0.000000,0.000000,117.000000,110.000000,7.000000,0.000000,0.000000,0.000000:
0000
0000
0000
0000
,
0000
0000
0000
0000
,
0000
0000
0000
0000
,
0000
0000
0000
0000
,
1000
0000
0000
0000
,
1000
0000
0000
0000
,
0001
0000
0000
0000
,
0001
0000
0000
0000
,
1000
0000
0010
0000
,
1000
0000
0000
0000
,
0001
0000
0010
0000
,
0001
0000
0000
0000
,
1000
0000
0100
0000
,
1000
0000
0000
0000
,
0001
0000
0100
0000
,
0001
0000
0000
0000
,
1001
0000
0000
0000
,
0000
0000
0000
0000
,
0110
0000
0000
0000
,
0000
0000
0000
0000
,
1001
0000
0000
0000
,
0000
0000
0000
0000
,
0110
0000
0000
0000
,
0000
0000
0000
0000
,
1000
0100
0000
0100
,
0000
0100
0000
0100
,
0010
0000
0010
0000
,
0010
0000
0010
0000
,
0001
0000
0001
0000
,
1000
0000
1000
0000
,
1001
0000
0000
0000
,
1000
0001
1000
0000
,
0001
0000
0001
0000
,
0010
0000
0010
0000
,
0001
0000
0001
0000
,
0100
0000
0000
0000
,
1000
0000
1000
0000
,
0010
0000
0010
0000
,
1000
0000
1000
0000
,
0100
0000
0000
0000
,
0001
0000
0100
0000
,
0001
0000
0010
0000
,
0001
0000
0100
0000
,
0001
0000
0000
0000
,
1000
0000
0100
0000
,
1000
0000
0010
0000
,
1001
0000
0000
0000
,
0001
1000
0001
0000
,
0100
0000
0100
0000
,
0010
0000
0010
0000
,
0100
0000
0010
0000
,
0010
0000
0100
0000
,
0001
0000
0001
0000
,
1000
0000
0001
0000
,
0001
0000
1000
0000
,
1000
0000
0100
0000
,
1000
0000
1000
0000
,
0100
0000
0010
0000
,
0010
0000
0001
0000
,
0001
0000
0100
0000
,
0001
0000
0100
0000
,
0010
0000
1000
0000
,
0100
0000
0010
0000
,
0001
0000
0000
0000
,
1000
0000
0100
0000
,
1000
0000
0000
0000
,
0001
0000
0100
0000
,
0001
0000
0000
0000
,
1000
0000
0010
0000
,
1000
0000
0000
0000
,
0001
0000
0010
0000
,
0001
0000
0000
0000
,
1001
0000
0000
0000
;
