#VERSION:0.83;
#TITLE:Magical Girl and Chocolate;
#SUBTITLE:;
#ARTIST:Pinocchio-P feat. Hatsune Miku;
#TITLETRANSLIT:;
#SUBTITLETRANSLIT:;
#ARTISTTRANSLIT:;
#GENRE:;
#CREDIT:Kikoia;
#MUSIC:Magical Girl and Chocolate.ogg;
#BANNER:Magical Girl and Chocolate.png;
#BACKGROUND:Magical Girl and Chocolate-bg.png;
#CDTITLE:;
#SAMPLESTART:44.872;
#SAMPLELENGTH:12.600;
#SELECTABLE:YES;
#OFFSET:-0.472;
#BPMS:0.000=150.000;
#STOPS:6.000=0.400;
#WARPS:180.000=4.000,
192.000=8.000
;
#SPEEDS:6.000=1.000=0.000=0;
#SCROLLS:60.000=1.000,
71.000=0.500,
72.000=1.000,
75.000=0.500,
76.000=1.000,
82.000=0.750,
82.500=1.000
;
#BGCHANGES:-1.150=Magical Girl and Chocolate.avi=1.000=1=0=0=StretchNoLoop==CrossFade==;
#FGCHANGES:;

//--------------- dance-single - ----------------
#NOTEDATA:;
#STEPSTYPE:dance-single;
#DESCRIPTION:;
#DIFFICULTY:Beginner;
#METER:4;
#RADARVALUES:0,0,0,0,0;
#CREDIT:Kikoia;
#NOTES:
0000
0000
0000
0000
,
0000
0000
0000
1000
,
0000
0000
0000
0000
,
0000
0000
0000
1000
,
0000
0000
0000
0000
,
0000
0000
0000
0100
,
0000
0000
0000
0000
,
0000
0000
0000
0010
,
0000
0000
0000
1001
,
0000
0000
0000
0001
,
0000
0000
0000
0001
,
0000
0000
0000
1000
,
0000
0000
0000
1000
,
0000
0000
0000
0001
,
0000
0000
0000
0100
,
0000
0000
0000
0001
,
0000
0000
0000
0010
,
0000
0000
0000
0110
,
0000
0000
0000
1001
,
0000
0000
0000
0110
,
0000
0000
0000
1001
,
0000
0000
0000
0100
,
0000
0000
0000
0100
,
0000
0000
0000
0010
,
0000
0000
0000
0000
,
0000
0000
0000
0000
,
0000
0000
0000
0000
,
0000
0000
0000
0001
,
0000
0000
0000
0001
,
0000
0000
0000
1000
,
0000
0000
0000
1000
,
0000
0000
0000
0010
,
0000
0000
0000
0010
,
0000
0000
0000
0100
,
0000
0000
0000
0110
,
0000
0000
0000
1001
,
0000
0000
0000
0010
,
0000
0000
0000
0010
,
0000
0000
0000
0100
,
0000
0000
0000
1001
,
0000
0000
0000
0100
,
0000
0000
0000
0100
,
0000
0000
0000
0010
,
0010
0010
0000
0000
,
0000
0000
0000
0000
,
0000
0000
0000
0000
,
0000
0000
0000
0000
,
0000
0000
0000
0000
,
0000
0000
0000
0000
,
0000
0000
0000
0000
,
0000
0000
0000
1000
,
0000
1000
0000
0001
,
0000
0001
0000
1001
,
0000
0110
0000
1001
,
0000
1000
0000
0100
,
0100
0000
0000
0000
,
0000
0000
0000
0000
,
0000
0000
0000
0000
,
0000
0000
0000
1000
,
0000
0000
0000
0001
,
0000
0000
0000
1000
,
0000
0000
0000
0010
,
0010
0010
0000
0000
,
1001
0000
0110
0000
,
1001
0000
0110
0000
,
1001
1000
1000
1000
,
0001
1000
0000
0001
,
0000
0000
0000
0010
,
0000
0000
0000
0100
,
0000
0000
0000
1000
,
0000
0000
0000
0010
,
0000
0000
0000
0100
,
0000
0000
0000
0001
,
0000
0000
0000
0110
,
0000
0000
1001
0000
;

//--------------- dance-single - ----------------
#NOTEDATA:;
#STEPSTYPE:dance-single;
#DESCRIPTION:;
#DIFFICULTY:Easy;
#METER:6;
#RADARVALUES:0,0,0,0,0;
#CREDIT:Kikoia;
#NOTES:
0000
0000
0000
0000
,
0000
0000
0000
1000
,
1000
2000
3000
1000
,
1000
2000
3000
0001
,
0000
0000
0000
0001
,
0000
0000
0000
0100
,
0100
0200
0300
0100
,
0100
0200
0300
0010
,
0000
0000
0000
0110
,
0000
1001
0000
2000
,
0000
0000
0000
3200
,
0000
0000
0000
0302
,
0000
0000
0000
0203
,
0000
0000
1300
0002
,
0000
0000
0000
0023
,
0000
0000
0000
2030
,
0000
0000
0000
3010
,
0001
0000
0000
1001
,
0000
0000
0000
0110
,
0000
0000
0000
1001
,
0000
0000
0000
0010
,
0010
0010
0000
1000
,
0000
0010
0000
0100
,
0000
0001
0000
0010
,
0000
0100
0000
1000
,
0000
0000
0000
0001
,
0000
0000
0000
1000
,
0000
0000
0110
1001
,
0000
1000
0000
0001
,
0000
0100
0000
0010
,
0000
1000
0000
0100
,
0100
0010
0000
0001
,
0000
1001
0000
1000
,
0000
1001
0000
0100
,
0000
0100
0000
0010
,
0010
0010
0000
1000
,
0001
1000
0000
0001
,
1000
0001
0000
0100
,
0010
0100
0000
0010
,
0100
0010
0000
1000
,
0001
1001
0000
0001
,
1000
1001
0000
1000
,
0100
0001
0000
0001
,
0100
1000
0000
0000
,
0000
0002
0203
0320
,
0030
0000
0000
0000
,
0000
0000
0000
0000
,
0000
2000
3200
0320
,
0030
0000
0000
0000
,
0000
0000
0000
0000
,
0000
0000
0000
1001
,
1000
0001
0001
1000
,
0001
1000
1000
1001
,
0000
0110
0000
0100
,
0100
0000
0100
0000
0000
0010
0000
1001
,
0000
0000
0000
0000
,
0000
0000
0000
0000
,
0000
0000
0000
0000
,
0000
0000
0110
1001
,
0000
0001
0000
1000
,
0000
0100
0000
0010
,
0000
0001
0000
0100
,
0100
0010
0010
1000
,
0000
1001
0000
0001
,
0000
1001
0000
0100
,
0000
0010
0000
0001
,
1000
0001
0110
1001
,
1000
0001
0000
1000
,
0001
1000
0000
0100
,
0010
0100
0000
0010
,
0100
0010
0000
0001
,
1000
1001
0000
1000
,
0001
1001
0000
0001
,
0100
1000
0100
0001
,
0000
1001
0000
0000
0010
0000
0000
0000
;

//--------------- dance-single - ----------------
#NOTEDATA:;
#STEPSTYPE:dance-single;
#DESCRIPTION:;
#DIFFICULTY:Medium;
#METER:8;
#RADARVALUES:0,0,0,0,0;
#CREDIT:Kikoia;
#NOTES:
0000
0000
0000
0000
,
0000
0000
0000
1000
,
0001
2000
3000
0001
,
1000
0002
0000
0203
,
0000
0320
0000
1030
,
0001
1001
0000
0001
,
1000
0002
0003
1000
,
0001
2000
0000
3200
,
0000
0320
0031
1000
,
0110
1001
0000
1000
,
1000
1000
0000
0100
,
0100
0100
0000
0001
,
0001
0001
0000
0100
,
0100
0100
0000
0010
,
0010
0010
0000
1000
,
1000
0001
0000
2000
,
0000
3002
0000
0023
,
0000
0030
0000
0220
,
0330
0000
0000
2002
,
3003
0000
0000
0001
,
1000
0001
0000
0100
,
0010
0100
0000
0001
,
0010
0100
0000
0010
,
0100
1000
0000
0001
,
1000
0001
1000
2002
,
0000
0000
0000
3003
,
0000
0000
0000
0000
,
0000
0000
0110
1001
,
1000
0010
0000
1001
,
0001
0010
0000
0100
,
1000
0100
0000
0010
,
0001
0010
0001
0200
,
0300
0020
0030
2000
,
3000
0002
0003
1000
,
1000
1000
0001
1001
,
0110
1001
0000
0001
,
0001
0001
0000
0100
,
0100
0100
0000
0001
,
1000
0001
0000
1000
,
0001
1000
0100
0020
,
0030
0011
0000
2000
,
3000
1010
0000
0001
,
1000
0001
1000
0010
,
0100
0110
0000
1001
,
0000
0000
0000
0000
,
0000
0000
0000
0000
,
0000
0220
0330
1001
,
0000
0000
0000
0000
,
0000
0000
0000
0000
,
0000
0000
0000
0000
,
0000
0220
0330
1001
,
1000
1000
0001
0100
,
0100
0100
0010
2000
,
3000
0200
0300
1000
,
0001
0000
1000
0000
0001
1000
0000
1001
,
0000
0000
0000
0000
,
0000
0000
0000
0000
,
0000
0000
0000
0000
,
0000
0000
0110
1001
,
0001
0010
0000
1001
,
1000
0010
0000
0100
,
0001
0100
0000
0010
,
0010
1000
1000
0200
,
0300
0020
0030
0002
,
0003
2000
3000
0001
,
0001
0001
1000
1001
,
0110
1001
0002
1003
,
1000
1000
0000
0100
,
0100
0100
0000
1000
,
0001
1000
0000
0001
,
1000
0001
0100
0020
,
0030
1010
0000
0002
,
0003
0011
0000
1001
,
0000
0000
0000
0010
,
0000
0110
0000
0000
1001
0000
0000
0000
;

//--------------- dance-single - ----------------
#NOTEDATA:;
#STEPSTYPE:dance-single;
#DESCRIPTION:;
#DIFFICULTY:Hard;
#METER:12;
#RADARVALUES:0,0,0,0,0;
#CREDIT:Kikoia;
#NOTES:
0000
0000
0000
0000
,
0000
0000
0000
0000
2002
3003
1000
0001
,
1000
0001
0100
0010
1000
0000
0001
1000
,
0001
0010
0100
1000
0001
0000
1000
0100
,
0020
0000
0031
0010
0200
0000
1300
0010
,
0100
0001
0000
0000
0101
0000
0001
1000
,
0001
1000
0010
0100
0001
0010
0100
1000
,
0100
1000
0001
0010
0100
1000
0001
0001
,
1000
1000
0010
0010
0100
0100
0001
0010
,
0100
0020
0000
0030
1001
0000
2000
0000
,
0000
3200
0000
0000
0310
0001
0200
0000
,
0000
0320
0000
0000
1030
0001
0100
0000
,
0000
0102
0000
1003
0010
0100
0001
1000
,
0001
0020
0000
0130
1000
0010
1010
0000
,
0000
1010
0000
0001
0010
0100
1100
0000
,
0000
1100
0000
0001
0100
0010
1000
0001
,
0100
0001
1000
0100
1000
0001
0000
2002
,
0000
3003
0000
1000
0100
0010
0002
0000
,
1003
0010
1000
0001
0010
0100
2000
0000
,
3010
1000
0100
1000
0001
0100
0001
0010
,
0001
1000
0001
0020
0000
0130
1000
0010
,
0100
0000
0001
2000
0000
0000
0000
0000
3001
0000
0000
0000
0101
0000
0000
0000
,
0101
0011
1000
1010
,
1010
0000
1100
0000
0001
0100
0020
0000
,
2030
0000
3100
0010
0001
2000
0000
0002
,
0000
3003
0000
2000
,
0000
0000
3020
0000
0000
0000
1030
0100
,
0010
0001
0200
0000
0320
0000
0130
0001
,
0010
0100
1000
0000
1100
0000
1000
0010
,
0100
0001
0010
0000
1001
0000
1000
0100
,
1000
0000
0100
0000
0001
0000
0100
0000
1000
0000
0001
0000
0100
0000
0000
0100
,
0000
0010
1000
0002
0000
1003
0001
0200
,
0000
0301
1000
0200
0000
1300
0001
0020
,
0000
0031
1000
0020
0000
0130
0001
0010
,
0001
1000
0010
0100
0001
0010
0110
0000
,
0110
0000
1002
0000
0100
0000
1003
0100
,
0001
0100
1000
0010
0100
0001
1000
0010
,
0001
0010
1000
0001
0010
0100
1000
0100
,
1000
0100
0010
0001
1000
0010
1010
0000
,
1100
0000
0000
0000
1001
0000
0000
0001
1000
0000
0010
0000
0100
0000
0001
0000
,
0100
0001
0010
0000
0011
0000
0001
0100
,
0001
0100
0010
0000
1001
0000
1000
0001
,
1000
0010
0100
0100
0001
0010
0100
0000
,
0110
0000
2002
0000
3003
0000
1000
1000
,
0001
0200
0000
0310
0100
0001
0010
0200
,
0300
0000
0000
0000
,
0000
0000
0000
0000
0000
0000
0001
0001
,
0100
0020
0000
1030
0001
0010
0100
2000
,
3000
0000
0000
0000
,
0000
0000
0000
0000
,
0000
0000
0000
2001
,
3010
0000
1000
0000
0100
0000
0010
0001
0000
0002
0000
0000
2003
0000
0000
0000
,
3010
0000
0100
0000
0001
0000
1000
0020
0000
0000
1030
0000
0001
0000
1001
0000
,
0000
0010
0100
0110
0000
1001
0001
1000
,
0001
0100
0010
0100
0001
0010
0000
0110
,
0000
0110
0000
0110
0000
1001
0000
0000
,
0000
0000
0000
0000
0000
0000
0001
0100
,
0001
1000
0020
0000
2030
0000
3002
0000
,
0003
0220
0000
0330
1002
0000
0013
0100
,
1000
0100
0010
0000
0011
0000
1000
0001
,
0100
0010
1000
0000
1010
0000
1000
0010
,
1000
0000
0010
0000
0001
0000
0010
0000
1000
0000
0001
0000
0100
0000
0000
0100
,
0000
0001
1000
0002
0000
1003
0001
0200
,
0000
0301
1000
0020
0000
1030
0100
0020
,
0000
0130
1000
0020
0000
0130
0001
0010
,
0100
1000
0010
0100
0001
1000
0001
0000
,
0101
1000
2001
0000
0010
0000
3001
0100
,
0010
0100
0001
0100
0010
1000
0100
1000
,
0010
1000
0100
1000
0010
0100
0001
0010
,
0001
0010
0100
1000
0010
0100
0101
0000
,
1100
0000
0000
0000
1002
0000
0000
0013
0100
0000
1000
0000
0001
0000
0100
0000
,
0001
0100
0010
0000
1010
0000
1000
0100
,
1000
0100
0010
0000
0012
0000
0103
0000
,
0000
0000
0000
0110
,
0000
0000
1001
0000
0000
0000
1000
0001
0020
0000
0000
0000
0030
0000
0000
0000
;

//--------------- dance-single - ----------------
#NOTEDATA:;
#STEPSTYPE:dance-single;
#DESCRIPTION:;
#DIFFICULTY:Challenge;
#METER:14;
#RADARVALUES:0,0,0,0,0;
#CREDIT:Kikoia;
#NOTES:
0000
0000
0000
0000
,
0000
0000
0000
0000
0000
0000
0000
0000
MMMM
0000
0000
0000
1000
0001
1000
0000
,
0010
0100
0000
0010
0000
1000
0000
0001
0010
0000
0100
0000
1000
0100
1000
0000
,
0001
0010
0000
0100
0000
0010
0000
0001
0100
0000
0020
0000
0000
0000
1030
0000
,
0100
0010
0001
1000
0010
0100
0001
1000
,
0001
0000
0010
0000
0000
0000
0000
0000
1001
0000
0000
0000
1000
0100
0010
0000
,
0001
0100
0000
0010
0000
1000
0000
0001
0010
0000
0100
0000
1000
0001
0010
0000
,
0001
1000
0000
0010
0000
0100
0000
0001
0010
0000
0001
0000
0100
0000
0010
1000
,
0010
1000
0001
0010
0100
1000
1100
0000
,
0001
0202
0000
0000
0303
0000
1001
0001
,
0100
0000
0001
0010
0000
0000
0001
0000
1000
0000
0020
0000
0000
0000
1030
0000
,
0001
0000
1000
0100
0000
0000
1000
0000
0001
0000
0020
0000
0000
0000
0130
0000
,
1000
0000
0100
0010
0000
0010
0001
0000
1000
0000
0010
0000
0100
0000
0001
0000
,
0010
0002
0000
1003
1001
0000
0000
0001
,
0010
0000
0100
1000
0000
0001
0000
0100
1000
0000
0100
0000
0001
0000
1000
0000
,
0010
0000
0100
0001
0000
1000
0000
0100
0001
0000
0100
0000
1000
0000
0010
0000
,
0100
0001
1000
0100
0010
0110
0000
0012
,
0000
0000
0000
0103
0001
1000
MMMM
0000
,
1000
0000
0100
1000
0000
0000
0001
0000
0100
0000
0010
0000
MMMM
0000
0000
0000
,
0001
0000
1000
0010
0000
0000
1000
0000
0001
0000
0010
0000
0100
0000
1000
0000
,
0100
1000
0001
0010
MMMM
1000
0010
0100
,
0001
0000
1000
0010
0000
0000
1000
0000
0100
0000
1000
0000
0001
0000
1000
0100
,
0000
0100
0010
0000
0011
0000
0000
0000
0001
0000
1000
0000
0001
0000
0100
0010
,
0000
0010
1000
0000
2001
0000
0000
0000
3100
0000
0010
0000
0001
0000
0000
1000
,
0010
0000
0000
0010
0100
0000
0000
0100
0001
0000
1000
0000
0000
0000
0220
0000
,
0000
0000
0000
0330
,
2000
3001
0000
0000
0002
1003
0000
0000
,
0000
0000
0000
0000
0110
0000
2001
3100
,
0010
0000
0001
1000
0010
0000
0100
0000
0001
0000
0010
0000
0100
0000
1000
0000
,
0010
0000
1000
0100
0010
0000
0001
0000
0100
0000
0001
0000
1000
0000
0010
0000
,
1000
0100
0001
0100
0010
0001
1000
0010
,
0100
0001
0010
0100
1100
0001
0100
0010
,
MMMM
0001
1000
0100
MMMM
0001
1000
0010
,
MMMM
0010
1000
0001
MMMM
0001
1000
0100
,
0001
0000
0100
0000
1000
0000
0010
0100
0001
0000
1000
0000
0001
0000
0000
0000
,
0011
1000
0020
0000
0230
0000
0301
1000
,
0001
0010
0000
0001
0000
0100
0000
0001
0010
0000
0001
0000
1000
0000
0100
0000
,
1000
0010
0000
1000
0000
0100
0000
1000
0001
0000
0100
0000
0001
0000
0010
0000
,
0100
1000
0001
0100
0010
1000
1010
0000
,
0110
0000
0000
0000
0101
0000
0001
0010
0100
0000
1000
0000
0001
0000
0100
0010
,
0100
0000
0010
1000
0010
0000
1000
0000
0001
0000
0010
0000
0001
0000
1000
0100
,
1000
0000
0100
0010
0001
0000
1000
0000
0010
0000
0100
0000
0001
0000
1000
0000
,
0001
0010
0100
1000
0100
0010
0011
0000
,
0101
0000
2002
0000
3003
0000
1000
2000
,
0000
3200
0000
0301
0100
1000
0010
0100
,
0202
0000
0000
0303
2200
0000
0000
0000
3300
0000
0000
0000
0000
0000
0000
0000
,
M1M1
M0M0
M0M0
0000
2200
0000
0000
0000
3300
0000
0000
0000
0001
0000
0002
0000
,
0000
0023
0000
1030
0010
0001
1000
0010
,
0220
0000
0000
0330
2002
0000
3003
0000
2000
3001
1000
0001
0020
0000
0000
0000
,
0032
0000
0203
0000
0320
0000
1030
0001
0000
0001
2000
0000
3200
0000
0000
0300
,
M11M
M00M
M00M
0000
2002
0000
3003
0000
2000
3001
1000
0001
0020
0000
0000
0000
,
0032
0000
0203
0000
0320
0000
1030
0001
0000
0001
2000
0000
3200
0000
2300
0000
,
3020
0000
2030
0000
3200
0000
0310
0002
0000
0000
1003
0000
0010
0000
2010
0000
,
0000
3001
0010
0120
0000
0130
1000
0001
,
1000
0000
0010
0000
0200
0000
0000
0000
0301
0000
0020
0000
0000
0000
0200
0300
,
0000
0000
0200
0300
0000
0000
0200
0330
0000
0000
2002
3003
0000
0000
0000
0000
,
0000
0000
0000
0000
,
0000
0000
0000
0000
,
0000
0000
0000
0000
0000
0000
0000
0000
2000
0000
0000
0000
3001
0000
1000
0100
,
0010
0000
0001
1000
0010
0000
1000
0000
0001
0000
0100
0000
0001
0000
1000
0010
,
1000
0000
0001
0010
0001
0000
1000
0000
0100
0000
0010
0000
0001
0000
0100
0000
,
1000
0100
0010
1000
0001
0010
0100
1000
,
0010
0100
0001
0010
0011
1000
0010
0100
,
MMMM
1000
0100
0010
MMMM
1000
0001
0010
,
MMMM
0010
0001
0100
MMMM
1000
0001
0100
,
1000
0000
0100
0000
0001
0000
1000
0100
0010
0000
0001
0000
1000
0010
1000
0010
,
0100
0001
0010
0000
2002
3003
1000
0001
,
0100
2000
0000
3002
0000
2003
0000
3100
0001
0000
1000
0000
0001
0000
1000
0000
,
0100
0002
0000
2003
0000
3002
0000
0103
1000
0000
0001
0000
1000
0000
0001
0010
,
0001
1000
0100
0010
0001
0100
0110
0000
,
1010
0000
0000
0000
1001
0000
0001
0010
0100
0000
1000
0000
0001
0000
0100
0010
,
0100
0000
0010
1000
0001
0000
1000
0000
0100
0000
1000
0000
0010
0000
0100
0001
,
0010
0000
0100
1000
0001
0000
0100
0000
0010
0000
1000
0000
0110
0000
0000
0000
,
0000
0000
0000
1001
,
0001
0000
0020
0000
0000
0000
0130
1000
0002
0000
0000
0000
0003
0000
0000
0000
;
