#TITLE:無機質世界に彩を;
#SUBTITLE:;
#ARTIST:MisomyL;
#TITLETRANSLIT:MUKISHITSU SEKAI NI AYA WO;
#SUBTITLETRANSLIT:;
#ARTISTTRANSLIT:;
#GENRE:REC_montage_until_21XXXX;
#CREDIT:;
#BANNER:MUKISHITSU SEKAI NI AYA WO.png;
#BACKGROUND:MUKISHITSU SEKAI NI AYA WO-bg.png;
#LYRICSPATH:;
#CDTITLE:cdtitle.png;
#MUSIC:MUKISHITSU SEKAI NI AYA WO.ogg;
#OFFSET:-0.004000;
#SAMPLESTART:44.532001;
#SAMPLELENGTH:15.000000;
#SELECTABLE:YES;
#DISPLAYBPM:77.500000:155.000000;
#BPMS:0.000000=155.000000
,47.000000=310.000000
,48.000000=155.000000
,72.000000=310.000000
,95.000000=155.000000
,98.000000=310.000000
,98.500000=155.000000
,98.750000=77.500000
,99.000000=155.000000
,102.000000=310.000000
,103.000000=155.000000
,106.000000=310.000000
,106.500000=155.000000
,106.750000=77.500000
,107.000000=155.000000
,110.000000=310.000000
,111.000000=155.000000
,114.000000=310.000000
,114.500000=155.000000
,114.750000=77.500000
,115.000000=155.000000
,118.000000=310.000000
,119.000000=155.000000
,122.000000=310.000000
,122.500000=155.000000
,122.750000=77.500000
,123.000000=155.000000
,126.000000=310.000000
,127.000000=155.000000
,159.000000=77.500000
,194.000000=116.250000
,218.000000=310.000000
,235.000000=155.000000
,266.000000=77.500000
,268.000000=155.000000
,270.000000=310.000000
,278.000000=155.000000
,298.000000=77.500000
,314.000000=15.500000
,315.000000=77.500000
;
#STOPS:47.000000=0.048000,
47.250000=0.048000,
47.500000=0.048000,
47.750000=0.048000,
94.000000=0.048000,
94.250000=0.048000,
94.500000=0.048000,
94.750000=0.048000,
102.000000=0.048000,
102.250000=0.048000,
102.500000=0.048000,
102.750000=0.048000,
110.000000=0.048000,
110.250000=0.048000,
110.500000=0.048000,
110.750000=0.048000,
118.000000=0.048000,
118.250000=0.048000,
118.500000=0.048000,
118.750000=0.048000,
126.000000=0.048000,
126.250000=0.048000,
126.500000=0.048000,
126.750000=0.048000,
175.000000=3.871000,
234.000000=0.194000,
274.000000=0.129000,
274.666656=0.129000,
275.333344=0.129000,
276.000000=0.129000,
276.666656=0.129000,
277.333344=0.129000
;
#BGCHANGES:0.000=MUKISHITSU SEKAI NI AYA WO.avi=1.000=0=0=0=StretchNoLoop==CrossFade_Fastest==,
99999=-nosongbg-=1.000=0=0=0 // don't automatically add -songbackground-
;
#KEYSOUNDS:;
#ATTACKS:;

//---------------dance-single - Daff_4K -Ao-----------------
#NOTES:
     dance-single:
     Daff_4K -Ao-:
     Beginner:
     3:
     0.067551,0.134491,0.020559,0.000000,0.000000,69.000000,66.000000,3.000000,0.000000,0.000000,0.000000,0.067551,0.134491,0.020559,0.000000,0.000000,69.000000,66.000000,3.000000,0.000000,0.000000,0.000000:
0000
0000
0000
0000
,
0000
0000
0000
0000
,
0000
0000
0000
0000
,
0000
0000
0000
0000
,
0000
0000
0000
0000
,
0000
0000
0000
0000
,
0000
0000
0000
0000
,
0000
0000
0000
0000
,
0000
0000
0000
0000
,
0000
0000
0000
0000
,
0000
0000
0000
0000
,
0000
0000
0000
0000
,
1000
0000
1000
0000
,
0000
0000
0000
0001
,
0001
0000
0001
0000
,
0000
0000
0100
0000
,
0100
0000
0000
0000
,
0010
0000
0000
0000
,
0000
0000
0000
0000
,
0000
0000
0000
0000
,
0000
0000
0000
0000
,
0000
0000
0000
0000
,
0000
0000
0000
0000
,
0000
0000
0000
0000
,
0000
0000
1000
0000
,
0000
0000
0001
0000
,
0000
0000
1000
0000
,
0000
0000
0010
0000
,
0000
0000
0100
0000
,
0000
0000
0010
0000
,
0000
0000
0100
0000
,
0000
0000
0001
0000
,
0000
0000
0001
0001
,
0000
0000
0000
1000
,
0000
0000
0100
0100
,
0000
0010
0000
0001
,
0000
0000
1000
1000
,
0000
0000
0000
0010
,
0000
0000
0100
0100
,
0000
0001
0000
1000
,
0000
0000
0000
0100
,
0000
0000
0000
0010
,
0000
0000
0000
0001
,
0000
0000
0000
1000
,
0000
0000
0000
0000
,
0000
0000
0001
0000
,
0000
0000
0100
0000
,
0000
0000
0010
0000
,
0000
0000
1000
0000
,
0000
1000
0000
0000
,
1000
0000
0000
0000
,
0000
0000
0001
0000
,
0000
0001
0000
0000
,
0001
0000
0000
0000
,
0000
0000
1001
0000
,
0000
0000
0000
0000
,
0000
0000
0000
0000
,
0000
0000
0000
0000
,
0000
0000
0000
0000
,
0000
0000
1000
0000
,
1000
0000
1000
0000
,
0000
0000
0001
0000
,
0001
0000
0001
0000
,
0000
0000
0010
0000
,
0000
0000
0100
0000
,
0000
0000
1000
0000
,
0000
0000
1001
0000
,
0000
0000
0000
0000
,
0000
0000
0000
0000
,
0000
0000
0000
0000
,
0000
0000
0001
0000
,
0000
0000
1000
0000
,
0000
0000
0100
0000
,
0000
0000
0010
0000
,
0000
0000
1001
0000
,
0000
0000
0001
0000
,
0001
0000
1000
0000
,
1000
0000
0100
0000
,
0010
0000
0100
0000
;

//---------------dance-single - Daff_4K -Gelb-----------------
#NOTES:
     dance-single:
     Daff_4K -Gelb-:
     Easy:
     5:
     0.170347,0.268981,0.034265,0.404328,0.000000,174.000000,169.000000,5.000000,59.000000,0.000000,0.000000,0.170347,0.268981,0.034265,0.404328,0.000000,174.000000,169.000000,5.000000,59.000000,0.000000,0.000000:
0000
0000
0000
0000
,
0000
0000
0000
0000
,
0000
0000
0000
0000
,
0000
0000
0000
0000
,
0000
0000
0000
0000
,
0000
0000
0000
0000
,
0000
0000
0000
0000
,
0000
0000
0000
0000
,
0000
0000
0000
0000
,
0000
0000
0000
0000
,
0000
0000
0000
0000
,
0000
0000
0000
0000
,
2001
0000
3100
0000
,
0020
0000
0031
1000
,
1002
0000
0103
0000
,
0020
0000
1030
0001
,
0020
0000
0230
0000
,
2300
0000
3002
0000
,
0203
0000
0000
0000
,
0000
0000
0000
0000
,
0000
0000
0000
0000
,
0000
0000
0000
0000
,
0000
0000
0000
0000
,
0000
0000
0300
0001
,
0001
0010
0001
1000
,
1000
0010
1000
0100
,
0100
0010
0001
0100
,
0100
0010
1000
0001
,
0001
0100
0010
1000
,
1000
0100
0010
0001
,
0001
0100
0010
1000
,
1000
0100
0010
0002
,
0100
0103
0010
2000
,
0001
3001
1000
0200
,
0010
0310
0001
1000
,
0010
0100
0001
2000
,
0100
3100
0010
0002
,
1000
1003
0001
0200
,
0010
0310
1000
0100
,
0010
0001
1000
1002
,
0000
0203
0000
0320
,
0000
0031
0010
2000
,
0000
3200
0000
0320
,
0000
0032
0000
1003
,
0000
0000
2000
0000
,
3010
0000
0200
0000
,
0301
1000
0002
0000
,
0013
0000
0200
0000
,
1300
0001
0200
0000
,
0000
0000
0310
0000
0000
1000
0000
0000
,
0002
0000
0000
0013
,
0000
0010
0000
0000
0200
0000
0000
0000
,
0000
0000
0310
0000
0000
0001
0000
0000
,
2000
0000
0000
0002
,
0000
0000
3003
0000
,
0000
0000
0000
0000
,
0000
0000
0000
0000
,
0000
0000
0000
0000
,
0000
0000
0000
0002
,
0100
0103
0020
1030
,
2000
3001
2000
0100
,
0100
3100
0020
0031
,
0002
1003
0002
0100
,
0203
0010
0320
1000
,
1030
0001
2000
0100
,
3200
0010
0320
0001
,
0031
1000
2002
0000
,
0000
0000
0000
0000
,
0000
0000
3003
0000
,
0000
0000
0002
0103
,
2000
3100
0002
0010
,
0010
1003
2000
0010
,
0010
3001
0002
0100
,
0103
0010
2000
0100
,
3100
0010
2002
0000
,
3003
0000
2000
0000
,
3002
0000
0203
0000
,
0320
0000
2030
0000
,
0002
0000
3003
0000
;

//---------------dance-single - Daff_4K -Rosso-----------------
#NOTES:
     dance-single:
     Daff_4K -Rosso-:
     Medium:
     11:
     0.257478,0.431740,0.102795,0.712714,0.185032,263.000000,248.000000,15.000000,104.000000,0.000000,0.000000,0.257478,0.431740,0.102795,0.712714,0.185032,263.000000,248.000000,15.000000,104.000000,0.000000,0.000000:
0000
0000
0000
0000
,
0000
0000
0000
0000
,
0000
0000
0000
0000
,
0000
0000
0000
0000
,
0020
0000
0000
0000
,
0030
0000
0000
0000
,
0200
0000
0000
0000
,
0300
0000
0000
0000
,
0002
0000
0000
0000
,
0003
0000
0000
0000
,
2000
0000
0000
0000
,
3000
0000
0000
0000
,
2000
0000
0000
0020
0000
0000
3030
0000
0202
0000
0000
0000
0303
0000
0000
0000
,
0002
0000
0000
2000
0000
0000
0000
0000
0003
0000
0000
0000
3100
0000
0000
0010
,
0002
0000
0000
0020
0000
0000
0033
0000
2200
0000
0000
0000
3300
0000
0000
0000
,
2000
0000
0000
0002
0000
0000
3003
0000
0101
0000
0000
0000
0100
0000
0010
0000
,
2000
3200
0320
0032
,
0203
0320
2030
3002
,
0023
0000
0000
0000
,
0000
0000
0000
0000
,
0000
0000
0000
0000
,
0000
0000
0000
0000
,
0000
0000
0000
0000
,
0000
0000
0000
0000
0000
0000
0000
0000
0030
0000
0000
0000
0001
0000
0000
0100
,
0000
0000
1000
0000
0000
0100
0000
0000
0001
0000
0000
0000
1000
0000
0000
0100
,
0000
0000
0010
0000
0000
0001
0000
0000
1000
0000
0000
0000
1000
0000
0000
0100
,
0000
0000
0001
0000
0000
0100
0000
0000
1000
0000
0000
0000
0001
0000
0000
0100
,
0000
0000
0010
0000
0000
1000
0000
0000
0001
0000
0000
0000
0001
0000
0000
1000
,
0000
0000
0010
0000
0000
0100
0000
0000
1000
0000
0000
0000
0100
0000
0000
0001
,
0000
0000
0010
0000
0000
0100
0000
0000
1000
0000
0000
0000
1000
0000
0000
0001
,
0000
0000
0010
0000
0000
0100
0000
0000
0001
0000
0000
0000
0100
0000
0000
1000
,
0000
0000
0010
0000
0100
0000
0000
0000
1001
0000
0000
0000
0002
0000
0000
0010
,
0000
0023
0000
0000
0130
0000
0000
0000
1001
0000
0000
0000
2000
0000
0000
0010
,
0000
3020
0000
0000
0130
0000
0000
0100
0001
0000
1000
0000
0200
0000
0000
0010
,
0000
0320
0000
0000
0031
0000
0000
0000
0101
0000
0000
0000
0200
0000
0000
0010
,
0000
0320
0000
0000
1030
0000
0000
1000
0001
0000
0010
0000
0200
0000
0000
1000
,
0000
2300
0000
0000
3010
0000
0000
0000
0101
0000
0000
0000
0200
0000
0000
0001
,
0000
0302
0000
0000
0013
0000
0000
0010
0100
0000
1000
0000
0002
0000
0000
1000
,
0000
2003
0000
0000
3100
0000
0000
0000
1001
0000
0000
0000
0001
0000
0100
0000
,
0010
1000
0100
0010
0001
0000
2002
0000
,
0003
0020
3000
0200
,
0030
0302
2003
0200
,
3000
0020
0300
0002
,
0030
2000
0000
3003
,
0000
0000
2020
3000
,
0002
0003
0200
0300
,
1030
0000
0100
0000
0010
0000
0002
0000
0200
0000
0000
0003
0000
0000
0000
0000
,
2000
3000
0020
0030
,
0301
0010
0100
1000
0020
0000
0000
0000
,
0000
0100
0000
0000
0230
0000
0000
0302
0000
0000
2003
0000
0000
3200
0000
0000
,
0320
0000
0000
0000
0000
0000
0000
0000
0000
0100
0000
0000
0230
0000
0000
2300
,
0000
0000
3002
0000
0000
0203
0000
0000
0302
0000
0000
0000
0000
0000
0013
0000
,
0000
0100
0000
0000
2000
0000
0000
0000
0000
0000
3010
0000
0000
0100
0000
0000
,
0002
0000
0000
0000
0000
0000
0010
0000
0000
1000
0000
0000
2003
0000
0000
0000
,
0000
0000
0010
0000
0000
0001
0000
0000
3001
0000
0000
0000
0000
0000
0000
0000
,
0000
0000
0000
0000
,
0000
0000
0000
0000
,
0000
0000
0000
0000
,
0000
0000
0000
1002
,
0100
0013
2001
0100
,
3010
0000
0000
0100
0000
0000
0001
0000
2000
0000
0000
0000
0100
0000
0000
0000
,
3002
0000
0000
0000
0100
0000
0000
0000
0013
0000
0000
0100
0000
0000
1000
0000
,
0000
0001
0000
0000
0100
0000
0010
0000
2000
0000
0000
0000
3100
0000
0010
0000
,
0002
0000
0103
0010
2000
0000
0100
0000
,
3002
0000
0100
0000
0013
0100
2000
0000
,
3010
0100
0002
0000
1003
0100
0010
0001
,
0100
0010
1000
0001
2002
0000
0000
0000
,
0000
0000
0000
0000
,
0000
0000
0000
0000
0000
0000
3003
0000
1000
0000
0001
0000
,
0100
0000
0010
0000
1000
0000
0002
0000
0000
0010
0000
0000
,
2003
0010
3200
0001
,
1000
0001
0320
1000
,
0001
1000
0032
2003
,
3020
0000
0230
0000
0301
0010
0100
1000
,
0010
0100
0001
1000
2002
0000
3000
0000
,
0020
0003
2000
0030
,
3020
0130
2002
0003
,
0020
3000
0032
0023
,
0230
0302
2000
3003
;

//---------------dance-single - Daff_4K -Vert-----------------
#NOTES:
     dance-single:
     Daff_4K -Vert-:
     Hard:
     14:
     0.441530,0.728562,0.267268,0.548242,0.527683,451.000000,412.000000,39.000000,80.000000,0.000000,0.000000,0.441530,0.728562,0.267268,0.548242,0.527683,451.000000,412.000000,39.000000,80.000000,0.000000,0.000000:
// measure 0
0000
0000
0000
0000
,  // measure 1
0000
0000
0000
0000
,  // measure 2
0000
0000
0000
0000
,  // measure 3
0000
0000
0000
0000
,  // measure 4
2000
0000
0000
0000
,  // measure 5
3000
0000
0000
0000
,  // measure 6
0002
0000
0000
0000
,  // measure 7
0003
0000
0000
0000
,  // measure 8
0200
0000
0000
0000
,  // measure 9
0300
0000
0000
0000
,  // measure 10
0020
0000
0000
0000
,  // measure 11
0030
0000
0000
0000
0000
0000
0000
0000
0010
0100
0010
0100
0001
1000
0001
1000
,  // measure 12
0200
0000
0000
0001
0000
0000
0310
0000
0001
0000
0000
0000
1001
0000
0000
0000
,  // measure 13
1020
0000
0000
0001
0000
0000
0100
0000
0130
0000
0000
0000
1001
0000
0000
0001
,  // measure 14
0200
0000
0000
1000
0000
0000
0310
0000
1000
0000
0000
0000
1001
0000
0000
0000
,  // measure 15
0021
0000
0000
1000
0000
0000
0100
0000
0130
0000
0000
1000
0001
0000
0100
0000
,  // measure 16
0020
2030
3200
0320
,  // measure 17
0031
0000
0100
0000
0010
0000
1000
0000
0100
0000
0010
0000
0001
1000
0001
1000
,  // measure 18
0200
0000
0000
0000
,  // measure 19
0000
0000
0000
0000
,  // measure 20
0000
0000
0000
0000
,  // measure 21
0000
0000
0000
0000
,  // measure 22
0000
0000
0000
0000
,  // measure 23
0000
0000
0000
0000
0000
0000
0000
0000
0300
0000
0000
0000
1000
0010
0000
0100
,  // measure 24
0010
0000
1000
0001
0000
1000
0100
0000
0020
0000
0000
0000
0031
1000
0000
1000
,  // measure 25
0010
0000
0100
0001
0000
0001
1000
0000
0200
0000
0320
0000
0031
0010
0000
0100
,  // measure 26
0010
0000
0001
1000
0000
0001
0100
0000
0020
0000
0000
0000
1030
0001
0000
0001
,  // measure 27
0010
0000
0100
1000
0000
1000
0001
0000
0200
0000
0320
0000
1030
0100
0000
0100
,  // measure 28
1000
0000
0001
0010
0000
0010
0100
0000
2000
0000
0000
0000
3001
0100
0000
0100
,  // measure 29
0001
0000
1000
0010
0000
0010
0100
0000
0002
0000
2003
0000
3100
0010
0000
0010
,  // measure 30
0001
0000
0100
0010
0000
0010
1000
0000
0002
0000
0000
0000
1003
0100
0000
0100
,  // measure 31
0010
0000
0010
0001
0000
0001
1000
0000
1001
0000
0000
0000
0201
0000
0000
1000
,  // measure 32
0000
1000
0000
0000
0310
0000
1000
0000
1001
0000
0000
0001
0020
0000
0000
1000
,  // measure 33
0000
1000
0000
0000
0130
0000
1000
0000
1001
0000
0001
1000
0020
0000
0000
0100
,  // measure 34
0000
0100
0000
0000
0031
0000
0010
0000
1010
0000
1000
0000
0002
0000
0000
0010
,  // measure 35
0000
0010
0000
0000
0103
0000
0010
0000
1010
0000
1000
0000
0200
0000
0000
0001
,  // measure 36
0000
0001
0000
0000
0310
0000
0001
0000
1001
0000
0000
1000
0020
0000
0000
0001
,  // measure 37
0000
0001
0000
0000
0130
0000
0001
0000
1001
0000
1000
0001
0020
0000
0000
0100
,  // measure 38
0000
0100
0000
0000
1030
0000
0010
0000
0011
0000
0001
0000
1000
0010
1000
0010
,  // measure 39
0100
0001
0100
0001
0010
0100
1000
0010
0100
0001
1000
0000
1002
0000
0000
0000
,  // measure 40
0010
0000
1000
0000
0203
0000
0000
0000
0310
0000
0100
0001
2000
0000
0000
0000
,  // measure 41
0010
0000
0001
0000
3200
0000
0000
0000
0310
0000
0100
1000
0002
0000
0000
0000
,  // measure 42
0100
2003
0100
3020
,  // measure 43
0230
0302
2000
3003
,  // measure 44
0200
0310
2002
0003
,  // measure 45
0200
0000
0000
0000
3300
0000
0000
0020
0002
0000
0000
0000
0030
0000
0000
0000
,  // measure 46
2003
3200
0320
0032
2000
0000
3000
0000
,  // measure 47
0200
0000
0000
0000
0303
0000
0000
0020
2000
0000
0000
0000
0030
0000
0000
0000
,  // measure 48
3002
0000
0000
0000
0200
0000
0003
0000
0320
0000
0000
0000
2030
0000
0000
0000
3200
0000
0000
0000
0000
0000
0000
0000
0000
0010
0000
0000
0000
0000
0000
0010
,  // measure 49
0000
0000
0310
0000
0000
0001
0000
0000
1001
0000
0000
0000
0000
0000
1010
0000
0000
0000
0000
0000
0110
0000
0000
0000
0000
0000
0101
0000
0000
0000
0000
0000
,  // measure 50
0021
0000
0000
0000
0000
0000
0000
0000
0000
0100
0000
0000
0000
0000
0000
0100
0000
0000
0130
0000
0000
1000
0000
0000
1001
0000
0000
0000
0000
0000
0101
0000
,  // measure 51
0000
0000
0110
0000
0000
1010
0000
0000
1002
0000
0000
0010
0000
0000
1000
0000
,  // measure 52
0000
0000
0103
0000
0000
0010
0000
0000
2000
0000
0000
0000
0000
0000
0100
0000
0000
0000
0000
0000
0001
0000
0000
0000
0000
0000
3010
0000
0000
0100
0000
0000
,  // measure 53
0002
0000
0000
0000
0000
0000
0013
0000
0000
0100
0000
0000
2000
0000
0000
0000
0000
0000
3010
0000
0000
0100
0000
0000
0001
0000
0000
1000
0000
0000
0001
0000
,  // measure 54
0000
1000
0000
0000
0100
0000
0000
0010
0000
0000
0001
0000
0000
1000
0000
0000
2002
0000
0000
0000
0000
0000
0000
0000
0000
0000
0000
0000
0000
0000
0000
0000
,  // measure 55
0000
0000
0000
0000
,  // measure 56
0000
0000
0000
0000
,  // measure 57
0000
0000
0000
0000
,  // measure 58
0000
0000
0000
0000
0000
0000
0000
0000
3003
0000
0000
0000
1001
0000
0000
0001
,  // measure 59
0100
0000
0000
0100
0010
0000
1000
0000
0100
0000
0000
0100
0001
0000
0000
0001
,  // measure 60
0100
0000
1000
0010
0000
0010
0100
0000
0101
0000
0000
0001
1000
0000
0000
1000
,  // measure 61
0100
0000
0000
0100
0010
0000
0001
0000
0100
0010
0000
0010
1000
0000
1000
0001
,  // measure 62
0000
0001
0010
0000
0100
0000
1000
0000
1001
0000
0000
0001
1000
0000
0000
1000
,  // measure 63
0100
0000
0000
0100
0010
0000
0001
0000
0100
0000
0000
0100
1000
0000
0000
1000
,  // measure 64
0100
0000
0001
0010
0000
0010
0100
0000
1100
0000
0000
1000
0001
0000
0000
0001
,  // measure 65
0100
0000
0000
0100
0010
0000
1000
0000
0100
0000
0001
0000
0100
0000
1000
0000
,  // measure 66
0010
0000
0100
0010
0000
0100
0001
0000
2002
0000
0000
0000
0000
0000
0000
0000
,  // measure 67
0000
0000
0000
0000
,  // measure 68
0000
0000
0000
0000
0000
0000
3003
0000
1100
0000
0011
0000
,  // measure 69
0101
0000
0000
0000
0000
0000
0000
0000
1010
0000
0000
0000
0000
0000
0000
0000
1001
0000
0000
0000
0000
0000
0000
0000
0001
0000
0000
0000
0000
0000
0010
0000
0000
0100
0000
0000
0000
0000
0000
0010
0000
0000
0001
0000
0000
0000
0000
0000
,  // measure 70
1000
0000
0010
0100
0000
0010
1000
0000
0001
0000
0100
0010
0000
0010
1000
0000
,  // measure 71
1000
0001
0000
0001
0010
0000
0100
0000
1000
0000
0100
0010
0000
0010
0001
0000
,  // measure 72
0001
1000
0000
1000
0010
0000
0100
0000
0001
0000
0010
0100
0000
0010
0001
0000
,  // measure 73
1000
0010
0000
0100
0010
0000
1000
0000
0100
0010
0100
0010
0001
1000
0001
1000
,  // measure 74
0010
0100
0001
1000
0100
0010
0001
2000
0002
0000
0000
0000
0000
0000
0000
0000
,  // measure 75
3003
0000
0202
0003
,  // measure 76
0320
2030
0002
0000
,  // measure 77
3003
0000
2200
3000
,  // measure 78
0320
0032
2000
3003
;

//---------------dance-single - Daff_4K -Morado-----------------
#NOTES:
     dance-single:
     Daff_4K -Morado-:
     Challenge:
     16:
     0.559990,0.944432,0.246709,0.760686,0.846348,572.000000,536.000000,36.000000,111.000000,0.000000,0.000000,0.559990,0.944432,0.246709,0.760686,0.846348,572.000000,536.000000,36.000000,111.000000,0.000000,0.000000:
// measure 0
0000
0000
0000
0000
,  // measure 1
0000
0000
0000
0000
,  // measure 2
0000
0000
0000
0000
,  // measure 3
0000
0000
0000
0000
,  // measure 4
0000
0000
0000
0000
,  // measure 5
0000
0000
0000
0000
,  // measure 6
0000
0000
0000
0000
,  // measure 7
0000
0000
0000
0000
,  // measure 8
0000
0000
0000
0000
,  // measure 9
0000
0000
0000
0000
,  // measure 10
0000
0000
0000
0000
,  // measure 11
0000
0000
0000
0000
0000
0000
0000
0000
1000
0001
1000
0001
0010
0100
1000
0001
,  // measure 12
0200
0000
0000
1000
0000
0000
0310
0000
2001
0000
0000
0000
3100
0000
0100
0010
,  // measure 13
0002
0000
0000
1000
0000
0000
0103
0000
0010
0000
0000
0000
1001
0000
0001
1000
,  // measure 14
0200
0000
0000
0001
0000
0000
0310
0000
1002
0000
0000
0000
0103
0000
0100
0010
,  // measure 15
2000
0000
0000
0001
0000
0000
3100
0000
0110
0000
0000
0000
1001
0000
0001
1000
,  // measure 16
0010
0010
0100
0100
0001
0001
1000
1000
,  // measure 17
0100
0010
0100
0010
0001
0100
0001
0100
0010
1000
0010
1000
0001
0010
0100
1000
,  // measure 18
0020
0000
0000
0000
,  // measure 19
0000
0000
0000
0000
,  // measure 20
0000
0000
0000
0000
,  // measure 21
0000
0000
0000
0000
,  // measure 22
0000
0000
0000
0000
,  // measure 23
0000
0000
0000
0000
0030
0000
0000
0000
1000
0001
1000
0001
1000
0100
0000
0001
,  // measure 24
0100
0000
1000
0010
0000
0001
0010
0000
2002
0000
3003
0000
0001
0100
0000
0010
,  // measure 25
1000
0000
0001
0010
0000
0100
1000
0000
0100
0010
0001
1000
0001
0100
0000
1000
,  // measure 26
0100
0000
0001
0010
0000
1000
0010
0000
2002
0000
3003
0000
1000
0100
0000
0010
,  // measure 27
0001
0000
1000
0010
0000
0100
0001
0000
0100
0010
1000
0001
2000
0100
0000
3200
,  // measure 28
0010
0000
0320
0001
0000
0031
1000
0000
2002
0000
3003
0000
0002
1000
0000
2003
,  // measure 29
0010
0000
3020
0100
0000
0230
0001
0000
0301
0010
0100
1000
0002
0100
0000
0203
,  // measure 30
0010
0000
0320
1000
0000
1030
0001
0000
2002
0000
3003
0000
2000
0001
0000
3002
,  // measure 31
0010
0000
0023
0200
0330
0000
1001
0000
1000
0010
0100
0001
0020
0000
0000
0130
,  // measure 32
2000
0001
0000
0000
3010
0000
0010
0100
0001
1000
0100
0000
0120
0000
0000
0031
,  // measure 33
0200
1000
0000
0000
0310
0000
1000
0001
0010
0100
1000
0001
0200
0000
0000
0310
,  // measure 34
2000
0001
0000
0000
3100
0000
0100
0010
0001
0100
1000
0100
0020
0000
0000
0130
,  // measure 35
0002
1000
0000
0000
0013
0000
0100
1000
0010
0100
0001
1000
0020
0000
0000
0130
,  // measure 36
0002
1000
0000
0000
0013
0000
0010
0100
1000
0001
0100
0000
0120
0000
0000
1030
,  // measure 37
0200
0001
0000
0000
0310
0000
0001
1000
0010
0100
0001
1000
0200
0000
0000
0310
,  // measure 38
0002
1000
0000
0000
0103
0000
0100
0010
1000
0100
0001
0100
1000
0001
0100
1000
,  // measure 39
0100
0001
0010
1000
0001
0100
1000
0010
0100
0001
0010
0100
2000
0000
0000
0000
,  // measure 40
0000
0000
0000
0000
0000
0000
3010
0100
0002
0000
0000
0000
0000
0000
0000
0000
0000
0000
0000
0000
0000
0000
0013
0100
2000
0000
0000
0000
0000
0000
0000
0000
,  // measure 41
0000
0000
0000
0000
0000
3000
0001
0100
0020
0000
0000
0000
0000
0000
1030
0100
0020
0000
0000
0000
0000
0000
0031
0000
0200
0000
0000
0000
0000
0000
0000
0000
,  // measure 42
0000
0000
0000
0000
0000
0000
0000
0000
0320
0000
0000
0000
0000
0000
0000
0000
0000
0000
0000
0000
0000
0000
0000
0030
2000
0000
0000
0000
0000
0000
0000
0000
,  // measure 43
0000
0002
0000
3003
,  // measure 44
0001
1000
2020
3000
,  // measure 45
0002
0000
0000
0000
0003
0000
0000
0230
0002
0000
0000
0000
0300
0000
0000
0000
,  // measure 46
0023
2030
3200
0302
0020
0000
0003
0000
,  // measure 47
2000
0000
0000
0000
3000
0000
0000
0230
2000
0000
0000
0000
0300
0000
0000
0000
,  // measure 48
3020
0000
0000
0000
0032
0000
0000
0000
0203
0000
0000
0000
2300
0000
0000
0000
3002
0000
0000
0000
0000
0000
0203
0000
0000
1000
0000
0000
0000
0000
0000
0310
,  // measure 49
0000
0000
0000
0000
0100
0000
0000
0000
0000
0000
0001
0000
0000
1000
0000
0000
0200
0000
0000
0000
0000
0000
0000
0000
0000
0310
0000
0000
0002
0000
0000
0000
0000
0000
0000
0000
0000
1003
0000
0000
0020
0000
0000
0000
0000
0000
0000
0000
0000
0130
0000
0000
0001
0000
0000
0000
0000
0000
1000
0000
0000
0001
0000
0000
,  // measure 50
2000
0000
0000
0000
0000
0000
0000
0000
0000
0000
0000
0000
3200
0000
0000
0000
0000
0000
0001
0000
0000
0000
0000
0000
0000
0000
0000
0000
0000
0000
0310
0000
0000
0000
0000
0000
0100
0000
0000
0000
0000
0000
1000
0000
0000
0001
0000
0000
0200
0000
0000
0000
0000
0000
0000
0000
0000
0310
0000
0000
2000
0000
0000
0000
,  // measure 51
0000
0000
0000
0000
0000
3001
0000
0000
0020
0000
0000
0000
0000
0000
0000
0000
0000
0130
0000
0000
1000
0000
0000
0000
0000
0000
0001
0000
0000
0000
0000
0000
1000
0000
0000
0000
0000
0000
0010
0000
0000
0000
0000
0000
0100
0000
0000
0000
0000
0000
0001
0000
0000
0000
0000
0000
0010
0000
0000
0000
0000
0000
0100
0000
,  // measure 52
0000
0000
0000
0000
1000
0000
0000
0000
0000
0000
0010
0000
0000
0100
0000
0000
0001
0000
0000
0000
0000
0000
0010
0000
0000
0000
0000
0000
0100
0000
0000
0000
0000
0000
1000
0000
0000
0000
0000
0000
0010
0000
0000
0000
0000
0000
0100
0000
0000
0000
0000
0000
0001
0000
0000
0000
0000
0000
0010
0000
0000
0100
0000
0000
,  // measure 53
1000
0000
0000
0000
0000
0000
0010
0000
0000
0100
0000
0000
0010
0000
0000
0000
0000
0000
1000
0000
0000
0100
0000
0000
1000
0000
0000
0000
0000
0000
0001
0000
0000
0100
0000
0000
0001
0000
0000
0000
0000
0000
0010
0000
0000
0100
0000
0000
0010
0000
0000
0100
0000
0000
1000
0000
0000
0001
0000
0000
1000
0000
0000
0001
,  // measure 54
0000
0000
0100
0000
0000
0010
0000
0000
1000
0000
0000
0100
0000
0000
0010
0000
0000
0001
0000
0000
0100
0000
0000
1000
0000
0000
0100
0000
0000
0002
0000
0000
2000
0000
0000
0000
0000
0000
0000
0000
0000
0000
0000
0000
0000
0000
0000
0000
0000
0000
0000
0000
0000
0000
0000
0000
0000
0000
0000
0000
0000
0000
0000
0000
,  // measure 55
0000
0000
0000
0000
,  // measure 56
0000
0000
0000
0000
,  // measure 57
0000
0000
0000
0000
,  // measure 58
0000
0000
0000
0000
0000
0000
0000
0000
3003
0000
0000
0000
1001
0000
1000
0100
,  // measure 59
0010
0000
0001
0100
0010
0000
1000
0001
1000
0000
0100
0010
0001
0000
0100
0010
,  // measure 60
1000
0000
0100
0001
0000
0100
1000
0000
1001
0000
0001
0100
0010
0000
1000
0100
,  // measure 61
0010
0000
0001
1000
0010
0000
1000
0001
0010
0100
1000
0010
0100
0001
1000
0100
,  // measure 62
0010
0001
0100
0010
1000
0000
1001
0000
0001
0000
1000
0010
0001
0000
0010
1000
,  // measure 63
0100
0000
0010
0001
0100
0000
0110
0000
1001
0000
0001
0010
1000
0000
0010
0001
,  // measure 64
0100
0000
0010
1000
0100
0000
0110
0000
1001
0000
0001
0100
0010
0000
0001
0010
,  // measure 65
1000
0000
0110
0000
1001
0000
1000
0100
0010
0000
1000
0010
0001
0000
1001
0000
,  // measure 66
1000
0001
0100
0010
0100
1000
0100
0002
2000
0000
0000
0000
0000
0000
0000
0000
,  // measure 67
0000
0000
0000
0000
,  // measure 68
0000
0000
0000
0000
0000
0000
3003
0000
2200
3300
0202
0303
,  // measure 69
0022
0000
0000
0000
0033
0000
0000
0000
2020
0000
0000
0000
3030
0000
0000
0000
2002
0000
0000
0000
3003
0000
0000
0000
0001
0000
0000
0010
0000
0000
0100
0000
0000
0010
0000
0000
0001
0000
0000
1000
0000
0000
0010
0000
0000
0100
0000
0000
,  // measure 70
0010
1000
0001
0010
0100
1000
0010
0100
0001
0010
0100
0010
0001
0000
1000
0100
,  // measure 71
0001
0100
1000
0000
0010
0100
0001
0000
1000
0010
0100
0010
1000
0000
0001
0100
,  // measure 72
1000
0100
0001
0000
0010
0100
1000
0000
0001
0010
0001
0010
1000
0010
1000
0010
,  // measure 73
0001
0100
0001
0100
1000
0100
1000
0100
0001
0010
0100
1000
0010
0100
0001
1000
,  // measure 74
0100
0000
0000
0010
0000
0000
0100
0000
0000
0010
0000
0000
0001
0000
1000
0000
0001
0000
1000
0000
0001
0000
2000
0000
0002
0000
0000
0000
0000
0000
0000
0000
0000
0000
0000
0000
0000
0000
0000
0000
0000
0000
3003
0000
0000
0000
0000
0000
,  // measure 75
0022
0000
0000
0033
2200
0000
0000
3300
,  // measure 76
2020
3030
0202
0303
2002
0000
0000
3003
,  // measure 77
2020
0000
0000
3030
0202
0000
0000
0303
,  // measure 78
0220
0000
0000
0330
;
