#VERSION:0.83;
#TITLE:MEGALOMAN[i]A;
#SUBTITLE:;
#ARTIST:TITANZ;
#TITLETRANSLIT:;
#SUBTITLETRANSLIT:;
#ARTISTTRANSLIT:;
#GENRE:;
#CREDIT:;
#MUSIC:MEGALOMAN[i]A.ogg;
#BANNER:MEGALOMAN[i]A-bn.png;
#BACKGROUND:MEGALOMAN[i]A-bg.png;
#CDTITLE:;
#SAMPLESTART:29.130;
#SAMPLELENGTH:19.200;
#SELECTABLE:YES;
#OFFSET:-0.330;
#BPMS:0.000=100.000
,32.000=200.000
,64.000=400.000
,151.000=800.000
,159.000=400.000
,191.000=100.000
,199.000=200.000
,211.000=50.000
,212.000=200.000
,244.000=100.000
,252.000=200.000
,268.000=800.000
,272.000=400.000
,273.979=200.000
,275.000=100.000
,275.500=102.000
,287.500=103.000
,291.500=420.000
;
#STOPS:151.000=0.225
,152.000=0.075
,153.000=0.225
,154.000=0.225
,268.000=1.238
,318.500=0.365
;
#DISPLAYBPM:*;
#BGCHANGES:;
#FGCHANGES:;

//--------------- dance-single - ----------------
#NOTEDATA:;
#STEPSTYPE:dance-single;
#DESCRIPTION:;
#DIFFICULTY:Beginner;
#METER:7;
#RADARVALUES:0,0,0,0,0;
#NOTES:
0000
0000
0000
0000
,
0000
0000
0000
0000
,
0000
0000
0000
0000
,
0000
0000
0000
0000
,
1000
0000
0000
0000
,
0010
0000
0000
0000
,
0100
0000
0000
0000
,
0001
0010
0100
1000
,
0001
0100
0001
0000
,
1000
0100
0010
0001
,
1000
0010
1000
0000
,
0001
0010
0100
1000
,
0001
0010
0001
0000
,
1000
0010
0100
0001
,
1000
0100
1000
0000
,
0001
0100
0010
1000
,
0001
0000
0010
0000
,
0001
0000
0010
0000
,
0100
0000
1000
0000
,
0100
0000
1000
0000
,
0001
0000
0100
0000
,
0001
0000
0100
0000
,
0010
0000
1000
0000
,
0010
0000
1000
0000
,
0100
0000
0010
0000
,
0100
0000
0010
0000
,
0001
0000
1000
0000
,
0001
0000
1000
0000
,
0010
0000
0100
0000
,
0010
0000
0100
0000
,
0001
0000
1000
0000
,
0001
0000
1000
0000
,
0001
0000
0010
0000
,
0100
0000
0010
0000
,
0001
0000
1000
0000
,
0010
0000
0100
0000
,
0010
0000
1000
0000
,
0100
0000
0010
0000
,
0000
0000
0002
0003
2000
3000
0002
0003
,
0000
0000
0000
1000
,
0000
0100
0000
0010
,
0000
0100
0000
1000
,
0000
0001
0000
0100
,
0000
0010
0000
0100
,
0000
0001
0000
1000
,
0000
0100
0000
0010
,
0000
0000
0001
0000
,
0000
1000
0000
0001
,
0000
0000
0000
0000
,
0000
0000
0000
1000
,
0000
0010
0000
0001
,
0000
0010
0000
1000
,
0000
0001
0000
0000
,
1000
0100
0001
0100
,
1000
0001
0000
0100
,
1000
0100
0001
1000
,
0100
0010
0001
0000
,
1000
0010
0001
0010
,
1000
0001
0000
0010
,
1000
0010
0001
1000
,
0010
0100
0001
0000
,
1000
0000
0000
0000
,
0000
0000
0000
0000
,
0001
0001
0010
0010
,
0100
0100
0001
0001
,
0100
0100
1000
1000
,
0010
0010
0100
0100
,
0002
0000
0000
0000
,
0000
0000
0000
0000
0000
0000
0000
1003
,
0000
0000
0000
0000
0000
0000
0000
0100
,
0000
0000
0000
0000
0000
0000
0000
0010
,
0000
0000
0000
0000
0000
0000
0000
0001
,
0000
0000
0000
0000
0000
0000
0000
1000
,
0000
0000
0000
0010
0000
0000
0000
1000
,
0000
0000
0000
0010
0000
0000
0000
0100
,
0000
0000
0000
0001
0000
0000
0000
0100
,
0000
0000
0000
0001
0000
0000
0000
0010
,
0000
0000
0000
0001
0000
0000
0000
0010
,
0000
0000
0000
0001
0000
1000
0000
0000
,
0000
0100
0000
0000
0000
1000
0001
0000
,
0000
0100
0000
0001
,
0000
0010
0000
0100
,
0000
1000
0000
0010
,
0000
1000
0000
0001
,
0000
0010
0000
0001
,
0000
0100
0000
0010
,
0000
1000
0000
0100
,
0000
1000
0001
0000
;

//--------------- dance-single - ----------------
#NOTEDATA:;
#STEPSTYPE:dance-single;
#DESCRIPTION:;
#DIFFICULTY:Easy;
#METER:11;
#RADARVALUES:0,0,0,0,0;
#NOTES:
0000
0000
0000
0000
,
0000
0000
0000
0000
,
0000
0000
0000
0000
,
0000
0000
0000
0000
,
1000
0000
0100
0000
0001
0100
1000
0000
,
0001
0000
0100
0000
1000
0100
0001
0000
,
1000
0000
0010
0000
0001
0010
1000
0000
,
0001
0000
0100
0000
0010
0000
1000
0001
,
1000
0000
0010
0000
0100
0000
1000
0100
,
0000
0001
0000
0001
0000
1000
0010
0100
,
0001
0000
0010
0000
0100
0001
0000
0100
,
0000
1000
0000
1000
0000
0001
0000
0001
,
1000
0000
0100
0000
0001
0100
0000
0010
,
0000
0001
0000
0001
0000
1000
0100
0010
,
0001
0000
0100
0000
1000
0100
0000
0010
,
0000
1000
0000
1000
0000
0001
0000
0001
,
1000
0000
0100
0000
,
1000
0010
0000
0100
,
0001
0010
0001
0010
,
0001
0100
0100
0100
,
0001
0000
0010
0000
,
0100
0010
0000
0001
,
1000
0010
1000
0010
,
1000
0100
1000
0100
,
1000
0000
0010
0000
,
1000
0100
0000
0010
,
0001
0100
0001
0100
,
0001
0010
0010
0010
,
0001
0000
0100
0000
,
0010
0100
0000
0001
,
1000
0100
1000
0100
,
1000
0010
1000
0010
,
1000
0100
1000
0000
,
0001
0000
2002
3003
,
0100
0001
0100
0000
,
0010
0000
0220
0330
,
0001
0010
0001
0000
,
1000
0000
2002
3003
,
0002
0003
0200
0300
0020
0030
2000
3000
,
0000
0000
0000
0010
,
0001
0010
0000
0100
,
0000
0220
0330
1000
,
0010
1000
0000
0001
,
0000
2002
3003
0100
,
1000
0100
0000
0010
,
0000
0220
0330
0001
,
0010
0000
1000
0010
,
0000
0001
0000
1000
,
0010
0100
0001
1000
,
0100
0010
0001
1000
,
0010
0001
1000
0100
,
0001
0000
1000
0010
0010
0010
1000
0000
,
0100
0001
0100
0000
,
1000
0010
1000
0000
0001
0010
0100
0010
,
0001
1000
0010
0000
0100
0010
1000
0100
,
0010
0001
0100
0000
1000
0100
0001
0010
,
0100
1000
0001
1000
0000
0000
0000
0000
,
0001
0010
0001
0000
1000
0010
0100
0010
,
1000
0001
0010
0000
0100
0010
0001
0100
,
0010
1000
0100
0000
0001
0100
1000
0010
,
0100
0001
1000
0001
0010
0000
1100
0000
,
0001
0100
0010
1000
,
0001
0010
0100
1000
,
0001
0010
0100
0010
,
0001
0100
0010
0100
,
0001
0010
0100
1000
,
0010
0000
0100
0000
0001
1000
0001
1000
,
0002
0000
0000
0000
,
0000
0000
0000
0000
0000
0000
0000
1003
,
0000
0000
0100
0000
0000
0010
0000
0000
0000
0100
0000
0000
0000
1000
0000
0001
,
0000
0000
0100
0000
0000
0010
0000
0000
0000
0001
0000
0010
0000
1000
0001
0000
,
0000
0000
0010
0000
0000
0100
0000
0000
0000
0010
0000
0000
0000
0001
0000
1000
,
0000
0000
0010
0000
0000
0100
0000
0000
0000
0010
0000
1000
0000
0000
0001
0000
,
0000
0010
0000
0001
0000
0010
0000
0100
,
0000
1000
0000
0010
0000
0100
0000
0000
,
0000
0001
0000
0000
0000
0001
0000
0000
,
0000
1000
0000
1000
0000
1000
0000
0010
,
0000
0100
0000
0001
0000
1000
0000
0100
,
0000
0010
0000
0100
0000
1000
0000
0000
,
0000
0001
0000
0000
0000
0001
1000
0000
,
0100
1000
0010
0100
,
0001
0010
0001
0000
,
0100
0000
0010
0000
,
1000
1000
1000
0001
,
0100
0001
0010
0100
,
1000
0010
1000
0001
,
0010
0100
1000
0001
,
1000
0001
1000
0000
;

//--------------- dance-single - ----------------
#NOTEDATA:;
#STEPSTYPE:dance-single;
#DESCRIPTION:;
#DIFFICULTY:Medium;
#METER:14;
#RADARVALUES:0,0,0,0,0;
#NOTES:
0000
0000
0000
0000
,
0000
0000
0000
0000
,
0000
0000
0000
0000
,
0000
0000
0000
0000
,
1000
0000
0100
0000
0001
0000
0000
0100
1000
0000
0010
0000
0100
0000
0000
0000
,
0001
0000
0010
0000
1000
0000
0000
0010
0001
0000
0100
0000
0010
0000
1000
0000
,
0001
0000
0100
0000
1000
0000
0000
0100
0001
0000
0010
0000
0100
0000
0000
0000
,
1000
0000
0010
0000
0001
0000
0000
0010
1000
0000
0100
0000
0010
0000
0001
0000
,
1000
0010
0100
0010
0001
0000
0010
0100
,
0000
0001
0000
0010
0000
1000
0010
0001
,
1000
0010
1000
0100
0001
0000
0100
0010
,
0000
0100
0000
1000
0000
0010
0100
0001
,
1000
0100
0010
0100
0001
0000
0100
0010
,
0000
0001
0100
1000
0100
0001
0001
1000
,
0010
0000
0100
0000
0010
0000
0001
0000
0010
1000
0001
0000
0010
0000
0100
0000
,
0000
0000
1000
0000
1000
0000
0000
0000
0010
0100
0000
0000
0001
0000
0001
0000
,
1000
0010
0100
0010
,
1000
0100
0010
0001
,
0000
1000
0000
0010
,
0000
0001
0010
1000
,
0001
0010
0001
0100
,
0010
1000
0100
1000
,
0000
0010
0000
0001
,
0000
0010
0000
1000
,
0001
0010
0100
0010
,
0001
1000
0010
0100
,
0000
0001
0000
0010
,
0000
1000
0010
0001
,
1000
0010
1000
0100
,
0010
0001
0100
0001
,
0000
0010
0000
1000
,
0000
0010
0000
0001
,
1000
0010
1000
0001
,
0010
0001
0220
0330
,
0001
0100
0001
1000
,
0100
1000
0220
0330
,
0001
1000
0001
0100
,
0010
0100
0022
0033
,
2000
3000
0200
0300
0020
0030
0002
0003
,
0000
0000
0000
1000
,
0100
1000
0001
0100
,
0001
0220
0330
0001
,
0010
0001
1000
0010
,
1000
0220
0330
1000
,
0001
1000
0010
0100
,
0010
2200
3300
0011
,
1010
0000
1100
0101
,
0000
0000
1001
0000
0000
0000
1000
0010
,
0000
0001
0000
0010
1000
0001
0010
1000
,
0000
0010
0000
0001
0000
0000
1000
0100
,
1100
0010
0001
0100
0101
0010
1000
0010
,
1010
0100
0001
0010
0011
0100
1000
0001
,
1001
0100
0010
0100
0110
0001
0000
0000
,
1100
0101
1100
1001
,
0011
1010
0011
1001
,
1100
0101
0110
1100
,
1001
0110
1001
0000
,
0101
1100
1010
1001
,
1010
0011
0101
1001
,
0011
0110
1010
0011
,
0110
0000
1001
0000
0010
0010
0110
0000
,
1000
1100
0000
0110
0000
0011
0000
1001
,
0000
1010
0000
0110
0101
0000
0000
0000
,
0011
0011
0011
0011
,
1010
1010
1010
1010
,
1100
1100
1100
1100
,
0101
0000
0101
0000
1000
0001
1000
0001
,
2000
0000
0000
0000
,
0000
0000
0000
0000
0000
0000
0000
3001
,
0010
0000
0100
0000
0000
0001
0000
0100
0000
1000
0000
0010
0000
0100
0000
0000
,
0001
0000
0010
0000
0000
1000
0000
0010
0000
0100
0000
1000
0001
0000
1000
0000
,
0010
0000
0100
0000
0000
1000
0000
0100
0000
0001
0000
0010
0000
0100
0000
0000
,
1000
0000
0010
0000
0000
0001
0000
0010
0000
0100
0000
0001
1000
0001
1000
0000
,
0000
0100
0000
1100
0000
0001
0000
0100
,
0000
0010
0000
0110
0000
1000
0000
0001
,
0000
0100
0000
0101
0000
0010
0000
1000
,
0000
0001
0000
1001
0000
0100
0000
0001
,
0000
0010
0000
0011
0000
1000
0000
0001
,
0000
0100
0000
1010
0000
0101
0000
0000
,
0000
0110
0000
0000
0000
1001
0001
0000
,
0100
0011
1000
0100
,
0010
0101
1000
0010
,
0100
1001
0010
0001
,
1000
0110
0001
1000
,
0100
1010
0001
0100
,
0010
1100
0001
1100
,
0011
0000
1010
0000
0101
0000
1000
0001
,
1000
0001
1000
0001
1000
0000
0000
0000
;

//--------------- dance-single - ----------------
#NOTEDATA:;
#STEPSTYPE:dance-single;
#DESCRIPTION:;
#DIFFICULTY:Hard;
#METER:17;
#RADARVALUES:0,0,0,0,0;
#NOTES:
0000
0000
0000
0000
,
0000
0000
0000
0000
,
0000
0000
0000
0000
,
0000
0000
0000
0000
,
1000
0010
1000
0010
1000
0000
1000
1000
0001
0010
0100
0010
1000
0010
0100
0010
,
0001
0100
0001
0100
0001
0000
0001
0001
1000
0010
0100
0010
0001
0010
0100
0010
,
1000
0100
1000
0100
1000
0000
1000
1000
0001
0100
0010
0100
1000
0100
0010
0100
,
0001
0010
0001
0010
0100
1000
0100
1000
0001
0100
0010
1000
0100
0000
0010
0001
,
1000
0010
0100
0010
0001
0010
1000
0001
,
0010
0001
0100
0010
1000
0100
1000
1000
,
0001
0100
0010
0100
1000
0100
0001
1000
,
0100
0001
0100
1000
,
0001
0100
0001
0100
0010
1000
0010
1000
,
0001
0010
0001
0010
0100
1000
0100
1000
,
0001
0100
0001
1000
0100
0001
0100
1000
,
0001
0010
1000
0010
0001
1000
0001
1000
,
0001
0010
0001
0000
0010
0100
0010
0000
,
0100
1000
0100
0000
1000
0010
1000
0000
,
0010
0100
0010
0000
0100
0001
0100
0000
,
0001
1000
0001
0000
1000
0001
1000
0000
,
0001
0010
0001
0000
0100
0010
1000
0000
,
0100
0010
0100
0000
1000
0010
0100
0000
,
0001
0010
0001
0000
0010
0100
1000
0000
,
0100
1000
0010
0000
1000
0001
0100
0000
,
0001
0010
0100
0000
0010
0001
1000
0000
,
0010
0100
0010
0000
1000
0100
1000
0000
,
0010
0100
0001
0000
0010
0001
0100
0000
,
1000
0100
0001
0000
1000
0001
1000
0000
,
0001
0100
0001
0000
1000
0100
1000
0000
,
0001
0100
0010
0000
1000
0001
0010
0000
,
0100
1000
0010
0000
0001
0010
1000
0000
,
0001
1000
0001
0000
1000
0001
1000
0000
,
0001
0010
0001
0000
0010
0001
0010
0000
,
0001
0010
0001
0000
1000
0001
1000
0000
,
0010
1000
0010
0000
1000
0010
1000
0000
,
0010
1000
0010
0000
1000
0001
1000
0000
,
0010
0100
0010
0000
1000
0001
1000
0000
,
0100
0010
0100
0000
1000
0001
1000
0000
,
0020
0030
0200
0300
0002
0003
2000
3000
,
0000
0000
0000
0000
0000
0000
0001
0100
,
0001
0000
0100
0001
0100
0000
0001
0100
,
0001
0000
1000
0001
1000
0000
0100
1000
,
0100
0000
1000
0100
1000
0000
0100
1000
,
0100
0000
1000
0001
1000
0000
0100
0010
,
0100
0000
1000
0001
1000
0000
0010
0100
,
0010
0000
1000
0001
1000
0000
0010
0000
,
0010
0000
0100
0100
,
0000
0000
0001
0000
0000
0000
1000
0100
,
0001
0100
1000
0000
0010
0000
0100
0000
0001
0010
0100
1000
0001
0000
0100
0000
,
1000
0100
0001
0000
0010
0000
0100
0000
1000
0001
0000
0000
1000
0000
0100
0000
,
0001
0000
1000
0010
0001
0000
0100
0010
,
1000
0000
0001
0010
0100
0000
1000
0010
,
0001
0000
1000
0100
0001
0000
0000
0000
,
1000
1100
0100
0101
,
0001
0011
0010
1010
,
1000
1001
0001
0101
,
0100
0000
0110
0010
1000
0000
0000
0000
,
0001
0011
0010
1010
,
1000
1100
0100
0101
,
0001
1001
0100
0110
,
1000
0000
0000
0000
0001
0000
0100
0010
1000
0000
0001
0000
0010
0000
0000
0000
,
0100
1000
0010
0100
1000
0100
0010
1000
,
0001
0010
0100
0001
0100
1000
0010
0100
,
0001
0010
0001
0010
0001
0010
0001
0010
,
0100
1000
0100
1000
0100
1000
0100
1000
,
0001
0100
0001
0100
0001
0100
0001
0100
,
0010
0000
1000
0000
0010
0000
1000
0000
0001
0010
0100
1000
0001
1000
0001
1000
,
0002
0000
0000
0000
,
0000
0000
0000
0000
0000
0000
0000
0000
0000
0000
0000
0000
0000
0000
1003
0100
,
1000
0100
0010
0001
0010
0001
1000
0010
1000
0010
0100
0001
0100
0001
1000
0100
,
0010
0000
0001
0000
1000
0001
1000
0001
2000
0000
0000
0000
3001
0000
0010
0000
0100
0000
1000
0000
0001
0000
0100
0000
0010
1000
0010
1000
0010
0000
0100
0000
,
0010
0001
0010
0100
0010
1000
0100
1000
0010
0100
0001
0010
0001
1000
0010
1000
,
0100
0010
0001
0100
0001
0010
0100
1000
0001
0100
0010
1000
0100
0010
0001
0000
,
0100
0001
0000
1000
0100
1000
0000
0010
,
0100
0010
0000
0100
0001
0100
0000
0001
,
0010
0100
0000
0010
0001
1000
0000
0010
,
0100
0010
0000
1000
0001
1000
0000
0001
,
0010
0001
0000
0100
0010
1000
0000
0100
,
1000
0001
0000
1000
0100
1000
0000
0010
,
0100
0001
0000
0010
0001
1000
0001
0010
,
0100
0000
0010
0001
0100
0000
0010
1000
,
0100
0000
1000
0010
0100
0000
0010
0100
,
0001
0000
0010
0100
1000
0000
0010
1000
,
0100
0000
0010
0001
0100
0000
0010
0100
,
0010
0000
0100
0001
1000
0000
0100
0010
,
0100
0000
1000
0010
0100
0000
0001
1000
,
0100
0000
0010
0001
1000
0000
0001
1000
,
0001
0000
1000
0001
2000
0000
3000
0000
;

//--------------- dance-single - ----------------
#NOTEDATA:;
#STEPSTYPE:dance-single;
#DESCRIPTION:;
#DIFFICULTY:Challenge;
#METER:18;
#RADARVALUES:0,0,0,0,0;
#NOTES:
0000
0000
0000
0000
,
0000
0000
0000
0000
,
0000
0000
0000
0000
,
0000
0000
0000
0000
,
2000
0000
0000
0000
0000
0000
0000
3010
0200
0000
0000
0000
1000
0000
0010
0000
,
0302
0000
0000
0000
0000
0000
0000
0000
0000
0000
0000
0000
0000
0000
0000
0000
0000
0000
0000
0000
0000
0013
0000
0000
0100
0000
0000
0000
0000
0000
1000
0000
0001
0000
1000
0000
0001
0000
0000
0000
0000
0000
1000
0000
0000
0000
0000
0000
,
0020
0000
0000
0000
0000
0000
0000
0000
0000
0000
0000
0000
0000
0000
0000
0000
0000
0000
0000
0000
0000
0130
0000
0000
1000
0000
0000
0000
0000
0000
0100
0000
0001
0000
1000
0000
0001
0000
0000
0000
0000
0000
0000
0000
0000
0000
0000
0000
,
1000
0000
1100
0000
0000
0000
0000
0000
0001
0000
0101
0000
0000
0000
0000
0000
0010
0000
0110
0000
0000
0000
0000
0000
1000
0000
0001
0000
1000
0001
1000
0001
,
1000
1100
0010
0001
0100
0110
0000
0001
,
0000
0010
0000
1000
0000
0010
0001
1000
,
0010
0101
0001
0010
1100
1000
0000
0010
,
0000
0001
0000
0010
0000
1000
0000
0001
,
0100
0010
1100
0010
0100
0001
1000
0100
,
0000
0001
0000
0100
0000
1000
0010
0100
,
0001
0000
0010
0000
1100
0000
0001
0000
0100
0010
0100
0000
0001
0000
0010
0000
,
0000
0100
0000
1000
0000
0100
0000
0010
,
0001
1000
0010
0100
,
0010
1000
0001
0010
,
0100
0001
0100
0010
,
0001
1000
0010
0100
,
0001
0010
0100
0010
,
0001
1000
0010
1000
,
0100
0001
0100
1000
,
0010
0100
0010
0100
,
0001
1000
0100
0010
,
0100
1000
0001
0100
,
0010
0001
0010
0100
,
0001
1000
0100
0010
,
0001
0100
0010
0100
,
0001
1000
0100
1000
,
0010
0001
0010
1000
,
0100
0010
0100
0010
,
0001
0010
0100
0010
0001
0000
1000
0000
,
2020
3030
2002
3003
,
1000
0010
0100
0010
1000
0000
0001
0000
,
0022
0033
2002
3003
,
0001
0100
1000
0100
0001
0000
0100
0000
,
0220
0330
2002
3003
,
2200
3300
0022
0033
2020
3030
0202
0303
,
0000
0000
1000
0000
0001
0000
1000
0100
,
0010
0100
1000
0000
0001
0000
0202
0000
,
0303
0000
0220
0000
0330
0000
0001
0100
,
0010
0100
0001
0000
1000
0000
2200
0000
,
3300
0000
0220
0000
0330
0000
1000
0100
,
0001
0100
1000
0000
0100
0000
0220
0000
,
0330
0000
2002
0000
3003
0000
2020
3030
,
0022
0033
0000
0000
2002
3003
1000
0100
,
1000
0000
0010
0000
0100
0000
0001
0000
0010
0000
0001
0000
1000
0010
0001
0000
,
1000
0100
0000
0001
0000
0010
0000
0100
0000
1000
0100
0010
0001
0100
1000
0000
,
0001
0010
0000
1000
0000
0100
0000
0010
0000
0001
0000
1000
0001
0000
0010
0000
,
1000
0001
0100
1000
0010
0100
0001
0010
,
0001
1000
0001
0100
0100
0100
0001
0010
,
1000
0001
0100
1000
0010
0100
0000
0000
,
0001
0000
0100
0010
0100
0001
1000
0100
0010
0000
0100
1000
0010
0000
0100
0001
,
0010
0001
1000
0010
0100
0001
0100
0000
0000
0000
0010
0000
1000
0000
0001
0010
,
1000
0000
0010
0000
0001
0000
1000
0010
0000
0000
0100
0010
1000
0000
0001
0010
,
0100
0000
0001
0000
0100
1000
0010
0100
0001
0000
1000
0000
0001
0000
1000
0001
,
1000
0000
0100
1000
0010
0100
0001
0010
0100
0000
0010
0001
1000
0010
1000
0010
,
0100
0001
0010
0001
0100
0010
1000
0000
0000
0000
0100
0001
0100
0000
1000
0010
,
0100
0010
1000
0001
0010
0000
0100
1000
0001
0000
0100
0000
0010
0000
0100
0010
,
1000
0000
0001
0010
1000
0000
0010
0001
1000
0000
0001
0000
1000
0000
0000
0000
,
0001
0000
0100
0010
0000
0001
0010
0100
0001
0010
0000
0100
0001
0000
0100
1000
,
0010
0000
0001
0000
0000
0000
0010
0000
1000
0000
0001
0000
0010
0000
0100
1000
0001
0000
0010
0000
0000
0000
1000
0000
0010
0000
0100
0000
1000
0000
0001
0000
,
1000
0000
0100
0000
1100
0000
0001
0000
0101
0000
0100
0000
0010
1000
0001
0000
,
0011
0000
1000
0000
1010
0000
0100
0000
0110
0000
0001
0000
0010
0100
0010
0000
,
0011
0000
1000
0000
1010
0000
0001
0000
1001
0000
1000
0000
0100
0010
0001
0000
,
1000
0000
0010
0000
0100
0000
0001
0000
1000
0100
0010
0001
1000
0001
1000
0001
,
2000
0000
0000
0000
,
0000
0000
0000
0000
0000
0000
0000
0000
0000
0000
0000
0000
0000
0000
3001
0010
,
1000
0000
0010
0001
0000
0100
0000
0010
0000
0001
0000
0010
0000
0100
0000
0001
,
0010
0000
0100
1000
0000
0010
0000
0100
0000
1000
0000
0100
0010
1000
0000
0001
,
0010
0000
0100
0001
0000
0100
0000
1000
0000
0010
0000
0001
0000
0010
0000
1000
,
0100
0000
0001
0100
0000
0010
0000
0001
0000
0100
0000
1000
0100
0001
1000
0000
,
0100
0010
0100
1000
0001
0100
0000
0001
,
1000
0100
0010
0001
0000
1000
0010
1000
,
0000
0001
0010
0000
0000
1000
0010
0000
,
0000
0001
0100
0010
1000
0100
0010
0001
,
0100
0010
0100
0001
1000
0100
0000
1000
,
0001
0100
0000
1010
0000
1001
0000
0010
,
0000
0101
0000
0010
0000
1001
1000
0100
,
1000
0010
0100
0000
0001
0010
0100
0010
,
0001
0000
0100
0000
1000
0000
0100
0001
,
1000
0000
0100
0010
0100
0000
1000
0001
,
0100
0001
1000
0100
0010
0001
0100
0010
,
1000
0001
0010
0100
0010
0001
1000
0010
,
1000
0100
0010
0001
0100
0001
1000
0000
,
1100
0000
0100
0000
0101
0000
0001
1000
,
0001
1000
0001
1000
2002
0000
3003
0000
;
