#VERSION:0.83;
#TITLE:Ludens;
#SUBTITLE:;
#ARTIST:Bring Me The Horizon;
#TITLETRANSLIT:;
#SUBTITLETRANSLIT:;
#ARTISTTRANSLIT:;
#GENRE:;
#ORIGIN:;
#CREDIT:;
#BANNER:Ludens.png;
#BACKGROUND:Ludens-bg.png;
#PREVIEWVID:;
#JACKET:Ludens-jacket.png;
#CDIMAGE:;
#DISCIMAGE:;
#LYRICSPATH:Ludens.lrc;
#CDTITLE:;
#MUSIC:Ludens.ogg;
#OFFSET:0.005000;
#SAMPLESTART:38.181240;
#SAMPLELENGTH:18.920004;
#SELECTABLE:YES;
#DISPLAYBPM:132.000000;
#BPMS:0.000=132.000,
80.000=65.995,
82.000=131.990;
#STOPS:175.000=0.909;
#DELAYS:;
#WARPS:;
#TIMESIGNATURES:0.000=4=4;
#TICKCOUNTS:0.000=4;
#COMBOS:0.000=1;
#SPEEDS:0.000=1.000=0.000=0;
#SCROLLS:0.000=1.000;
#FAKES:;
#LABELS:0.000=Song Start;
#BGCHANGES:0.000=Ludens.avi=1.000=0=0=0=StretchNoLoop====,
99999=-nosongbg-=1.000=0=0=0 // don't automatically add -songbackground-
;
#KEYSOUNDS:;
#ATTACKS:
;

//---------------dance-single - ----------------
#NOTEDATA:;
#CHARTNAME:;
#STEPSTYPE:dance-single;
#DESCRIPTION:;
#CHARTSTYLE:;
#DIFFICULTY:Hard;
#METER:12;
#RADARVALUES:0.533714,0.588487,0.249661,0.374492,0.802482,419.000000,391.000000,28.000000,42.000000,0.000000,0.000000,0.000000,0.000000,0.000000,0.533714,0.588487,0.249661,0.374492,0.802482,419.000000,391.000000,28.000000,42.000000,0.000000,0.000000,0.000000,0.000000,0.000000;
#CREDIT:Ben Speirs;
#OFFSET:0.005000;
#BPMS:0.000000=132.000000
,80.000000=65.995003
,82.000000=131.990005
,152.000000=263.980011
,154.000000=131.990005
,160.000000=263.980011
,162.000000=131.990005
,168.000000=263.980011
,170.000000=131.990005
;
#STOPS:152.000000=0.075757
,152.333328=0.075765
,152.666672=0.075765
,153.000000=0.075765
,153.333328=0.075765
,153.666672=0.075765
,160.000000=0.075757
,160.333328=0.075765
,160.666672=0.075765
,161.000000=0.075765
,161.333328=0.075765
,161.666672=0.075765
,168.000000=0.075757
,168.333328=0.075765
,168.666672=0.075765
,169.000000=0.075765
,169.333328=0.075765
,169.666672=0.075765
,175.000000=0.909162
;
#DELAYS:;
#WARPS:;
#TIMESIGNATURES:0.000000=4=4
;
#TICKCOUNTS:0.000000=4
;
#COMBOS:0.000000=1
;
#SPEEDS:0.000000=1.000000=0.000000=0
;
#SCROLLS:0.000000=1.000000
;
#FAKES:;
#LABELS:0.000000=Song Start
;
#DISPLAYBPM:132.000000;
#NOTES:
// measure 0
0000
0000
0000
0000
,  // measure 1
0000
0000
0000
0000
,  // measure 2
1000
0000
1000
0100
0000
0000
1100
0000
1100
0000
0000
0000
,  // measure 3
0000
0000
0000
0001
0000
0000
0101
0000
0101
0000
0000
0000
,  // measure 4
1000
0000
0000
0001
0000
0000
1000
0000
0010
0100
0000
0000
,  // measure 5
0001
0000
0000
0010
0000
0100
2000
0000
0000
3000
0000
0000
,  // measure 6
0001
0000
0000
1000
0000
0000
0001
0000
0100
0010
0000
0000
,  // measure 7
1000
0000
0000
0100
0000
0010
0001
0000
0000
2010
0000
0000
,  // measure 8
3031
0000
1000
0000
0001
0000
0020
0000
0000
0130
0000
0000
,  // measure 9
1000
0000
1000
0100
0000
0000
0020
0000
0000
0031
0000
0000
,  // measure 10
1000
0000
1000
0001
0000
0001
0100
0000
0100
0010
0000
0000
,  // measure 11
1010
0000
1000
0000
0001
0000
0011
0000
0001
0000
1000
0000
,  // measure 12
0000
0000
0000
1001
0000
0000
0001
0000
1000
0010
0000
0010
,  // measure 13
0200
0000
0000
0301
0000
1000
0100
0000
0100
0010
0000
0010
,  // measure 14
0002
0000
0000
2003
0000
0000
3010
0000
0100
0001
0000
1000
,  // measure 15
0200
0000
0000
0302
0000
0000
0103
0000
0100
1300
0000
1000
,  // measure 16
3010
0000
0000
1001
0000
0000
1000
0000
0001
0100
0000
0001
,  // measure 17
0010
0000
0000
0011
0000
0000
0001
0000
1000
0010
0000
1000
,  // measure 18
0100
0000
0000
1100
0000
0000
0001
0000
1000
0010
0000
0010
,  // measure 19
0200
0000
0000
0301
0000
0000
1000
0001
0000
0100
0000
0110
,  // measure 20
0000
0000
0000
0000
0000
0000
1001
0000
1000
0100
0000
0100
,  // measure 21
0010
0000
0010
0001
0000
1000
0020
0000
0000
0130
0000
1000
,  // measure 22
0100
0000
0100
0001
0000
1000
0001
0000
0001
0010
0000
0010
,  // measure 23
0100
0000
0100
1000
0000
0001
0200
0000
0000
0310
0000
1000
,  // measure 24
0001
1000
0001
0100
0000
0001
2000
0000
0000
3100
0000
1000
,  // measure 25
0010
0000
0010
0100
0000
0002
1000
0000
0000
0103
0000
0001
,  // measure 26
0100
0000
0100
0010
0000
2000
0001
0000
0000
3020
0000
0000
,  // measure 27
0130
0000
0001
0010
0000
0100
1000
0001
1000
0001
0010
0001
,  // measure 28
1000
0100
1000
0001
0010
0100
1000
0000
0001
0010
0001
0000
,  // measure 29
1000
0000
0001
0100
0000
0102
0000
0000
1003
0013
0000
0120
,  // measure 30
0000
0000
1030
0001
0000
0000
1001
0000
1000
0010
1000
0000
,  // measure 31
0001
0000
1000
0100
0010
0000
0001
0100
0001
0100
0100
0010
,  // measure 32
1000
0001
1000
0100
0010
0001
1000
0000
0001
0100
0010
0000
,  // measure 33
1000
0000
0001
0010
0000
0012
0000
0000
1003
0010
0000
2010
,  // measure 34
0000
0000
3001
0100
0000
0000
1001
0000
0001
0010
0100
0010
,  // measure 35
0100
1000
0100
0010
0001
0100
0010
0000
0000
0110
0000
0000
,  // measure 36
0101
0000
0000
1001
0000
0000
1000
0000
0001
0010
0000
0000
,  // measure 37
0012
0000
0000
0103
0000
0100
0000
0000
0000
0010
0000
0000
,  // measure 38
1000
0001
1000
0001
1000
0001
1000
0000
0001
0010
0000
0000
,  // measure 39
0210
1300
0000
0001
,  // measure 40
1000
0010
1000
0010
1000
0010
2000
0000
0000
3200
0000
0000
,  // measure 41
0310
0000
0001
1000
0000
0000
0001
0000
0000
0100
0000
0000
,  // measure 42
0001
0010
0001
0010
0001
0010
0001
0000
1000
0010
0000
1000
,  // measure 43
0001
0000
0001
0020
0000
0000
0130
1000
0001
1000
0000
0000
,  // measure 44
0001
0010
0001
1000
0000
1000
3001
0010
0001
2000
0000
0000
,  // measure 45
3010
0000
1000
0001
0000
1000
0010
0100
0001
1000
0000
0000
,  // measure 46
1000
0100
1000
0001
0000
0001
1003
0100
1000
0002
0000
0000
,  // measure 47
0103
0000
0001
1000
0000
0001
0200
0000
0000
0301
0010
0100
,  // measure 48
1000
0000
0001
0100
0000
0100
0010
1000
0001
2000
0000
0000
,  // measure 49
3001
0000
0100
0001
0000
1000
0020
0000
0000
1033
0100
0010
,  // measure 50
0002
0010
0100
2003
,  // measure 51
3001
0000
1000
0010
0100
0010
1000
0001
0010
0000
0000
0000
,  // measure 52
0001
0100
0001
1000
1000
0001
0100
0000
0100
0010
0000
0000
,  // measure 53
0000
1000
0010
1000
0000
0001
0010
0002
0000
2003
0000
0000
,  // measure 54
3010
0100
0010
0100
0010
0100
0001
0000
0000
2001
0003
0000
,  // measure 55
0000
0000
0000
3010
0000
1000
0100
0020
0000
0031
1000
0001
,  // measure 56
0000
0000
0000
1000
0010
0100
0001
0000
1000
0200
0000
0000
,  // measure 57
1300
0001
1000
0010
0000
0010
0200
0000
0000
0301
0010
0100
,  // measure 58
1000
1000
0001
0100
0001
1000
0200
0000
0000
0320
0000
0000
,  // measure 59
0031
0101
0110
2002
,  // measure 60
3003
0000
0000
0000
;

//---------------dance-single - ----------------
#NOTEDATA:;
#CHARTNAME:;
#STEPSTYPE:dance-single;
#DESCRIPTION:;
#CHARTSTYLE:;
#DIFFICULTY:Challenge;
#METER:15;
#RADARVALUES:0.678926,0.668735,0.249661,0.276411,1.319638,533.000000,505.000000,28.000000,31.000000,11.000000,0.000000,0.000000,0.000000,0.000000,0.678926,0.668735,0.249661,0.276411,1.319638,533.000000,505.000000,28.000000,31.000000,11.000000,0.000000,0.000000,0.000000,0.000000;
#CREDIT:Ben Speirs;
#OFFSET:0.005000;
#BPMS:0.000000=132.000000
,80.000000=65.995003
,82.000000=131.990005
,152.000000=263.980011
,153.666672=131.990005
,160.000000=263.980011
,162.000000=131.990005
,168.000000=263.980011
,170.000000=131.990005
;
#STOPS:152.000000=0.075757
,152.333328=0.075765
,152.666672=0.075765
,153.000000=0.075765
,153.333328=0.075765
,160.000000=0.075757
,160.333328=0.075765
,160.666672=0.037885
,160.833328=0.037877
,161.000000=0.075765
,161.333328=0.075765
,161.666672=0.075765
,168.000000=0.075757
,168.333328=0.075765
,168.666672=0.075765
,169.000000=0.075765
,169.333328=0.075765
,169.666672=0.075765
,175.000000=0.909162
;
#DELAYS:;
#WARPS:;
#TIMESIGNATURES:0.000000=4=4
;
#TICKCOUNTS:0.000000=4
;
#COMBOS:0.000000=1
;
#SPEEDS:0.000000=1.000000=0.000000=0
;
#SCROLLS:0.000000=1.000000
;
#FAKES:;
#LABELS:0.000000=Song Start
;
#DISPLAYBPM:132.000000;
#NOTES:
0000
0000
0000
0000
,
0000
0000
0000
0000
,
0001
0100
010M
1000
0100
M100
0010
0000
0010
0200
0000
0000
,
0300
0000
0000
0001
0010
0100
1000
0000
1001
0000
0000
0000
,
0001
0000
0100
0001
0000
0001
1000
0000
0100
1000
0000
1000
,
0001
0000
0010
0100
0000
1000
0020
0000
0000
0130
0000
0000
,
0010
0000
1000
0100
0000
0100
0010
0000
0001
0100
0000
0100
,
0010
0000
1000
0100
0000
1000
0001
0000
0000
2001
0000
0000
,
3001
0000
0100
0000
1000
0000
0100
0000
0010
0200
0000
0000
,
0301
0000
0010
0100
0000
0100
1000
0000
0001
0000
0000
1000
,
0010
0000
0010
0100
0000
0001
0010
0000
0010
0100
1000
0001
,
1000
0000
1010
0000
1001
0000
0101
0000
0110
0000
1001
0000
,
0001
0100
0010
2001
0000
0000
3010
0000
1000
0100
0000
1000
,
0010
0000
0010
0100
0000
0001
1000
0000
1000
0100
0000
0010
,
0001
0000
0001
1000
0000
0000
0001
0000
1000
0010
0000
1000
,
0001
0000
0001
0010
0000
0010
1000
0000
1000
0010
0000
0010
,
0001
0100
0001
1000
0100
1000
0010
0000
0010
0100
0000
0001
,
0100
0000
0010
1000
0000
1000
0001
0000
0001
0010
0000
0001
,
1000
0010
1000
0001
0100
0001
1000
0000
1000
0100
0000
1000
,
0010
0000
0010
0100
0000
0001
1000
0100
0300
0010
0000
1001
,
0000
0000
0000
0000
0000
0000
0001
0010
0001
0010
0100
0010
,
0100
1000
0100
1000
0001
1000
0010
0100
1000
0130
0010
0100
,
0001
0000
0001
0100
0000
0001
1000
0100
1000
0100
0010
0100
,
0010
0001
0010
0001
1000
0001
0100
0010
0001
0310
0100
0010
,
1000
0001
1000
0010
1000
0001
0200
0000
0000
0301
0010
0100
,
1000
0010
0001
0010
0000
0012
0000
0000
0013
1000
0100
0010
,
0001
0100
1000
0100
0000
2100
0000
0000
3100
0001
1000
0001
,
1000
0010
1000
0001
0000
0101
0000
1000
0100
0010
0010
0001
,
0100
0100
0010
1000
0001
1000
0001
0010
1000
0001
0100
1000
,
0001
0010
1000
0010
0000
0120
0000
0000
0031
0100
0000
0120
,
0000
0000
1030
0002
0000
0000
1003
0100
0001
1000
0010
0001
,
1000
0100
0001
0100
0000
0110
0000
0001
1000
0010
0010
0100
,
0001
1000
0001
1000
0010
0100
0001
0100
010M
1000
0010
M010
,
0001
0100
010M
1000
0000
2010
0000
3010
0100
0001
0000
0021
,
0000
0130
1000
0001
0000
0001
1000
0010
M010
0001
1000
0001
,
1000
0100
0001
0100
1000
0001
0100
0003
0000
1010
0000
0000
,
0110
0300
0000
0101
0000
0000
1000
0100
0010
0001
1000
0001
,
0100
0000
0100
0010
0000
1000
0000
0001
0010
0100
0000
1000
,
0001
0100
0001
0100
0001
0100
0001
0010
0100
1000
0001
1000
,
0010
0000
0010
0200
0000
0000
0301
1000
0001
0100
0000
0000
,
0010
0000
1000
0000
0010
1000
0010
0000
1000
0000
0010
0000
1000
0000
0100
0000
0001
0000
0100
0000
1000
0000
0010
0000
,
0100
0000
0100
0001
0000
1000
0001
0010
0100
1300
0000
0000
,
0001
0100
0001
0010
0001
0100
0001
0010
1000
0010
0001
0100
,
0010
0000
0010
1000
0000
0001
1000
0100
0010
0031
0000
0000
,
1100
0100
1000
0010
0000
0010
1000
0100
1000
0020
0000
0000
,
0130
0000
0001
1000
0000
0001
0100
0100
0010
2000
0000
0000
,
3001
0010
0001
0100
0000
0100
0001
0010
0001
0200
0000
0000
,
0310
0000
1000
0001
0000
1000
0020
0000
0000
0130
01M0
0100
,
0001
1000
0001
0100
1000
0100
0001
1000
0001
0020
0000
0000
,
0130
0000
1000
0001
0000
0001
0200
0000
0000
0310
0M10
0010
,
1000
0001
1000
0001
1000
0001
1000
0001
1000
0001
1000
0001
,
1000
0000
0010
0000
0100
0000
0001
0000
1000
0000
0001
0100
0001
0000
1000
0000
0010
0000
0000
0000
0000
0000
0000
0000
,
1000
0100
0001
1000
0010
0001
0010
0000
0022
0000
0033
0000
,
0001
0100
010M
2000
0000
3010
0100
0002
0000
2003
0000
0000
,
3100
0000
0010
0100
0010
0000
0100
0000
0010
0100
0010
0000
0001
0000
0000
0000
0000
0000
1002
0000
0000
0000
0000
0000
,
0100
0000
0000
0013
0000
0001
1000
0001
0100
0010
1000
0001
,
0000
0000
0000
0001
0010
0100
2001
0000
3001
0200
0000
0000
,
0310
0010
1000
0001
0000
1000
0100
0010
0000
0001
1000
0001
,
1000
0010
M010
0001
0100
010M
2000
0000
0000
3100
3300
0000
,
1010
0101
0110
2002
,
3003
0000
0000
0000
;

//---------------dance-single - ----------------
#NOTEDATA:;
#CHARTNAME:;
#STEPSTYPE:dance-single;
#DESCRIPTION:;
#CHARTSTYLE:;
#DIFFICULTY:Medium;
#METER:8;
#RADARVALUES:0.352837,0.401241,0.294244,0.356659,0.222912,277.000000,244.000000,33.000000,40.000000,0.000000,0.000000,0.000000,0.000000,0.000000,0.352837,0.401241,0.294244,0.356659,0.222912,277.000000,244.000000,33.000000,40.000000,0.000000,0.000000,0.000000,0.000000,0.000000;
#CREDIT:Ben Speirs;
#DISPLAYBPM:132.000000;
#NOTES:
0000
0000
0000
0000
,
0000
0000
0000
0000
,
0001
0000
0000
1000
0000
0000
0010
0000
0010
0000
0000
0000
,
0000
0000
0000
1000
0000
0000
0001
0000
1000
0000
0000
0000
,
0001
0100
0010
0000
,
0010
1000
0200
0300
,
1000
0010
0100
0000
,
0010
0100
0002
0003
,
1000
0001
0010
0010
,
0100
1000
0020
0030
,
1000
0001
0100
0100
,
0001
0000
0001
0000
0001
0000
1000
0000
1000
0000
1000
0000
,
0000
0000
0000
1100
0000
0000
0001
0000
0100
0001
0000
0000
,
2000
0000
0000
3010
0000
0000
1000
0000
0100
1000
0000
0000
,
0002
0000
0000
0013
0000
0000
0001
0000
1000
0001
0000
0000
,
2000
3020
0230
0300
,
0001
0000
0000
0100
0000
0000
0010
0000
1000
0010
0000
0000
,
1000
0000
0000
0100
0000
0000
0010
0000
0001
0010
0000
0000
,
0001
0000
0000
1000
0000
0000
0001
0000
0100
0001
0000
0000
,
0200
0000
0000
0320
0000
0000
1030
0000
0001
3000
0000
1001
,
0000
0000
0101
0101
,
1001
1001
2200
3300
,
1000
0000
1000
0100
0000
0000
1100
0000
0000
1100
0000
0000
,
0110
0110
0022
0033
,
1000
0000
0001
1000
0000
0001
0200
0000
0000
0300
0000
0000
,
0001
0000
0100
0001
0000
0000
2000
0000
0000
3000
0000
0000
,
0001
0000
0100
0001
0000
0000
2000
0000
0000
3000
0000
0000
,
0001
0000
0000
0010
0000
0000
0001
0000
0001
1000
0000
1000
,
0010
1001
2000
0100
,
0001
3010
2010
3001
,
0102
1003
1002
0010
,
1000
0103
0102
1003
,
2010
3001
1001
1000
,
0001
0000
0100
0001
0000
0000
1000
0000
0100
1000
0000
0000
,
0001
0000
0010
0001
0000
0000
1000
0000
1000
0020
0000
0000
,
0130
0000
0100
0001
0000
0000
1001
0000
0000
0110
0000
0000
,
1001
0110
2000
0010
,
0200
3300
0000
1000
,
0100
0010
0100
0010
0000
0000
0002
0000
0000
0100
0000
0000
,
0020
0033
0000
0001
,
0010
0100
0010
0100
0000
0000
1000
0000
0000
0001
0000
0000
,
0100
0100
0001
1000
,
0001
0100
0001
0100
0000
0000
0001
0000
0000
1000
0000
0000
,
0010
0010
1000
1001
,
0001
0000
0100
0001
0000
0000
0100
0000
0001
0200
0000
0000
,
0300
0001
1001
0000
,
1000
0000
0100
1000
0000
0000
0100
0000
1000
0200
0000
0000
,
0300
1000
1010
0101
,
1000
0000
0010
1000
0000
0000
0010
0000
1000
0010
0000
0000
,
0000
1000
1010
0001
,
2002
0000
0000
3003
,
0001
0000
0000
1000
0100
1000
0100
0000
0000
0000
0000
0000
,
1000
0000
0000
0001
0000
0000
1000
0000
1000
0010
0000
0000
,
0000
0000
0100
0001
0000
0000
2000
0000
0000
3000
0000
0000
,
0001
0010
0001
0010
0000
0000
0011
0000
0000
2002
0000
0000
,
3003
0000
0000
1000
0000
0000
0001
0000
0000
1000
0010
1000
,
0000
0000
0000
0000
0000
0000
0101
0000
0001
2000
0000
0000
,
0000
0000
0000
3100
0000
0000
1000
0000
0001
1000
0000
0000
,
0001
0000
0100
0001
0000
0000
1000
0000
0100
1000
0000
0000
,
0002
0023
0130
2002
,
3003
0000
0000
0000
;

//---------------dance-single - ----------------
#NOTEDATA:;
#CHARTNAME:;
#STEPSTYPE:dance-single;
#DESCRIPTION:;
#CHARTSTYLE:;
#DIFFICULTY:Easy;
#METER:5;
#RADARVALUES:0.228007,0.267494,0.071332,0.205079,0.004458,179.000000,171.000000,8.000000,23.000000,0.000000,0.000000,0.000000,0.000000,0.000000,0.228007,0.267494,0.071332,0.205079,0.004458,179.000000,171.000000,8.000000,23.000000,0.000000,0.000000,0.000000,0.000000,0.000000;
#CREDIT:Ben Speirs;
#DISPLAYBPM:132.000000;
#NOTES:
0000
0000
0000
0000
,
0000
0000
0000
0000
,
1000
0001
0100
0000
,
0000
0001
1000
0000
,
0001
0000
0100
0000
,
0001
0100
0010
0000
,
1000
0000
0100
0000
,
1000
0100
0010
0000
,
0001
1000
0001
0000
,
1000
0100
1000
0000
,
0001
1000
0001
0000
,
0100
0010
1000
0001
,
0000
1001
0001
0000
,
1000
0001
0100
0000
,
0001
0010
0100
0000
,
1000
1000
0001
0001
,
1000
0100
0010
0000
,
0001
1000
0010
0000
,
1000
0010
0100
0000
,
0001
0000
0000
0001
0000
0000
1000
0000
0000
0000
0000
1001
,
0000
0000
0001
0010
,
0100
1000
0020
0030
,
0020
0030
1000
0100
,
0010
0001
0200
0300
,
0200
0300
0001
0000
,
1000
0100
2000
3000
,
0001
0100
0002
0003
,
1000
0000
0001
1000
,
0010
0000
1000
0010
,
1000
0001
1000
0100
,
2000
3000
0001
0010
,
0001
1000
0001
0100
,
0002
0003
0100
0100
,
0010
0010
1000
0001
,
2000
3000
0100
0100
,
0010
0010
0001
1000
,
0110
2002
3003
0001
,
0100
0010
0000
0010
,
2000
0000
3000
1000
,
0100
0010
0000
0010
,
0002
0000
0003
0001
,
1000
0010
0000
0010
,
0200
0000
0300
0100
,
0010
0000
1000
1001
,
0001
1000
0001
0200
,
0300
0010
1000
0000
,
1000
0100
1000
0200
,
0300
0010
0002
0003
,
1000
0010
1000
0010
,
0000
0010
0200
0300
,
2002
0000
0000
3003
,
0001
0010
0100
0000
,
1000
0100
1000
1000
,
0000
0001
1000
0000
,
0001
0100
0001
0001
,
0000
1000
0010
0000
,
0000
1000
0001
0200
,
0300
0100
0010
0000
,
0010
0010
1000
0001
,
0100
0100
0110
2002
,
3003
0000
0000
0000
;

//---------------dance-single - ----------------
#NOTEDATA:;
#CHARTNAME:;
#STEPSTYPE:dance-single;
#DESCRIPTION:;
#CHARTSTYLE:;
#DIFFICULTY:Beginner;
#METER:2;
#RADARVALUES:0.114640,0.159828,0.044582,0.000000,0.000000,90.000000,85.000000,5.000000,0.000000,0.000000,0.000000,0.000000,0.000000,0.000000,0.114640,0.159828,0.044582,0.000000,0.000000,90.000000,85.000000,5.000000,0.000000,0.000000,0.000000,0.000000,0.000000,0.000000;
#CREDIT:Ben Speirs;
#DISPLAYBPM:132.000000;
#NOTES:
0000
0000
0000
0000
,
0000
0000
0000
0000
,
1000
0000
1000
0000
,
0000
0000
0001
0000
,
0100
0000
0100
0000
,
0000
0000
0010
0000
,
0010
0000
0000
0000
,
1000
0000
0000
0000
,
0001
0000
0001
0000
,
0000
0000
1000
0000
,
0100
0000
0100
0000
,
0010
0010
0010
0000
,
0000
1001
0000
0000
,
1000
0000
1000
0000
,
1000
0000
0000
0000
,
0010
0000
0010
0000
,
0010
0000
0000
0000
,
0100
0000
0100
0000
,
0100
0000
0000
0000
,
0001
0000
0001
0001
,
0000
0000
1000
0000
,
0000
0000
0010
0000
,
0000
0000
0100
0000
,
0000
0000
0001
0000
,
0000
0000
1000
0000
,
1000
0000
1000
0000
,
0000
0000
0001
0000
,
0001
0000
0001
0000
,
0000
0000
0100
0000
,
0000
0100
0100
0000
,
0100
0000
0100
0000
,
0000
0010
0010
0000
,
0010
0000
0010
0000
,
0000
1000
1000
0000
,
1000
0000
1000
0000
,
0000
0000
0001
0001
,
0001
0000
0001
0000
,
0000
0000
0000
0000
,
0100
0000
0100
0000
,
0000
0000
0000
0000
,
0010
0000
0010
0000
,
0000
0000
0000
0000
,
1000
0000
1000
0000
,
0000
0000
0000
1001
,
0000
0000
0001
0000
,
0000
0000
0100
0000
,
0100
0000
0100
0000
,
0000
0000
0010
0000
,
0010
0000
0000
0000
,
1000
0000
0000
0000
,
0001
0000
0000
0000
,
0100
0000
0100
0000
,
1001
0000
0000
0000
,
1000
0000
0000
0000
,
0010
0010
0010
0000
,
0000
0000
0010
0000
,
0000
0000
1001
0000
,
0000
0000
0001
0000
,
0100
0000
0000
0000
,
0100
0100
0000
1001
;

//---------------dance-double - ----------------
#NOTEDATA:;
#CHARTNAME:;
#STEPSTYPE:dance-double;
#DESCRIPTION:;
#CHARTSTYLE:;
#DIFFICULTY:Challenge;
#METER:15;
#RADARVALUES:0.664914,0.668735,0.205079,0.365575,1.283972,522.000000,499.000000,23.000000,41.000000,11.000000,0.000000,0.000000,0.000000,0.000000,0.664914,0.668735,0.205079,0.365575,1.283972,522.000000,499.000000,23.000000,41.000000,11.000000,0.000000,0.000000,0.000000,0.000000;
#CREDIT:Ben Speirs;
#OFFSET:0.005000;
#BPMS:0.000000=132.000000
,80.000000=65.995003
,82.000000=131.990005
,152.000000=263.980011
,154.000000=131.990005
,160.000000=263.980011
,162.000000=131.990005
,168.000000=263.980011
,170.000000=131.990005
;
#STOPS:152.000000=0.075757
,152.333328=0.075765
,152.666672=0.075765
,153.000000=0.075765
,153.333328=0.075765
,153.666672=0.075765
,160.000000=0.075757
,160.333328=0.075765
,160.666672=0.037885
,160.833328=0.037877
,161.000000=0.075765
,161.333328=0.075765
,161.666672=0.075765
,168.000000=0.075757
,168.333328=0.075765
,168.666672=0.075765
,169.000000=0.075765
,169.333328=0.075765
,169.666672=0.075765
,175.000000=0.909162
;
#DELAYS:;
#WARPS:;
#TIMESIGNATURES:0.000000=4=4
;
#TICKCOUNTS:0.000000=4
;
#COMBOS:0.000000=1
;
#SPEEDS:0.000000=1.000000=0.000000=0
;
#SCROLLS:0.000000=1.000000
;
#FAKES:;
#LABELS:0.000000=Song Start
;
#DISPLAYBPM:132.000000;
#NOTES:
00000000
00000000
00000000
00000000
,
00000000
00000000
00000000
00000000
,
00010000
00001000
000M1000
00000100
00001000
00001M00
00010000
00000000
00001000
02000000
00000000
00000000
,
03000000
00000000
00001000
00010000
01000000
10000000
00010000
00000000
10010000
00000000
00000000
00000000
,
10000000
00000000
00100000
10000000
00000000
10000000
00010000
00000000
00100000
00010000
00000000
00000000
,
10000000
00000000
00010000
01000000
00000000
00001000
00020000
00000000
00000000
00030100
00000000
00000000
,
00001000
00000000
00000100
00001000
00000000
00001000
00000001
00000000
00000100
00000001
00000000
00000000
,
00001000
00000000
00000001
00000010
00000000
00000010
00000100
00000000
00000000
00002001
00000000
00000000
,
00003001
00000000
00000100
00000000
00001000
00000000
00020000
00000000
00000000
00032000
00000000
00000000
,
00103000
00000000
00010000
10000000
00000000
00000000
00010000
00000000
01000000
00000000
00000000
00010000
,
10000000
00000000
10000000
01000000
00000000
00100000
00010000
00000000
00010000
01000000
00001000
00010000
,
00001000
00000000
00101000
00000000
00011000
00000000
00010100
00000000
01001000
00000000
00011000
00000000
,
00010000
00001000
00000100
00000002
00000000
00000000
00001003
00000000
00000001
00000100
00000000
00000010
,
00001000
00000000
00001000
00000100
00000000
00010000
00001000
00000000
00001000
00100000
00000000
00100000
,
01000000
00000000
10000000
00020000
00000000
00000000
10030000
00000000
00010000
01000000
00000000
00010000
,
00100000
00000000
00100000
00001000
00000000
00001000
00000010
00000000
00000010
00001000
00000000
00001000
,
00010000
00000100
00010000
00001000
00100000
00001000
00010000
00000000
00010000
00000010
00000000
00000010
,
00000100
00000000
00000001
00000010
00000100
00001000
00000100
00000000
00000100
00010000
00000000
00010000
,
00001000
00100000
00001000
00010000
00000100
00010000
00001000
00000000
00001000
01000000
00000000
01000000
,
00100000
00000000
10000000
01000000
00100000
00010000
00100000
00001000
00000000
00010000
00000000
00011000
,
00000000
00000000
00000000
00000000
00000000
00000000
00010000
00000100
00010000
00001000
00010000
00001000
,
00010000
00100000
00010000
00001000
00010000
00001000
00200000
00000000
00000000
00310000
00000000
10000000
,
00100000
00000000
10000000
00010000
00000000
01000000
00001000
00100000
00001000
00010000
00001000
00010000
,
00001000
00000100
00001000
00010000
00001000
00010000
00000200
00000000
00000000
00001300
00000000
00000001
,
00000100
00000010
00000010
00001000
00000100
00000010
00000002
00000030
00000000
00001003
00000010
00000100
,
00000001
00000010
00001000
00000010
00000000
00002010
00000000
00000000
00013000
00100000
10000000
00100000
,
10000000
01000000
00010000
01000000
00000000
01020000
00000000
00000000
01030000
10000000
00010000
10000000
,
00010000
01000000
00100000
10000000
00010000
00100000
00010000
01000000
01000000
00001000
00010000
00001000
,
00010000
00000100
00000010
00000001
00001000
00000001
00001000
00000100
00000001
00001000
00000010
00000001
,
00001000
00000100
00000001
00002000
00000000
00023000
00000000
00031000
00010000
00200000
00000000
20300000
,
00000000
30010000
00100000
01000000
00000000
10000000
00010000
00100000
10000000
00010000
01000000
10000000
,
00010000
00100000
10000000
00020000
00000000
00032000
00000000
00103000
00010000
00100000
00001000
00001000
,
00010000
00000100
00000010
00000001
00000100
00000010
00010000
00001000
000M1000
00000100
00001000
00001M00
,
00010000
00001000
000M1000
00000100
00000000
00020100
00000000
00331000
01030000
00100000
00000000
20100000
,
00000000
33310000
01000000
00020000
00000000
00130000
00001000
00010000
0001M000
00100000
00001000
00100000
,
00001000
00000010
00000001
00000100
00000010
00001000
00000001
00000000
00000000
00001001
00000000
00000000
,
00011000
00000000
00000000
10010000
00000000
00000000
00010000
00100000
00010000
10000000
01000000
10000000
,
00010000
00000000
00010000
01000000
00000000
01000000
00000000
00010000
00100000
00001000
00000000
00000000
,
00010000
00001000
00010000
00001000
00010000
00001000
00010000
00000100
00000010
00000001
00001000
00000001
,
00000100
00000000
00000100
00000020
00000000
00000000
00001030
00000100
00001000
00000100
00000000
00000000
,
00010000
00000000
00001000
00000000
00010000
00001000
00010000
00000000
00001000
00000000
00010000
00000000
00001000
00000000
01000000
00000000
00100000
00000000
10000000
00000000
00010000
00000000
00100000
00000000
,
00010000
00000000
10000000
00200000
00000000
00000000
01300000
00000000
01000000
00010000
00000000
00100000
,
00001000
00010000
00001000
00010000
00001000
00010000
00001000
00000010
00000001
00000100
00000010
00001000
,
00000001
00000000
00000001
00002000
00000000
00000000
00003100
00010000
00001000
00100000
00000000
00000000
,
00101000
00100000
00010000
00200000
00000000
00301000
01000000
01000000
00010000
02000000
00000000
00000000
,
03100000
00000000
10000000
00010000
00000000
00100000
00010000
00010000
01000000
00001000
00000000
00000000
,
00010100
00000100
00001000
00000200
00000000
00010300
00000010
00000010
00001000
00000020
00000000
00000000
,
00000130
00000000
00000001
00001000
00000000
00001000
00000200
00000000
00000000
00030310
00000M10
00000310
,
00000001
00000100
00000001
00001000
00000000
00001000
00000100
00010000
00001000
00200000
00000000
00000000
,
01300000
00000000
10000000
00010000
00000000
10000000
00200000
00000000
00000000
01300000
01M00000
01000000
,
00010000
10000000
00010000
10000000
00010000
10000000
00001000
00010000
00001000
00010000
00001000
00010000
,
00000001
00000000
00000100
00000000
00000010
00000000
00001000
00000000
00000100
00000000
00001000
00000010
00001000
00000000
00000001
00000000
00000010
00000000
00000000
00000000
00000000
00000000
00000000
00000000
,
00000001
00000010
00001000
00000010
00001000
00010000
00001000
00000000
00022000
00000000
00033000
00000000
,
00001000
00010000
0001M000
00200000
00030000
00310000
01000000
00020000
00000000
20030000
00000000
00000000
,
30100000
00000000
01000000
00100000
01000000
00000000
00100000
00000000
01000000
00100000
01000000
00000000
00010000
00000000
00000000
00000000
00000000
00000000
20010000
00000000
00000000
00000000
00000000
00000000
,
01000000
00000000
00000000
30010000
00000000
10000000
01000000
00010000
01000000
00100000
00001000
00010000
,
00000000
00000000
00000000
00001000
00000100
00000001
00001000
00000000
00001000
00003200
00000000
00000000
,
00000310
00000010
00000001
00001000
00000000
00000001
00000100
00000010
00000000
00001000
00000100
00010000
,
00001000
00010000
0001M000
00100000
00001000
00M01000
00000020
00000300
00000000
00033130
00000000
00000000
,
00000101
00001313
01010303
20203030
,
30300000
00000000
00000000
00000000
;

//---------------dance-double - ----------------
#NOTEDATA:;
#CHARTNAME:;
#STEPSTYPE:dance-double;
#DESCRIPTION:;
#CHARTSTYLE:;
#DIFFICULTY:Hard;
#METER:12;
#RADARVALUES:0.518429,0.564078,0.178329,0.499322,0.771275,407.000000,387.000000,20.000000,56.000000,0.000000,0.000000,0.000000,0.000000,0.000000,0.518429,0.564078,0.178329,0.499322,0.771275,407.000000,387.000000,20.000000,56.000000,0.000000,0.000000,0.000000,0.000000,0.000000;
#CREDIT:Ben Speirs;
#OFFSET:0.005000;
#BPMS:0.000000=132.000000
,80.000000=65.995003
,82.000000=131.990005
,152.000000=263.980011
,154.000000=131.990005
,160.000000=263.980011
,162.000000=131.990005
,168.000000=263.980011
,170.000000=131.990005
;
#STOPS:152.000000=0.075757
,152.333328=0.075765
,152.666672=0.075765
,153.000000=0.075765
,153.333328=0.075765
,153.666672=0.075765
,160.000000=0.075757
,160.333328=0.075765
,160.666672=0.075765
,161.000000=0.075765
,161.333328=0.075765
,161.666672=0.075765
,168.000000=0.075757
,168.333328=0.075765
,168.666672=0.075765
,169.000000=0.075765
,169.333328=0.075765
,169.666672=0.075765
,175.000000=0.909162
;
#DELAYS:;
#WARPS:;
#TIMESIGNATURES:0.000000=4=4
;
#TICKCOUNTS:0.000000=4
;
#COMBOS:0.000000=1
;
#SPEEDS:0.000000=1.000000=0.000000=0
;
#SCROLLS:0.000000=1.000000
;
#FAKES:;
#LABELS:0.000000=Song Start
;
#DISPLAYBPM:132.000000;
#NOTES:
00000000
00000000
00000000
00000000
,
00000000
00000000
00000000
00000000
,
00001000
00000000
00001000
00010000
00000000
00000000
00011000
00000000
00011000
00000000
00000000
00000000
,
00000000
00000000
00000000
00010000
00000000
00000000
00010100
00000000
00010100
00000000
00000000
00000000
,
00000200
00000000
00000000
00000310
00000000
00000000
00000001
00000000
00001000
00000001
00000000
00000000
,
00002000
00000000
00000000
00003100
00000000
00000000
00010000
00000000
00001000
00000000
00000000
00001000
,
02000000
00000000
00000000
03100000
00000000
00000000
10000000
00000000
00010000
10000000
00000000
00000000
,
00020000
00000000
00000000
01030000
00000000
01000000
00100000
00000000
00000000
10020000
00000000
00000000
,
10030000
00000000
01000000
00000000
00010000
00000000
00002000
00000000
00000000
00023000
00000000
00000000
,
00030100
00000000
00000100
00000020
00000000
00000000
00000031
00000000
00001000
00000000
00000000
00000000
,
00000002
00000000
00000000
00000103
00000000
00000000
00000001
00000000
00001000
00000100
00000000
00001000
,
00000001
00000000
00000010
00000000
00001000
00000000
00010000
00000000
01000000
00000000
10000000
00000000
,
00000000
00000000
00000000
10020000
00000000
00000000
10030000
00000000
10000000
00100000
00000000
01000000
,
00020000
00000000
00000000
00230000
00000000
00000000
00301000
00000000
00001000
00010000
00000000
00000100
,
00002000
00000000
00000000
00003020
00000000
00000000
00000130
00000000
00000100
00000001
00000000
00001000
,
00000100
00000000
00001000
00000100
00000000
00000001
00000100
00000000
00001000
00000001
00000000
00000001
,
00000200
00000000
00000000
00000310
00000000
00000010
00001000
00000000
00000100
00010000
00000000
00001000
,
00200000
00000000
00000000
01300000
00000000
01000000
10000000
00000000
00100000
01000000
00000000
00010000
,
20000000
00000000
00000000
30020000
00000000
00000000
00130000
00000000
00100000
00001000
00000000
00001000
,
00020000
00000000
00000000
00030200
00000000
00000000
00000310
00000001
00000000
00001000
00000000
00001001
,
00000000
00000000
00000000
00000000
00000000
00000000
00000101
00000000
00000001
00000100
00000000
00000100
,
00001000
00000000
00001000
00010000
00000000
00010000
00200000
00000000
00000000
10300000
00000000
00010000
,
10000000
00000000
00010000
00100000
00000000
00010000
10000000
00000000
10000000
00100000
00000000
00100000
,
00010000
00000000
00010000
00001000
00000000
00001000
00000200
00000000
00000000
00000301
00000000
00001000
,
00000001
00000000
00001000
00000100
00000010
00000001
00000200
00000000
00000000
00000301
00000000
00001000
,
00000010
00000000
00001000
00000100
00000000
00020000
00001000
00000000
00000000
00130000
00000000
10000000
,
00010000
00000000
00010000
00100000
00000000
00002000
00010000
00000000
00000000
00003020
00000000
00000000
,
00000331
00000000
00001000
00000100
00000000
00001000
00000001
00000010
00000001
00001000
00000100
00001000
,
00000001
00000100
00000010
00001000
00000000
00000000
00001001
00000000
00000001
00000100
00000001
00000000
,
00001000
00000000
00001000
00000010
00000000
00010000
00001000
00000000
00010000
00100000
00000000
00100000
,
10000000
00000000
00010000
10000000
00000000
00000000
10010000
00000000
10000000
00100000
10000000
00000000
,
00010000
00000000
00010000
01000000
00000000
00001000
00010000
00000010
00010000
00000100
00000100
00010000
,
00000010
00000100
00000001
00001000
00000000
00000000
00001010
00000000
00000001
00000010
00000100
00000000
,
00001000
00000000
00001000
00000100
00000000
00020100
00000000
00000000
00031000
01000000
00000000
01020000
,
00000000
00000000
10030000
00200000
00000000
00000000
10300000
00010000
10000000
00100000
00100000
01000000
,
00010000
00100000
01000000
10000000
10000000
00010000
20000000
00000000
00000000
30020000
00000000
00000000
,
00032000
00000000
00000000
00003002
00000000
00000000
00000103
00000000
00000100
00000010
00000000
00000000
,
00002010
00003001
00000000
00001000
,
00000100
00010000
00000100
00010000
00000100
00010000
00001000
00000000
00001000
00100000
00000000
00000000
,
00120000
10030000
00000000
00010000
,
01000000
00001000
01000000
00001000
01000000
00001000
00010000
00000000
00010000
00000100
00000000
00001000
,
00000001
00000000
00001000
00000020
00000000
00000000
00010033
00000000
00000000
00000100
00000000
00000000
,
00010000
00001000
00010000
00001000
00010000
00001000
00010000
00000000
00001000
00100000
00000000
00100000
,
01000000
00000000
10000000
00010000
00000000
00000000
10000000
00010000
10000000
00100000
00000000
00000000
,
10000000
01000000
10000000
02000000
00000000
00000000
03100000
00010000
00100000
00020000
00000000
00000000
,
01030000
00000000
00001000
00010000
00000000
00010000
00000100
00001000
00000001
00001000
00000000
00000000
,
00000001
00000100
00000001
00000200
00000000
00000000
00000310
00001000
00000010
00002000
00000000
00000000
,
00003100
00000000
00010000
00001000
00000000
00001000
00200000
00000000
00000000
00310000
01000000
00010000
,
20000000
00000000
00000000
30100000
00000000
00000000
10000000
01000000
00100000
00020000
00000000
00000000
,
01030000
00000000
00001000
00010000
00000000
00010000
00000200
00000000
00000000
00001300
00000010
00000100
,
00000002
00001000
00000010
00001003
,
00000001
00000000
00001000
00000100
00010000
00001000
00010000
00001000
00100000
00000000
00000000
00000000
,
00001000
00100000
01000000
00100000
00000000
01000000
10000000
00000000
10000000
00010000
00000000
00000000
,
00000000
10000000
01000000
10000000
00000000
00010000
00200000
00000000
00000000
00302000
00000000
00000000
,
00013000
00000010
00000100
00000010
00000100
00000010
00000100
00000000
00000000
00002002
00000000
00000000
,
00003003
00000000
00000000
00000001
00000000
00001000
00000100
00000000
00000000
00010000
00001000
00010000
,
00000000
00000000
00000000
00001000
00010000
00100000
20000000
00000000
00000000
30020000
00000000
00000000
,
01030000
00100000
01000000
00001000
00000000
00010000
00000200
00000000
00000000
00001300
00000301
00001000
,
00000001
00000100
00000010
00001000
00001000
00000100
00023000
00000000
00000000
00032000
00000000
00000000
,
00103000
00101000
00011000
00010100
,
00022000
00033000
00000000
00000000
;

//---------------dance-double - ----------------
#NOTEDATA:;
#CHARTNAME:;
#STEPSTYPE:dance-double;
#DESCRIPTION:;
#CHARTSTYLE:;
#DIFFICULTY:Medium;
#METER:8;
#RADARVALUES:0.357933,0.401241,0.303160,0.472573,0.209537,281.000000,247.000000,34.000000,53.000000,0.000000,0.000000,0.000000,0.000000,0.000000,0.357933,0.401241,0.303160,0.472573,0.209537,281.000000,247.000000,34.000000,53.000000,0.000000,0.000000,0.000000,0.000000,0.000000;
#CREDIT:Ben Speirs;
#DISPLAYBPM:132.000000;
#NOTES:
00000000
00000000
00000000
00000000
,
00000000
00000000
00000000
00000000
,
00020000
00000000
00000000
00032000
00000000
00000000
00013000
00000000
00010000
00000000
00000000
00000000
,
00000000
00000000
00000000
00002000
00000000
00000000
00013000
00000000
00010000
00000000
00000000
00000000
,
00001000
00010000
00000100
00000100
,
00000010
00000001
00002000
00003000
,
00000001
00000100
00000010
00000010
,
00010000
00001000
00200000
00300000
,
00001000
00001000
00010000
00010000
,
00100000
10000000
00020000
00030000
,
00100000
00100000
00001000
00001000
,
00010000
00000000
00001000
00000000
00010000
00000000
00001000
00000000
00010000
00000000
00001000
00000000
,
00000000
00010200
00001300
00000010
,
00000100
00000100
00000001
00000010
,
00000100
00000000
00000000
00000100
00000000
00000000
00001000
00000000
00000001
00001000
00000000
00000000
,
00000002
00000203
00002300
00023000
,
00032000
00000000
00000000
00003000
00000000
00000000
00100000
00000000
00010000
00100000
00000000
00000000
,
00010000
00000000
00000000
00010000
00000000
00000000
10000000
00000000
00100000
10000000
00000000
00000000
,
00100000
00000000
00000000
00100000
00000000
00000000
10000000
00000000
00010000
10000000
00000000
00000000
,
00020000
00000000
00000000
02030000
00000000
00000000
03001000
00000000
00010000
00000000
00000000
00011000
,
00000000
00000000
00101000
00001000
,
00010000
00000100
00001010
00000010
,
00000100
00000000
00000001
00001000
00000000
00000001
00001000
00000000
00000000
00000001
00000000
00000000
,
00000100
00000010
00001010
00001000
,
00000100
00000000
00010000
00001000
00000000
00010000
00002000
00000000
00000000
00003000
00000000
00000000
,
00100000
00000000
00010000
00100000
00000000
00100000
00002000
00000000
00000000
00003000
00000000
00000000
,
00100000
00000000
00010000
00100000
00000000
00100000
00002000
00000000
00000000
00003000
00000000
00000000
,
00010000
00000000
00001000
00010000
00000000
00000000
00001000
00000000
00000000
00010000
00000000
00000000
,
01000000
01100000
20010000
30010000
,
10000000
00000000
00100000
10000000
00000000
00000000
00020000
00000000
00000000
00130000
00000000
00000000
,
00002000
00000000
00000000
00013000
00000000
00000000
00000010
00000000
00001000
00000010
00000000
00000000
,
00001000
00000000
00000001
00001000
00000000
00000000
00000001
00000000
00000000
00000101
00000000
00000000
,
00001100
00000110
00001002
00001003
,
00000001
00000000
00000100
00000001
00000000
00000000
00002000
00000000
00000000
00003100
00000000
00000000
,
00020000
00000000
00000000
00031000
00000000
00000000
01000000
00000000
00010000
01000000
00000000
00000000
,
00010000
00000000
10000000
00010000
00000000
00000000
10100000
00000000
00000000
10100000
00000000
00000000
,
01010000
00000000
00000000
20020000
00000000
00000000
30030000
00000000
00000000
10000000
00000000
01000000
,
10000000
00020000
00030000
01000000
,
00022000
00000000
00000000
00033000
00000000
00000000
00010000
00000000
00000100
00010000
00000000
00000000
,
00000200
00000310
00000000
00000010
,
00002002
00000000
00000000
00003003
00000000
00000000
00000001
00000000
00000100
00000001
00000000
00000000
,
00002000
00003100
00000000
00000100
,
00022000
00000000
00000000
00033000
00000000
00000000
00001000
00000000
00010000
00001000
00000000
00000000
,
00200000
00310000
20000000
30100000
,
20010000
00000000
00000000
31000000
00000000
00000000
10000000
00000000
00010000
02000000
00000000
00000000
,
03000000
00001000
00011000
00010000
,
00001000
00000000
00010000
00000100
00000000
00000000
00001100
00000000
00000000
00000202
00000000
00000000
,
00000303
00000000
00000000
00001000
00000000
00000000
00001020
00000000
00000000
00003130
00000001
00001000
,
00000002
00000000
00000000
00000013
00000000
00000000
00000001
00000000
00001000
00000020
00000000
00000000
,
00000030
00000000
00000000
00010000
00000000
00000000
00021000
00000000
00000000
00031000
00000000
00001000
,
00200000
00300000
00110000
10010000
,
10000000
00000000
00000000
01000000
00000000
00000000
10000000
00010000
10000000
00000000
00000000
00000000
,
00010000
00000000
01000000
00010000
00000000
00000000
10000000
00000000
10000000
00000000
00000000
00000000
,
00010000
00100000
00011000
00000100
,
00010000
00000000
00001000
00010000
00000000
00001000
00020000
00000000
00000000
00030020
00000000
00000000
,
00000330
00000000
00000000
00000100
00000000
00000000
00001001
00000000
00000000
00000001
00001000
00000001
,
00000000
00000000
00001200
00020300
,
00031000
00000000
00000000
01000000
00000000
00000000
01010000
00000000
00000000
10030000
01000000
10000000
,
02000000
03100000
00200000
00301000
,
00101000
00011000
00010100
00022000
,
00033000
00000000
00000000
00000000
;

//---------------dance-double - ----------------
#NOTEDATA:;
#CHARTNAME:;
#STEPSTYPE:dance-double;
#DESCRIPTION:;
#CHARTSTYLE:;
#DIFFICULTY:Easy;
#METER:5;
#RADARVALUES:0.238197,0.267494,0.124831,0.294244,0.004458,187.000000,173.000000,14.000000,33.000000,0.000000,0.000000,0.000000,0.000000,0.000000,0.238197,0.267494,0.124831,0.294244,0.004458,187.000000,173.000000,14.000000,33.000000,0.000000,0.000000,0.000000,0.000000,0.000000;
#CREDIT:Ben Speirs;
#DISPLAYBPM:132.000000;
#NOTES:
00000000
00000000
00000000
00000000
,
00000000
00000000
00000000
00000000
,
00010000
00001000
00011000
00000000
,
00000000
00010000
00011000
00000000
,
00010000
00000100
00000010
00000000
,
00000010
00000001
00000100
00000000
,
00000100
00000010
00010000
00000000
,
00010000
00001000
00010000
00000000
,
00001000
00100000
01000000
00000000
,
00100000
01000000
10000000
00000000
,
00010000
01000000
00010000
00000000
,
20000000
30020000
00230000
00302000
,
00003000
00022000
00033000
00000000
,
00010000
00000100
00000010
00000000
,
00000001
00001000
00000010
00000000
,
00001000
00001000
00000100
00000100
,
00020000
00030000
00001000
00100000
,
00002000
00003000
00100000
00010000
,
02000000
03000000
00010000
01000000
,
00100000
00000000
00000000
00100000
00000000
00000000
10000000
00000000
00000000
00000000
00000000
10010000
,
00000000
00000000
10000000
01000000
,
00010000
00001000
00000020
00000030
,
00000001
00001000
00000001
00000100
,
00001000
00010000
00200000
00300000
,
10000000
00010000
20000000
30000000
,
00010000
00010000
00200000
00300000
,
00001000
00001000
00020000
00030000
,
00000100
00000100
00001000
00000001
,
00000100
00000000
00000010
00001001
,
00000010
00001001
00001000
00000100
,
00010000
00000000
00000100
00000100
,
00010000
00010000
00001000
00100000
,
01000000
00000000
01000000
10010000
,
01000000
10010000
00010000
00100000
,
00001000
00000000
00100000
00100000
,
00001000
00001000
00010000
00001000
,
00010000
00001000
00000000
00010000
,
00000100
00000000
00001000
00000000
,
00000001
00000001
00000000
00001000
,
00000010
00000000
00010000
00000000
,
00001000
00001000
00000000
00100000
,
00010000
00000000
10000000
00000000
,
00100000
00100000
00000000
10000000
,
00010000
00000000
00010000
01000000
,
20020000
30030000
20020000
30030000
,
10000000
00010000
00100000
00100000
,
00002000
00003000
00020000
00030000
,
00001000
00010000
00000200
00000300
,
00002002
00003003
00002002
00003003
,
00000001
00001000
00000020
00000030
,
00022000
00000000
00000000
00033000
,
00001000
00001000
00100000
00000000
,
00001000
01000000
00100000
00000000
,
10000000
00010000
01000000
00000000
,
00010000
10000000
00010000
02000000
,
03000000
00010000
00100000
00100000
,
00000000
00001000
00020000
00030000
,
00000000
00000100
00000200
00000300
,
00001000
00000001
00000100
00000100
,
00000010
00010000
00000010
00002002
,
00003003
00000000
00000000
00000000
;
