#TITLE:Love is War;
#SUBTITLE:;
#ARTIST:Helblinde feat. Hatsune Miku;
#TITLETRANSLIT:;
#SUBTITLETRANSLIT:;
#ARTISTTRANSLIT:;
#GENRE:;
#CREDIT:Braeden;
#MUSIC:Love is War.ogg;
#BANNER:ban.png;
#BACKGROUND:bg.png;
#CDTITLE:;
#SAMPLESTART:80.455;
#SAMPLELENGTH:19.400;
#SELECTABLE:YES;
#OFFSET:-0.060;
#BPMS:0.000=200.000
,121.000=100.000
,161.000=200.000
,217.000=100.000
,221.000=200.000
,341.000=100.000
;
#STOPS:118.000=0.900;
#BGCHANGES:;
#FGCHANGES:;

//--------------- dance-single - ----------------
#NOTES:
     dance-single:
     :
     Beginner:
     4:
     0.923,1,0.027,0.81,0.027:
0000
0000
0000
0000
,
0000
0000
0000
0000
,
0000
0000
0000
0000
,
1000
0000
0001
0000
,
2000
0000
3000
0000
,
0010
0000
0100
0000
,
0002
0000
0003
0000
,
1000
0000
0001
0000
,
0100
0000
0010
0000
,
2000
0000
3000
0000
,
0001
0000
0100
0000
,
0001
0000
0010
0000
,
0200
0000
0300
0000
,
1001
0000
1001
0000
,
0001
0000
1000
0000
,
0002
0000
0003
0000
,
0100
0000
0010
0000
,
1000
0000
0010
0000
,
0200
0000
0300
0000
,
0010
0000
0010
0000
,
0020
0000
0030
0000
,
0100
0000
0001
0000
,
1000
0000
0010
0000
,
0100
0000
0001
0000
,
2000
0000
3000
0000
,
0001
0000
0100
0000
,
0010
0000
1000
0000
,
0001
0000
1000
0000
,
0010
0000
1000
0000
,
0001
0000
1001
0000
,
0000
1000
0000
0001
,
0000
1001
0000
1000
,
0000
0010
0000
0100
,
0000
0001
0000
1000
,
0000
0100
0000
0010
,
0000
0110
0000
0010
,
0000
0100
0000
0010
,
0000
0010
0000
0001
,
0000
1000
0000
0001
,
0000
0100
0000
0010
,
0000
1000
0000
1000
,
0000
1000
0000
1000
,
0000
0010
0000
0010
,
0000
0010
0000
0010
,
0000
0100
0000
0100
,
0000
0100
0000
0100
,
0000
0001
0000
0001
,
0000
0001
0000
1000
,
0000
1001
0000
0001
,
0000
0100
0000
0010
,
0000
1000
0000
0001
,
0000
0100
0000
0010
,
0000
1000
0000
0001
,
0000
1000
0000
0001
,
0000
1001
0000
1000
,
0000
1001
0000
0001
,
0000
0100
0000
0010
,
0000
1000
0000
0000
,
0000
0001
0000
0100
,
0000
0020
0000
0030
,
0000
1000
0000
0001
,
0000
1000
0000
0010
,
0000
0100
0000
0001
,
0000
0100
0000
0010
,
0000
1000
0000
0001
,
0000
0100
0000
0001
,
0000
0010
0000
0100
,
0000
0020
0000
0030
,
0000
0100
0000
0010
,
0000
0001
0000
1000
,
0000
0001
0000
1000
,
0000
1001
0000
0001
,
0000
1000
0000
0010
,
0000
0100
0000
0000
,
0000
0001
0000
0010
,
0000
0002
0000
0003
,
0000
0100
0000
0010
,
0000
1000
0000
0001
,
0000
1000
0000
0001
,
0000
0020
0000
0030
,
0000
0001
0000
1000
,
0000
0002
0000
0003
,
0000
0100
0000
0010
,
0000
2000
0000
3000
,
0000
0001
0000
1000
,
0000
1000
0000
0001
,
0000
1001
0000
0000
;

//--------------- dance-single - ----------------
#NOTES:
     dance-single:
     :
     Easy:
     7:
     0.972,1,0.033,0.81,0.187:
0000
0000
0000
0000
,
2000
0000
0000
3001
,
0100
0000
0010
1000
,
0002
0000
2003
0000
,
3020
0100
0130
0010
,
2000
0000
3002
0000
,
0203
0000
0310
1000
,
0002
0000
0203
0000
,
0310
1000
0100
1000
,
0002
1000
1003
0010
,
0200
0000
0301
0010
,
0002
0000
1003
0100
,
0020
0000
0030
0001
,
0101
0000
0110
0000
,
1000
0010
1000
0000
,
2002
0000
3003
1000
,
0001
0100
0001
0010
,
0002
0000
0203
0000
,
0320
1000
1030
0010
,
0200
0000
0320
0000
,
2030
0001
3001
0000
,
0100
0010
0100
0001
,
2000
0000
3001
0010
,
0002
0000
0203
0000
,
0320
0000
1030
0001
,
2000
3020
0230
0302
,
2003
3020
0230
0301
,
2000
0000
3010
0100
,
0001
0000
1000
0010
,
1000
0001
1001
0000
,
1000
0000
0001
0000
0000
1000
0002
0000
,
0103
0000
0102
0000
2003
0000
3010
0010
,
0100
0010
0020
0000
0030
1000
0100
0010
,
0100
1000
0002
0000
0003
1000
0010
1000
,
0001
0010
0001
0100
0010
1000
0001
0010
,
0100
1000
1001
0000
0001
0100
0001
0010
,
0001
0100
0010
0000
1000
0100
1000
0001
,
0100
0010
0200
0000
0300
0010
1000
0001
,
0010
0001
0100
0010
1000
0001
0010
0100
,
1000
0001
2000
0000
0000
0000
3020
0000
,
0030
1010
1000
0001
,
1000
0001
1000
0001
,
0100
0100
0010
0100
,
0010
1000
0010
0100
,
0100
0001
1000
0001
,
1000
0001
1000
0010
,
0010
0100
0001
0100
,
0001
0100
0001
0100
,
0010
1010
1000
0001
,
1000
0010
1000
0001
,
0100
0010
1000
0001
,
0010
0100
1000
0001
,
0100
0010
0010
1000
,
1000
0100
0010
0001
,
0100
0101
0000
0200
,
0310
2020
0030
3002
,
0000
2003
3002
0203
,
0302
0203
0010
0310
,
2000
3002
0203
0320
,
2030
3002
0100
0103
,
0010
1000
0001
1000
,
0001
1000
0010
1000
,
0001
0100
0001
0010
,
0001
1000
0000
1000
,
0010
1000
0001
0100
,
0001
0200
0300
0001
,
1000
0001
1000
0010
,
1000
2000
0000
3000
,
0010
0100
0001
0010
,
0001
0100
0010
1000
,
0001
0010
0100
1000
,
0001
1002
0000
2003
,
0000
3010
0100
0001
,
0100
0020
0000
0000
,
1030
0001
1000
0010
,
1000
2000
0000
0000
,
3100
0010
0100
1000
,
0001
1000
0100
0010
,
0001
1000
0100
0010
,
0001
2000
0000
0000
,
3001
0010
0001
0100
,
0001
2000
0000
0000
,
3001
0010
0001
0001
,
0100
0020
0000
0000
,
0130
0001
0010
0001
,
1000
0000
0001
1000
0010
1000
0001
0010
,
0100
1000
1001
0000
0000
0000
0000
0000
;

//--------------- dance-single - ----------------
#NOTES:
     dance-single:
     :
     Medium:
     11:
     1,1,0.033,0.81,0.994:
0000
0000
0000
0000
,
2000
0000
0000
3001
,
0100
0000
0010
1000
,
0002
1000
2003
0001
,
3200
0010
1300
0001
,
2000
0001
3200
0010
,
0320
0000
0000
0130
0000
0001
1000
0001
,
2000
0001
3002
1000
,
0013
0100
1000
0001
,
2000
0001
3001
0100
,
0020
1000
1030
0001
,
0200
0310
1000
0001
,
0020
0001
0130
0010
,
0110
0000
0000
1000
0002
0000
0003
1000
,
0010
0000
1000
0000
0010
0100
0010
0000
,
1020
1000
0130
0001
,
0010
0100
1000
0000
0001
0100
0001
0000
,
2000
3010
0200
0301
,
2000
0000
3001
0000
1000
0010
1000
0000
,
0001
0100
0002
0000
1003
0010
0200
0000
,
0301
0010
0001
0100
0001
1000
0100
0000
,
0020
0000
0031
1000
0001
0000
1000
0001
,
2000
0000
0001
0000
3001
0000
1000
0010
,
0200
0001
0302
1000
,
0013
0000
0100
1000
0100
0000
0010
0001
,
2000
0001
0100
3001
,
0200
0010
0001
0310
,
1000
0000
0001
1000
0001
0000
1000
0010
,
1000
0001
0200
0310
,
0100
0010
0100
0000
0110
0000
0000
1000
,
0010
1000
0001
0000
0000
1000
0002
0000
,
0103
0000
1020
0000
1030
0000
0001
0010
,
1000
0010
0002
0000
0003
1000
1000
0100
,
0001
0100
2000
0000
3000
0001
1000
0100
,
0010
0001
1000
0010
0100
0001
1000
0001
,
0010
0001
1001
0000
1000
0010
0010
0100
,
0001
0100
0010
0000
1000
0100
0010
0010
,
0100
1000
0020
0000
0030
0100
0001
0010
,
0001
0100
0010
1000
0001
0010
0100
1000
,
0001
1000
0002
0000
0000
0000
0203
0000
,
0000
0300
0110
0000
0010
0000
0010
0000
,
0010
0010
0010
0010
,
1000
0001
1000
0000
1000
0000
1000
0000
,
1000
0000
0010
0000
0100
0000
0001
0100
,
0001
0100
0001
0000
0001
0000
1000
0000
,
1000
0010
0010
0100
,
0001
0010
0001
0000
1000
0000
0001
0000
,
1000
0000
0010
0100
0010
0100
0010
0000
,
0100
1001
0001
1000
,
0010
1000
0001
1000
,
0001
0100
0001
0000
0100
0000
0010
0000
,
1000
0000
0100
0000
0010
0000
0001
0010
,
0001
0010
0100
1000
0100
1000
0001
0100
,
0001
0010
0001
0100
0010
1000
0001
0010
,
0100
1000
0001
0000
0000
1000
0002
0000
,
0103
0102
1000
0010
,
1003
0000
0001
0010
0100
1000
0001
0100
,
0010
1000
0002
0000
1000
0000
0013
0000
,
0100
0000
0001
0010
0100
1000
0010
0100
,
0001
2000
3010
1010
,
1000
0000
0001
0100
0001
0000
1000
0100
,
1000
0002
0203
0320
,
1030
1001
0001
0101
,
0100
0000
0110
0000
0000
0000
0010
1000
,
0010
0000
0100
0001
0100
0000
0001
0010
,
0001
0100
0010
1000
0010
0000
1000
0100
,
0010
0000
0001
0010
0100
0000
1000
0010
,
1000
0002
1003
0010
,
1000
0000
0001
0010
0001
0000
0100
0010
,
0100
0000
0001
0010
0001
0000
0100
0010
,
0100
0001
0010
0100
,
1000
2002
0003
0020
,
0030
3200
0010
0001
,
0010
2300
0001
3001
,
0010
0200
0010
1000
,
0010
0302
1000
1003
,
0002
1000
0010
1000
,
0013
0200
1000
0001
,
1300
0020
1000
0100
,
1030
0000
0000
0000
0001
0000
0000
0100
0000
0000
0001
0000
0000
0100
0000
0000
,
0002
2003
0010
0100
,
3001
0000
0000
0000
1000
0000
0000
0001
0000
0000
0010
0000
0000
1000
0000
0000
,
0010
0002
1000
0010
,
1003
0000
0000
0000
0001
0000
0000
0100
0000
0000
0001
0000
0000
0010
0000
0000
,
0001
2000
0001
0100
,
3001
0000
1000
0010
0100
0001
0010
0100
,
1000
0001
1001
0000
0000
0000
0000
0000
;

//--------------- dance-single - XO BU- FS- ----------------
#NOTES:
     dance-single:
     XO BU- FS-:
     Hard:
     14:
     1,1,0.033,0.81,1:
0000
0000
0000
0000
,
2000
0000
0000
3001
,
0100
0000
0010
1000
,
0002
0010
1003
0010
,
0200
0000
0301
0000
1000
0000
0001
0100
,
0001
0000
0100
0010
0100
0000
0010
1000
,
0001
0000
0000
0101
0000
0001
0100
1000
,
0200
0301
2000
3001
,
1000
0100
1000
0100
0010
0001
0010
0001
,
2000
3001
0100
0200
,
0301
0010
0100
1000
0001
1000
0001
0100
,
1000
0100
0001
0000
1000
0100
0010
0100
,
0002
0000
0103
0010
0001
0000
1000
0000
,
2002
0000
3003
0001
0101
0000
0100
0010
,
1010
0000
1100
0000
1000
0001
1000
0000
,
1001
1000
0100
0010
0001
1000
0001
0100
,
1000
0100
0010
0100
0001
1000
0010
0100
,
1000
0100
0010
0100
0002
0000
1003
0000
,
0001
0100
0001
0100
0010
0000
1000
0000
,
0001
0100
0001
0100
1000
0100
1000
0100
,
0001
0010
0001
0010
0100
0000
1000
0001
,
0100
0000
0000
0000
0010
0000
0M10
0000
0001
0000
0000
0000
0010
000M
0010
0000
,
0200
0000
0000
0000
0301
0000
1000
0000
0001
0000
0000
0000
1000
0000
0010
0M00
,
0010
0001
1000
0100
0010
0100
1000
0100
,
0010
0001
0100
0010
1000
0100
1000
0001
,
2000
0010
0100
3001
,
0200
0010
0010
0301
,
1000
0100
1000
0100
0010
0001
0010
0001
,
1000
0100
0001
0100
1000
0100
0010
0001
,
1000
0001
0100
0000
0110
0000
0000
0010
,
1000
0001
1000
0000
0000
0001
0100
0000
,
0001
0000
1002
0000
1003
0000
0001
0010
,
1000
0010
0002
0000
0003
1000
1000
0100
,
0001
0100
2000
0000
3000
0010
0010
0100
,
0001
0100
1000
0100
0001
0100
0001
0010
,
0001
1000
0010
1000
1010
0000
0000
0000
1000
0000
0100
0000
0100
0000
0001
0000
,
0100
0000
1000
0000
0001
0000
0000
0000
1000
0000
0010
000M
0010
0000
0001
0000
,
0010
0100
0020
0000
0031
1000
0001
0010
,
1000
0010
0001
1000
0100
0001
0100
1000
,
0010
0100
0020
0000
0000
0000
2030
0000
,
0000
3000
1001
0001
0100
1000
0100
0010
,
0100
1000
0100
0001
0100
0010
0100
0001
,
1000
1000
0001
0010
0100
0010
1000
0010
,
0100
0010
0001
0000
1000
0000
0010
0010
,
0010
0010
1000
0100
0001
0100
1000
0100
,
0010
0100
0001
0100
0010
0100
1000
0000
,
0001
0001
1000
0010
0001
0010
1000
0010
,
0100
0010
1000
0100
0010
0001
1000
0100
,
0001
0100
1100
0000
1000
0001
1000
0100
,
1000
0010
1000
0001
1000
0100
1000
0001
,
0100
0100
0010
1000
0010
0100
0010
0001
,
0010
0100
0010
0000
1000
0000
0001
0001
,
0001
0000
0001
0000
1000
0010
1000
0000
0001
0100
0000
0010
1000
0000
0001
0100
,
0000
0010
1000
0000
0001
0000
0100
0010
0000
1000
0100
0000
0010
0000
0100
0000
,
1000
0001
1001
0000
2000
3010
0100
0000
,
0001
2000
3001
0200
,
0310
0000
1000
0100
0010
0001
0100
0001
,
0010
0100
1000
0000
0001
0100
0010
0000
,
2000
0000
3001
0010
0001
0100
0001
1000
,
0010
0100
0020
0000
1030
0001
1000
0000
,
0001
1000
0001
0010
1000
0010
0001
0100
,
1000
0100
0001
0010
0001
0010
0100
1000
,
0100
1000
0001
0100
0001
0100
0010
1000
,
0010
1000
1001
0000
0001
0000
0100
0010
,
0100
0001
0100
0001
0100
0010
1000
0001
,
1000
0010
0200
0000
0310
0000
1000
0001
,
1000
0010
1000
0100
0010
0001
1000
0010
,
0100
0001
2000
0000
3010
0100
0001
0000
,
1000
0000
0001
0100
1000
0100
0001
0010
,
0001
0000
1000
0100
0010
0001
0100
0010
,
1000
0001
1000
0100
0001
0100
1000
0010
,
1000
0000
0000
0000
1001
0000
0000
0001
0000
0000
0100
0000
0000
0010
0000
0000
,
1000
0000
0100
0000
1000
0000
0000
0001
0000
0000
0100
0000
0000
0010
0000
0000
,
1000
0000
0001
0000
0100
0000
0000
0010
0000
0000
1000
0000
0000
0100
0000
0000
,
0010
0000
0001
1000
0001
0000
0000
0100
0000
0000
0010
0000
0000
1000
0000
0000
,
0001
0000
0000
1000
0010
0000
0000
1000
0000
0000
0100
0000
0000
1000
0000
0000
,
0001
0000
1000
0010
1000
0000
0000
0100
0000
0000
0010
0000
0000
0001
0000
0000
,
0100
0000
0010
0100
0010
0000
0000
0100
0000
0000
0001
0000
0000
1000
0000
0000
,
0100
0000
0000
0000
0010
0000
0000
0001
0000
0000
0100
0000
0000
0001
0000
0000
,
0010
0000
0000
0000
0100
0000
0000
1000
0000
0000
0100
0000
0000
0001
0000
0000
,
0100
0000
0000
0000
1000
0000
0000
0010
0000
0000
0001
0000
0000
0010
0000
0000
,
1000
0000
0000
0000
0001
0000
0000
0100
0000
0000
0010
0000
0000
1000
0000
0000
,
0001
0000
0000
0000
1000
0000
0000
0100
0000
0000
0010
0000
0000
0001
0000
0000
,
0100
0000
0000
0000
0010
0000
0000
1000
0000
0000
0100
0000
0000
1000
0000
0000
,
0001
0000
0000
0000
1000
0000
0000
0100
0000
0000
0010
0000
0000
0001
0000
0000
,
0100
0000
0010
0100
0001
1000
0001
0010
,
0001
0010
0011
0000
0000
0000
0000
0000
;

//--------------- dance-double - ----------------
#NOTES:
     dance-double:
     :
     Hard:
     14:
     0,0,0,0,0:
00000000
00000000
00000000
00000000
,
00020000
00000000
00000000
00031000
,
02000000
03000000
00100000
10000000
,
00020000
10000000
00130000
01000000
,
10000000
00010000
01000000
00010000
00100000
00001000
00010000
00001000
,
00020000
00001000
00030020
00010000
,
00001030
00000000
00000000
00001010
00000000
00001000
00000010
00000100
,
00000001
00000010
00000001
00000010
00000100
00001000
00000100
00001000
,
00000100
00010000
00000100
00001000
00000100
00010000
00001000
00010000
,
00002000
00010000
00013000
00002000
,
02003000
00000000
03100000
00000000
10000000
01000000
00100000
00010000
,
10000000
01000000
10000000
00010000
02000000
00000000
00001000
00000000
,
03010000
00100000
00001000
00010000
00001000
00010000
00000100
00001000
,
00001100
00000000
00000000
00001000
00001001
00000000
00000000
00000001
,
00001000
00000000
00000001
00000000
00001000
00000010
00001000
00000000
,
00000001
00000010
00001000
00000010
00000001
00001000
00000100
00010000
,
00000100
00001000
00000100
00000010
00000100
00001000
00000100
00010000
,
00002000
01003000
00200000
10300000
,
00010000
00100000
10000000
00100000
01000000
10000000
00010000
00000000
,
02000000
00000000
00001000
00000000
03010000
00001000
00000100
00001000
,
00010000
00000100
00001000
00000100
00000010
00000100
00001000
00000010
,
00001000
00000001
00001000
00000100
00001000
00000001
00000100
00000010
,
00000100
00000001
00001000
00000100
00001000
00000010
00000100
00000001
,
00000100
00000010
00000100
00000000
00000001
00001000
00000001
00000000
,
00000010
00000100
00010000
00000100
00000010
00010000
00001000
00100000
,
00001000
01000000
00100000
00000000
10000000
01000000
00100000
00000000
,
00110000
00010000
10010000
10000000
,
00010000
01000000
10000000
01000000
00100000
01000000
00010000
00100000
,
00001000
00010000
00000100
00000010
00000100
00010000
00001000
01000000
,
00100000
01000000
00010000
10000000
00010000
00000000
00000000
10000000
,
00010000
00100000
00001000
00000000
00000000
00010000
00002000
00000000
,
00013000
00000000
00020100
00000000
00030020
00000000
00000031
00000100
,
00001000
00000100
00000020
00000000
00000030
00010000
00010000
00001000
,
00000100
00001000
00020000
00000000
00030000
00001000
00001000
00100000
,
01000000
00100000
00001000
01000000
00100000
01000000
00010000
10000000
,
01000000
00100000
00000000
00010000
00110000
00000000
00000000
00000000
00010000
00000000
00100000
00000000
10000000
00000000
00100000
00000000
,
00010000
01000000
00001000
00000000
00010000
00000100
00001000
00000100
,
00000010
00000001
00001000
00000000
00000010
00001000
00000100
00000010
,
00000100
00001000
00010000
00100000
01000000
00100000
00010000
00001000
,
00000100
00000010
00020000
00000000
00000000
00000000
00032000
00000000
,
00000000
00000000
10003000
01000000
00010000
01000000
00100000
01000000
,
10000000
00010000
10000000
01000000
00010000
01000000
00100000
00010000
,
00100000
000M0000
00100000
00000000
01000000
00000000
00001000
00000000
00010000
00000000
00001000
00000000
01000000
00000000
00010000
00000000
,
00100000
00010000
00100000
00000000
00001000
00000000
00010000
00010000
,
00010000
00010000
00000010
00001000
00000010
00010000
00000010
00000100
,
00000010
00001000
00000010
00001000
00000010
00000100
00000001
00001000
,
00000010
0000000M
00000010
00000000
00000001
00000000
00000100
00000000
00000010
00000000
00001000
00000000
00000100
00000000
00010000
00000000
,
00001000
00100000
00010000
01000000
00100000
00010000
00100000
01000000
,
00010000
00100000
00110000
00010000
01000000
00100000
10000000
01000000
,
00010000
01000000
10000000
00100000
01000000
00010000
00100000
00001000
,
00010000
0000M000
00010000
00000000
00100000
00000000
00001000
00000000
00010000
00000000
00000100
00000000
00010000
00000000
00000100
00000000
,
00001000
00000010
00001000
00000000
00001010
00000000
00000010
00000010
,
00000010
00000000
00000010
00000000
00001000
00000001
00001000
00000000
00000010
00001000
00000000
00000100
00001000
00000000
00000010
00001000
,
00000000
00000010
00000100
00000000
00000001
00000000
00000100
00000000
00000010
00000000
00010000
00000000
00001000
00000000
00010000
00000000
,
01000000
00100000
01100000
00000000
02000000
03100000
01000000
00000000
,
00001000
00000000
00010000
00001000
00000100
00001000
00010000
00000100
,
00001000
00000010
00001000
00000000
00001010
00000000
00001001
00000000
,
00000101
00000000
00000001
00000010
00000000
00001000
00000010
00000001
,
00001000
00000100
00010000
00001000
00100000
00010000
00100000
00001000
,
01000000
00000000
10100000
00000000
10000000
01000000
00010000
01000000
,
10000000
00000000
00010000
00100000
10000000
00100000
00010000
00001000
,
00000100
00000001
00000100
00000010
00000100
00010000
00001000
01000000
,
00100000
10000000
01000000
00010000
01000000
00100000
00010000
00100000
,
00001000
00000000
00101000
00000000
00000000
00000000
00100000
00001000
,
00010000
00001000
00000100
00000010
00000100
00000001
00000100
00000010
,
00010000
00000000
00010100
00000000
00000100
00000000
00010000
00001000
,
00100000
00010000
01000000
00001000
01000000
00100000
10000000
01000000
,
00100000
00010000
10000000
00000000
00010000
01000000
00010000
00000000
,
01000000
00000000
00010000
00100000
01000000
00100000
00010000
01000000
,
00100000
00010000
00100000
01000000
00010000
00100000
00001000
00010000
,
00000100
00001000
00000010
00001000
00000001
00000010
00000100
00001000
,
00000001
00000000
00000000
00000000
00001001
00000000
00000000
00000001
00000000
00000000
00000100
00000000
00000000
00010000
00000000
00000000
,
00001000
00000000
01000000
00000000
00010000
00000000
00000000
01000000
00000000
00000000
10000000
00000000
00000000
01000000
00000000
00000000
,
00100000
00000000
01000000
00000000
00010000
00000000
00000000
00100000
00000000
00000000
01000000
00000000
00000000
00100000
00000000
00000000
,
00010000
00000000
00100000
00000000
00001000
00000000
00000000
00000010
00000000
00000000
00001000
00000000
00000000
00100000
00000000
00000000
,
00001000
00000000
00000000
00000000
00010000
00000000
00000000
00001000
00000000
00000000
01000000
00000000
00000000
10000000
00000000
00000000
,
01000000
00000000
00010000
00000000
10000000
00000000
00000000
01000000
00000000
00000000
00001000
00000000
00000000
01000000
00000000
00000000
,
00010000
00000000
00001000
00000000
00010000
00000000
00000000
00000100
00000000
00000000
00000010
00000000
00000000
00000100
00000000
00000000
,
00010000
00000000
00000000
00000000
00000010
00000000
00000000
00010000
00000000
00000000
00001000
00000000
00000000
00010000
00000000
00000000
,
00100000
00000000
00000000
00000000
01000000
00000000
00000000
10000000
00000000
00000000
01000000
00000000
00000000
00010000
00000000
00000000
,
00100000
00000000
00000000
00000000
00001000
00000000
00000000
00010000
00000000
00000000
00001000
00000000
00000000
00000100
00000000
00000000
,
00000001
00000000
00000000
00000000
00000100
00000000
00000000
00000010
00000000
00000000
00001000
00000000
00000000
00000010
00000000
00000000
,
00010000
00000000
00000000
00000000
00001000
00000000
00000000
01000000
00000000
00000000
00100000
00000000
00000000
00010000
00000000
00000000
,
00100000
00000000
00000000
00000000
01000000
00000000
00000000
00001000
00000000
00000000
00010000
00000000
00000000
00000010
00000000
00000000
,
00001000
00000000
00000000
00000000
00000001
00000000
00000000
00000100
00000000
00000000
00000010
00000000
00000000
00001000
00000000
00000000
,
00000001
00000000
00000001
00001000
00000100
00100000
00010000
10000000
,
00001000
01000000
00011000
00000000
00000000
00000000
00000000
00000000
;
