#TITLE:Love Again;
#SUBTITLE:;
#ARTIST:Dua Lipa;
#TITLETRANSLIT:;
#SUBTITLETRANSLIT:;
#ARTISTTRANSLIT:;
#GENRE:;
#CREDIT:;
#MUSIC:Love Again.ogg;
#BANNER:;
#BACKGROUND:;
#CDTITLE:;
#SAMPLESTART:9.048;
#SAMPLELENGTH:15.000;
#SELECTABLE:YES;
#OFFSET:1.297;
#BPMS:0.000=116.000;
#STOPS:;
#BGCHANGES:;
#FGCHANGES:;

//--------------- dance-single - eataninja ----------------
#NOTES:
     dance-single:
     eataninja:
     Beginner:
     2:
     0,0,0,0,0:
0000
0000
0000
0000
,
0000
0000
0000
0000
,
0000
0000
0000
0000
,
0000
0000
0000
0000
,
0000
0000
0000
0000
,
1000
0000
0001
0000
,
0010
0000
0000
0000
,
0100
0000
0010
0000
,
0001
0000
0000
0000
,
1000
0000
0001
0000
,
0100
0000
0000
0000
,
0010
0000
0010
0000
,
0100
0000
0000
0000
,
0001
0000
1000
0000
,
0100
0000
0000
0000
,
0010
0000
0100
0000
,
1000
0000
0000
0000
,
0001
0000
1000
0000
,
0010
0000
0000
0000
,
0100
0000
0100
0000
,
0010
0000
0000
0000
,
0110
0000
0000
0000
,
0100
0000
0001
0000
,
1001
0000
0000
0000
,
0010
0000
0100
0000
,
1000
0000
1000
0000
,
0001
0000
0000
0000
,
1000
0000
1000
0000
,
0001
0000
0000
0000
,
0100
0000
0010
0000
,
0220
0000
0330
0000
,
1000
0000
0001
0000
,
0010
0000
0100
0000
,
1000
0000
0001
0000
,
0100
0000
0010
0000
,
0100
0000
0001
0000
,
1000
0000
0100
0000
,
0010
0000
0001
0000
,
1000
0000
0010
0000
,
0100
0000
0100
0000
,
0001
0000
0000
0000
,
0001
0000
0001
0000
,
1000
0000
0000
0000
,
0100
0000
0100
0000
,
0010
0000
0000
0000
,
0001
0000
1000
0000
,
0010
0000
0100
0000
,
0020
0000
0000
0000
,
0030
0000
0000
0000
;

//--------------- dance-single - eataninja ----------------
#NOTES:
     dance-single:
     eataninja:
     Easy:
     5:
     0,0,0,0,0:
0000
0000
0000
0000
,
0000
0000
0000
0000
,
0000
0000
0000
0000
,
0000
0000
0000
0000
,
0000
0000
0000
0000
,
1000
0001
0100
0010
,
0100
0100
0001
0000
,
1000
0001
0010
0010
,
0100
1000
0001
0000
,
1000
0010
0001
0010
,
0100
0100
0001
1000
,
0100
0010
1001
0000
,
0001
1000
0020
0230
,
0301
1000
0100
0010
,
0100
0100
1000
0000
,
0001
1000
0010
0010
,
0100
0001
1000
0000
,
0001
0010
1000
0010
,
0100
0100
1000
0001
,
0100
0010
1001
0000
,
1000
0001
0020
0130
,
1000
0000
1100
0000
,
1000
0100
0001
0100
,
0010
0000
0011
0000
,
0001
1000
0010
0100
,
0001
0000
1000
0000
,
2000
3001
0002
0003
,
0100
0000
0010
0000
,
2000
3001
0002
0003
,
0010
0100
1001
0000
,
1000
0010
0100
0100
,
0002
1003
0002
1003
,
0100
0010
0001
1000
,
0020
1030
0020
1030
,
0001
0010
0100
0001
,
0200
0310
0200
0310
,
0001
1000
0010
0100
,
0002
1003
0002
1003
,
0100
0010
0100
0000
,
1000
1001
0001
1001
,
0100
0010
1000
0000
,
0001
1001
1000
1001
,
0100
0010
0001
0000
,
0100
0110
1000
1001
,
0010
0110
1000
0001
,
0010
0100
1001
0000
,
0001
0010
1000
0100
,
0002
0000
0000
0000
,
0003
0000
0000
0000
;

//--------------- dance-single - eataninja ----------------
#NOTES:
     dance-single:
     eataninja:
     Medium:
     8:
     0,0,0,0,0:
0000
0000
0000
0000
,
0000
0000
0000
0000
,
0000
0000
0000
0000
,
0000
0000
0000
0000
,
0000
0000
0000
0000
,
1000
0000
0010
0000
0001
0010
1000
0000
,
0001
0010
0001
1000
0000
0100
0100
0000
,
1000
0000
0010
0000
0001
0010
1000
0000
,
0001
0100
0010
0100
0000
0001
0001
0000
,
1000
0000
0100
0000
0010
0001
0100
0000
,
0001
0001
0100
1000
0000
0100
0010
1000
,
0000
0001
0011
0000
1100
0000
0000
1000
,
0010
0010
0100
0000
0002
1000
1003
0000
,
0001
0010
0001
0000
1000
0010
0001
0000
,
0010
0100
0010
1000
0000
0001
0001
0000
,
1000
0100
1000
0000
0001
0100
1000
0000
,
0100
0010
1000
0001
0000
1000
1000
0000
,
0001
0010
0100
0000
1000
0010
0100
0000
,
0001
1000
0001
0010
0000
0100
1000
0001
,
0000
0100
0101
0000
1010
0000
0000
0001
,
0010
0010
0100
0000
2001
0000
3010
0000
,
0100
0001
1000
1000
0000
1000
0100
0010
,
0001
0100
0100
0000
1000
0100
0100
0000
,
0010
1000
0001
0001
0000
0001
0010
0100
,
1000
0010
0100
0000
1000
0100
0001
0000
,
0100
0010
0100
0000
0001
1000
0001
0000
,
0010
0100
1000
0000
2002
0000
3003
0000
,
1000
0010
0100
0000
0010
0100
0001
0000
,
1000
0001
0010
0000
2002
0000
3003
0000
,
1000
0010
1000
0010
0100
0001
0100
0001
,
1000
0000
0200
0320
,
0031
0011
1000
1010
,
0001
0100
1000
0000
0010
0000
0001
0000
,
1000
1100
0001
0101
,
1000
0010
0001
0000
0100
0000
1000
0001
,
0100
0110
1000
1001
,
0001
0010
1000
0000
0100
0000
0001
0000
,
1000
0100
1000
0000
0001
0100
0100
0000
,
0001
0010
0001
0000
1000
0100
0010
0001
,
1000
0010
0100
0020
0000
1030
0001
2000
,
0000
3001
0010
0002
0000
0013
0100
1000
,
0001
0100
0010
0200
0000
0301
1000
0002
,
0000
0013
0100
2000
0000
3001
0100
0001
,
1000
0010
0100
0002
0000
0013
0100
2000
,
0000
3001
0100
0002
0000
1003
0100
0010
,
0000
0001
1001
0000
0110
0000
0000
0100
,
0001
0001
0010
0000
1000
0000
0100
0002
,
0000
0000
0000
0000
,
0003
0000
0000
0000
;

//--------------- dance-single - eataninja ----------------
#NOTES:
     dance-single:
     eataninja:
     Hard:
     10:
     0,0,0,0,0:
0000
0000
0000
0000
,
0000
0000
0000
0000
,
0000
0000
0000
0000
,
0000
0000
0000
0000
,
0000
0000
0000
0000
0000
0000
0000
0000
1000
0010
0000
0000
0010
0100
0000
0000
,
0001
0000
1000
0000
0100
0000
0010
1000
0000
0000
0020
0000
0100
0000
0130
0000
,
1000
0001
0100
0010
0000
0100
0101
0000
,
1000
0000
0001
0000
0100
0000
0010
0001
0000
0000
0020
0000
0100
0000
0130
0000
,
0001
1000
0100
0010
0000
0001
0011
0000
,
1000
0000
0001
0000
1000
0000
0100
0001
0000
0000
0100
0000
0010
0000
0002
0000
,
1000
1003
0010
0001
0000
0010
0100
0010
,
0000
1000
1010
0000
0011
0000
0000
1000
,
0001
0001
0200
0000
2300
0000
3010
0001
,
0000
0000
1000
0000
0001
0000
0010
1000
0000
0000
0010
0000
0100
0000
2000
0000
,
0001
3001
1000
0010
0100
0010
1000
0000
,
0001
0000
1000
0000
0001
0000
0010
1000
0000
0000
0020
0000
0100
0000
0130
0000
,
1000
0001
0100
0010
1000
0010
0100
0000
,
0001
0000
1000
0000
0100
0000
0010
1000
0000
0000
0020
0000
0100
0000
0130
0000
,
1000
1000
0001
0100
0000
1000
0100
0001
,
0000
0001
0101
0000
1100
0000
0000
1000
,
0001
0001
0020
0000
2030
0000
3100
0001
,
1000
1000
0001
0011
0000
1000
0001
0100
,
2000
3200
0302
1003
,
0001
0001
1000
1100
0000
0001
1000
0100
,
0002
0203
2300
3020
,
0130
0001
0100
0001
1000
0100
1000
0100
,
0010
0001
0100
0000
1200
0000
0301
0000
,
0001
1000
0100
0010
0001
1000
0010
0100
,
0001
0010
1000
0000
1020
0000
0031
0000
,
1000
1000
0001
1000
0010
0100
0001
0001
,
1000
0100
0002
0000
2003
0000
3010
0001
,
1000
0000
0000
0000
1010
0000
0000
0010
0100
0000
0000
0000
0101
0000
0000
0001
,
1000
0010
0002
0000
2003
0000
3100
0010
,
1000
0000
0000
0000
1100
0000
0000
0100
0010
0000
0000
0000
0011
0000
0000
0001
,
1000
0010
0001
0000
0200
0000
1300
0010
,
0100
0000
0000
0000
0101
0000
0000
1000
0100
0000
0000
0000
1100
0000
0000
0001
,
1000
0010
0002
0000
2003
0000
3100
0001
,
0010
0000
0000
0000
0011
0000
0000
1000
0010
0000
0000
0000
1010
0000
0000
0001
,
0100
0000
0000
0000
0101
0000
0000
0001
0010
0000
0100
0000
1000
0000
1000
0000
,
0001
0000
0100
0000
1000
0000
0100
0020
0000
0000
1030
0000
0001
0000
0010
0200
,
0000
0000
0310
0000
1000
0000
0010
0200
0000
0000
1300
0000
0001
0000
0001
0000
,
1000
0000
0010
0000
0001
0000
0010
0200
0000
0000
0301
0000
1000
0000
0100
0020
,
0000
0000
0130
0000
0001
0000
0100
0020
0000
0000
0031
0000
1000
0000
1000
0000
,
0001
0000
0100
0000
0010
0000
1000
0200
0000
0000
0310
0000
0001
0000
1000
0020
,
0000
0000
0130
0000
0010
0000
0100
0002
0000
0000
1003
0000
0001
0000
0010
0000
,
0000
0001
0101
0000
1100
0000
0000
0001
,
0010
1000
0200
0000
0302
0000
0010
0023
,
0000
0000
0000
0000
,
0030
0000
0000
0000
;
