#TITLE:Lose You (Chico Rose Remix);
#SUBTITLE:;
#ARTIST:Tiesto feat. ILIRA;
#TITLETRANSLIT:;
#SUBTITLETRANSLIT:;
#ARTISTTRANSLIT:;
#GENRE:;
#CREDIT:;
#MUSIC:Lose You (Chico Rose Remix).ogg;
#BANNER:Lose You (Chico Rose Remix).png;
#BACKGROUND:Lose You (Chico Rose Remix)-bg.png;
#CDTITLE:;
#SAMPLESTART:95.671;
#SAMPLELENGTH:15.000;
#SELECTABLE:YES;
#OFFSET:-0.041;
#BPMS:0.000=123.000;
#STOPS:;
#BGCHANGES:;
#FGCHANGES:;

//--------------- dance-single - ----------------
#NOTES:
     dance-single:
     :
     Hard:
     15:
     0,0,0,0,0:
0000
0000
0000
0000
,
0000
0000
0000
0000
,
0000
0000
0000
0000
,
0000
0000
0000
0000
,
0000
0000
0000
0000
,
0100
0000
1000
0010
1000
0000
0100
0010
0001
0100
0001
0000
0010
0000
0100
0000
,
0001
0100
1000
0000
0010
0000
0100
0000
1000
0100
0001
0000
0010
0000
0100
0000
,
0010
0001
0100
0001
0010
0100
1000
0010
0100
0001
0010
0001
0100
0010
1000
0100
,
0010
0000
0001
0000
0001
0000
0100
0000
0010
0000
0010
0000
1000
0000
0100
0000
0100
0000
1000
0000
0000
0010
0000
0000
,
MMMM
MMMM
MMMM
MMMM
,
0000
0000
0001
1000
0001
1000
0001
0000
0020
0000
0000
0000
0030
0000
0000
0000
,
0100
0010
0001
1000
0020
0030
0200
0301
,
0010
0000
0000
0100
0000
0000
0000
0000
0010
0001
0000
0010
0001
0000
0000
0100
0000
0010
1000
0000
0000
0100
0000
0000
,
2000
0000
0000
0010
0000
0000
0000
0000
0000
0010
0000
0000
0000
0000
0000
3010
0000
1000
0100
0000
0000
0010
0000
0000
,
0002
0000
0000
0010
0000
0000
0000
0000
0013
0001
0000
0000
0100
0000
0000
0000
0000
1000
0100
0000
0000
0010
0000
0000
,
0100
0010
1000
0001
0020
0030
0200
1300
,
0010
0000
0000
0100
0000
0000
0000
0000
0010
1000
0000
0010
1000
0000
0000
0100
0000
0010
0001
0000
0000
0100
0000
0000
,
0002
0000
0000
0010
0000
0000
0000
0000
0000
0010
0000
0000
0000
0000
0000
0013
0000
0001
0100
0000
0000
0010
0000
0000
,
2000
0000
0000
0010
0000
0000
0000
0000
3010
1000
0000
0000
0200
0000
0000
0000
0000
0000
0300
0000
0000
0000
0000
0000
,
0100
0010
0001
1000
0020
0130
0020
1030
,
0100
0000
0000
0010
0000
0000
0000
0000
0100
1000
0000
0100
1000
0000
0000
0010
0000
0100
0001
0000
0000
0010
0000
0000
,
0002
0000
0000
0100
0000
0000
0000
0000
0000
0100
0000
0000
0000
0000
0000
0103
0000
0001
0010
0000
0000
0100
0000
0000
,
2000
0000
0000
0100
0000
0000
0000
0000
3100
1000
0000
0000
0010
0000
0000
0000
0000
0001
0010
0000
0000
0100
0000
0000
,
0010
0100
0001
1000
0200
0310
0200
1300
,
0010
0000
0000
0100
0000
0000
0000
0000
0010
1000
0000
0010
1000
0000
0000
0100
0000
0010
0001
0000
0000
0100
0000
0000
,
0002
0000
0000
0010
0000
0000
0000
0000
0000
0010
0000
0000
0000
0000
0000
0013
0000
0001
0100
0000
0000
0010
0000
0000
,
2000
0000
0000
0010
0000
0000
0000
0000
3010
1000
0000
0000
0200
0000
0000
0000
0000
0000
0320
0000
0000
0000
0000
0000
,
0032
0000
0000
0000
0003
0010
0001
0000
,
0200
0000
0000
0000
0000
0000
0000
0000
0300
0000
0000
0000
0010
1000
0000
2000
,
0000
0000
0000
0000
0000
0000
0000
0000
3100
0000
0000
0000
0010
0001
0000
0002
,
0000
0000
0103
0020
,
2030
0000
0000
0000
3000
0010
1000
0000
,
0200
0000
0000
0000
0000
0000
0000
0000
0300
0000
0000
0000
0010
0001
0000
0002
,
0000
0000
0000
0000
0000
0000
0000
0000
0103
0000
0000
0000
0010
1000
0000
2000
,
0000
0000
3100
0000
,
1000
0000
0000
0000
0000
0000
0100
0000
0000
0000
1000
0000
0010
0000
0000
0000
0000
0000
0100
0000
0000
0000
0000
0000
0001
0000
0000
0000
0000
0000
0010
0000
0000
0001
0000
0000
0000
0000
0000
0001
0000
0000
0100
0000
0000
0000
0000
0000
,
1000
0000
0000
0000
0000
0000
0100
0000
0000
0000
0001
0000
0010
0000
0000
0000
0000
0000
0100
0000
0000
0000
0000
0000
1000
0000
0000
0000
0000
0000
0010
0000
0000
1000
0000
0000
0000
0000
0000
1000
0000
0000
0100
0000
0000
0000
0000
0000
,
0002
0000
0103
010M
2000
0000
3100
M100
,
MMMM
0000
0100
1000
0000
1000
0010
0000
1010
0000
0000
0000
0011
0000
0000
0000
,
0001
0000
0000
0000
0000
0000
0100
0000
0000
0000
0001
0000
0010
0000
0000
0000
0000
0000
0100
0000
0000
0000
0000
0000
1000
0000
0000
0000
0000
0000
0010
0000
0000
1000
0000
0000
0000
0000
0000
1000
0000
0000
0100
0000
0000
0000
0000
0000
,
0001
0000
0000
0000
0000
0000
0100
0000
0000
0000
1000
0000
0010
0000
0000
0000
0000
0000
0100
0000
0000
0000
0000
0000
0001
0000
0000
0000
0000
0000
0010
0000
0000
0001
0000
0000
0000
0000
0000
0001
0000
0000
0100
0000
0000
0000
0000
0000
,
2000
0000
3100
M100
0002
0000
0103
010M
,
MMMM
0000
0100
0001
0000
0001
0010
0000
0011
0000
0000
0000
1010
0000
0000
0000
,
0100
0000
0001
0010
0001
0000
0100
0010
1000
0100
1000
0000
0010
0000
0100
0000
,
1000
0100
0001
0000
0010
0000
0100
0000
0001
0100
1000
0000
0010
0000
0100
0000
,
0010
1000
0100
1000
0010
0100
0001
0010
0100
1000
0010
1000
0100
0010
0001
0100
,
0010
0000
1000
0000
1000
0000
0100
0000
0010
0000
0010
0000
0001
0000
0100
0000
0100
0000
0001
0000
0000
0010
0000
0000
,
MMMM
MMMM
MMMM
MMMM
,
0000
0000
1000
0001
1000
0001
1000
0000
0020
0000
0000
0000
0030
0000
0000
0000
,
0100
0010
1000
0001
0020
0130
0020
0031
,
0100
0000
0000
0010
0000
0000
1000
0000
0001
0010
0000
0001
0010
0000
0000
0100
0000
1000
0010
0000
0000
0100
0000
0000
,
0002
0000
0000
0010
0000
0000
0000
0000
0000
0010
0000
0000
0000
0000
0000
0013
0000
0001
0100
0000
0000
0010
0000
0000
,
2000
0000
0000
0010
0000
0000
0000
0000
3010
1000
0000
0000
0100
0000
0000
0000
0000
0001
0100
0000
0000
0010
0000
0000
,
0100
0010
0001
1000
0020
0130
0020
1030
,
0100
0000
0000
0010
0000
0000
0001
0000
1000
0010
0000
1000
0010
0000
0000
0100
0000
0001
0010
0000
0000
0100
0000
0000
,
2000
0000
0000
0010
0000
0000
0000
0000
0000
0010
0000
0000
0000
0000
0000
3010
0000
1000
0100
0000
0000
0010
0000
0000
,
0002
0000
0000
0010
0000
0000
0000
0000
0013
0001
0000
0000
0200
0000
0000
0000
0000
0000
0300
0000
0000
0000
0000
0000
,
0010
0100
0001
1000
0200
0310
0200
1300
,
0010
0000
0000
0100
0000
0000
0001
0000
1000
0100
0000
1000
0100
0000
0000
0010
0000
0001
0100
0000
0000
0010
0000
0000
,
1000
0000
0000
0100
0000
0000
0001
0000
0100
0001
0000
0000
0100
0000
0000
1000
0000
0010
0100
0000
0000
0001
0000
0000
,
0010
0000
0000
0001
0000
0000
0100
0000
1000
0100
0000
0000
0020
0000
0000
0000
0000
0130
0010
0000
0000
1000
0000
0000
,
0100
0010
0001
1000
0020
0130
0020
1030
,
0100
0000
0000
0010
0000
0000
0001
0000
1000
0010
0000
1000
0010
0000
0000
0100
0000
0001
0010
0000
0000
0100
0000
0000
,
1000
0000
0000
0010
0000
0000
0001
0000
0010
0001
0000
0000
0010
0000
0000
1000
0000
0100
0010
0000
0000
0001
0000
0000
,
0100
0000
0000
0001
0000
0000
0010
0000
1000
0010
0000
0000
0100
0000
0000
1000
0000
0000
0010
0000
0000
0000
0000
0000
,
0100
0000
0001
0010
0001
0000
0100
0010
1000
0100
1000
0000
0010
0000
0100
0000
,
0001
0000
0010
0100
0000
0000
1000
0000
0010
0100
0000
0000
0001
0000
0010
0100
0000
0000
1000
0000
0000
1000
0000
0000
,
0100
0000
1000
0010
1000
0000
0100
0010
0001
0100
0001
0000
0010
0000
0100
0000
,
1000
0000
0010
0100
0000
0000
0001
0000
0010
0100
0000
0000
0001
0000
0000
0100
0000
0020
0000
0000
0030
0001
0000
0000
,
0100
0010
1000
0001
0020
0130
0020
0031
,
0100
0000
0000
0010
0000
0000
1000
0000
0001
0010
0000
0001
0010
0000
0000
0100
0000
1000
0010
0000
0000
0100
0000
0000
,
0002
0000
0000
0010
0000
0000
0000
0000
0000
0010
0000
0000
0000
0000
0000
0013
0000
0001
0100
0000
0000
0010
0000
0000
,
1000
0000
0001
0010
0100
0010
0100
0000
2000
0000
0000
0000
3000
0000
0000
0000
;
