#TITLE:Logitical Blaster;
#SUBTITLE:;
#ARTIST:lapix;
#TITLETRANSLIT:;
#SUBTITLETRANSLIT:;
#ARTISTTRANSLIT:;
#GENRE:;
#CREDIT:;
#BANNER:Logitical Blaster.png;
#BACKGROUND:Logitical Blaster-bg.png;
#LYRICSPATH:;
#CDTITLE:;
#MUSIC:Logitical Blaster.ogg;
#OFFSET:-0.046895;
#SAMPLESTART:37.295113;
#SAMPLELENGTH:15.000000;
#SELECTABLE:YES;
#BPMS:0.000000=180.000000
;
#STOPS:
;
#BGCHANGES:;
#KEYSOUNDS:;
#ATTACKS:;

//---------------dance-single - ----------------
#NOTES:
     dance-single:
     :
     Hard:
     16:
     0.858619,1.068819,0.688516,0.259206,0.558913,742.000000,657.000000,85.000000,32.000000,0.000000,0.000000,0.858619,1.068819,0.688516,0.259206,0.558913,742.000000,657.000000,85.000000,32.000000,0.000000,0.000000:
0000
0000
0000
0000
,
0000
0000
0000
0000
,
0000
0000
0000
0000
,
0000
0000
0000
0000
,
1100
0000
1100
0000
0100
1000
0010
0100
,
0101
0000
0000
0101
0000
0000
0001
0100
0010
1000
0001
1000
,
1100
0000
0000
0000
1100
0000
0000
0000
0100
0000
1000
0010
0000
0010
0100
0000
,
0101
0000
0101
0000
0100
0001
0010
0100
,
1100
0000
0000
0000
0011
0000
0000
0000
1100
0000
0000
0001
0000
0000
0100
0000
,
0101
0000
0000
1010
0000
0000
0101
0001
1000
0010
1000
0100
,
0110
0000
0010
0000
0001
0000
1000
0000
0010
0100
0001
0100
0010
1000
0001
0010
,
0100
1000
0100
1000
0100
0010
0100
0010
0002
0000
0000
0000
1003
0000
0000
0000
,
1100
0000
0100
0000
0100
1000
0100
0010
,
0100
1100
0101
0100
,
0100
0000
0001
0000
0100
0000
0010
0000
0110
0000
0000
0001
0100
0000
0010
0000
,
0100
1000
0100
0010
0100
0001
0100
0000
,
1100
0000
0100
0000
0100
1000
0100
0010
,
0100
1000
0001
0100
0010
1000
0100
0000
0000
0100
0000
0000
,
0100
0000
1000
0000
0100
0000
0010
0000
0110
0000
0010
0001
0100
0000
0001
0000
,
0100
0010
0100
1000
0100
0001
0110
0000
,
0100
0000
0001
0000
0010
0000
0001
0000
0100
0000
0020
0030
0100
0000
0001
0100
,
0002
0003
0010
0000
0002
0003
0010
0000
0200
0300
1000
0000
0010
0000
1000
0000
,
0100
0000
0020
0030
0100
0000
1000
0000
0020
0030
1000
0020
1030
0000
0200
0300
,
1000
0000
0002
0003
0100
0000
0002
0003
1000
0000
0020
0030
1000
0000
0001
0000
,
0020
0030
0001
0000
0100
0000
0010
0000
1000
0000
0200
0300
1000
0000
0020
0030
,
0100
0001
0010
0100
1000
0001
0100
0010
1000
0100
0010
0001
,
1000
1000
1000
1000
,
0002
0000
0000
0000
1003
0100
1000
0000
1001
0000
0001
0000
0101
0000
0000
0000
,
1010
0000
1010
0000
0010
1000
0001
0011
,
0000
0000
0010
0000
0011
0000
0000
0000
0001
0000
1000
0010
0000
0010
0100
0000
,
0101
0000
0000
0000
0101
0000
0000
0000
0001
0000
1000
0100
1000
0000
1100
0000
,
0000
0000
0100
0000
1100
0000
0000
0000
0110
0000
0000
0011
0000
0000
0101
0000
,
2001
0000
0100
0000
3001
1000
0001
0100
,
0000
0000
0000
0010
0000
0000
0110
0000
0000
0000
0000
0000
0010
0000
0100
0000
0001
0000
1000
0000
0001
0000
0010
0000
,
0100
0000
0100
0000
1000
0000
1000
0000
0001
0000
1000
0100
1000
0000
0010
0000
,
0000
0000
0100
0000
0100
0000
0001
0000
0010
0000
0100
1000
0100
1000
0010
0000
,
1010
0000
0011
0000
1000
0000
0001
0101
,
0000
0000
1000
0000
1100
0000
0000
0000
0100
0000
1000
0001
0000
0001
0010
0000
,
0011
0000
0000
0000
0101
0000
0000
0000
0100
0000
0001
0100
0001
0000
0010
0000
,
0000
0000
0100
0000
1100
0000
1000
0000
1010
0000
0010
0100
0000
0100
0001
0000
,
1002
0000
0100
0000
1003
0001
1000
0010
,
0000
0000
0000
0000
0000
0000
0010
0000
0000
0000
0000
0000
0100
0000
0000
0000
0000
0000
0010
0000
0000
1000
0000
0000
0001
0000
0000
0000
0010
0000
0000
0000
0100
0000
0000
0000
1000
0000
0000
0000
0001
0000
0000
0000
0100
0000
0000
0000
,
0010
0010
1000
1000
0001
0001
0010
0110
,
0000
0000
0000
0100
0000
0000
1000
0000
0000
0001
0000
0000
1000
0000
0001
0000
0100
0000
0010
0000
1000
0000
0001
0000
,
0100
0000
0000
0000
0100
0000
0000
0100
0001
0000
0010
0000
0001
0000
1000
0000
,
0100
0000
0000
0000
0100
0000
0000
0100
1000
0000
0002
0000
0000
0000
0000
0000
,
1003
0000
0100
0010
0001
0000
0010
0100
0010
0000
0001
0000
0100
0000
0001
0010
,
0001
1000
0010
0001
0000
0001
0010
0100
,
0001
0000
1000
0010
1000
0000
0100
1000
0100
0000
0010
0000
0000
0000
0010
0000
,
0001
0000
0100
0001
0100
0000
0010
0000
0000
0000
0110
0000
0010
0000
1000
0000
,
0001
0000
0100
0010
1000
0000
0010
0100
0010
0000
1000
0000
0100
0000
1000
0100
,
0020
0032
2003
3020
0030
0020
2030
3200
,
0301
0000
0100
0010
0100
0000
1000
0100
0010
0000
0010
0000
0001
0000
1000
0100
,
1000
0001
0010
1000
0000
1000
0010
0100
,
1000
0000
0001
0010
0001
0000
0100
0001
0100
0000
0010
0000
0000
0000
0010
0000
,
1000
0000
0100
1000
0100
0000
0010
0000
0000
0000
0110
0000
0010
0000
0001
0000
,
1000
0000
0010
0100
0001
0000
0100
0010
0001
0000
0010
0000
1000
0000
0100
0010
,
1000
0010
0001
1000
0000
1000
0010
0001
,
0010
0000
1000
0000
0100
0000
1000
0000
0001
0000
0100
0000
0001
0000
0010
0001
,
0010
0000
0100
0000
1000
0000
0001
0000
1000
0010
1000
0001
0010
0001
1000
0001
,
0100
0000
0000
0000
0100
0000
0000
0100
0010
0000
1000
0000
0100
0000
0010
0000
,
0100
0000
0000
0000
0000
0000
0000
0000
0000
0000
0000
0000
0100
0000
0000
0000
0000
0000
0000
0000
0000
0100
0000
0000
0010
0000
0000
0000
0001
0000
0000
0000
1000
0000
0000
0000
0001
0000
0000
0000
0100
0000
0000
0000
0010
0000
0000
0000
,
1000
0000
0000
0000
1000
0000
0000
1000
0010
0000
1000
0000
0100
0000
1000
0000
,
0001
0000
0000
0000
0001
0000
0000
0001
0100
0000
0010
0000
0110
0000
0100
0000
,
0010
0000
0000
0010
0000
0000
0100
0010
1000
0000
0000
1000
0000
0000
1001
0000
,
0001
0000
0000
0000
0000
0000
0000
0000
0000
0001
0000
0000
0000
0000
0000
0000
0000
0000
1000
0000
0000
0100
0000
0000
0010
0000
0000
0000
0100
0000
0000
0000
0010
0000
0000
0000
0001
0000
0000
0000
1000
0000
0000
0000
0010
0000
0000
0000
,
0100
0000
0100
0000
0100
0000
0100
0000
0100
0001
0100
0010
1000
0001
0010
0100
,
2000
0000
0000
3001
,
1000
0000
0001
0000
0100
0000
1000
0000
0100
0000
0010
1000
0000
1000
0001
0000
,
0001
0000
0010
0000
0100
0000
0010
0000
0011
0000
0000
1001
0000
0000
0101
0000
,
0100
0000
0010
0000
0110
0000
0010
0000
1000
0000
0001
0010
0000
0010
0100
0000
,
1000
0000
0010
0100
0010
0000
1000
0000
1010
0000
1000
0001
0000
1000
0100
0000
,
1000
0000
0010
0000
0200
0000
0000
0000
0310
0000
1000
0001
1000
0000
1100
0000
,
0100
0000
0010
0000
0011
0000
0001
0000
0101
0000
0000
0110
0000
0000
1010
0000
,
0010
0000
0100
0001
0010
0000
0001
0100
0010
0000
0100
0001
1000
0000
0100
1000
,
0010
0000
1000
0100
0010
0000
0200
0000
0000
0000
0000
0000
0000
0000
0000
0000
,
1300
0000
0001
0000
0101
0000
1000
0000
1100
0000
0100
0010
0000
0000
1100
0000
,
1000
0000
0001
0000
0011
0000
0010
0000
1100
0000
0000
1001
0000
0000
1010
0000
,
0010
0000
0001
0000
0010
0000
1000
0000
0001
0000
0100
0010
0000
0000
1010
0000
,
1000
0000
0001
0000
0101
0000
0001
0000
0011
0000
0010
0100
0000
1000
0100
0000
,
1000
0000
0001
0000
0020
0000
0000
0000
0130
0000
1000
0001
1000
0000
1001
0000
,
0001
0000
0100
0000
0110
0000
0010
0000
0110
0000
0000
1001
0000
0000
0110
0000
,
1000
0000
0001
0100
0001
0000
1000
0100
1000
0000
0001
0010
0001
0000
1000
0010
,
1000
0001
0100
0001
0010
0100
1000
0000
,
1100
0000
0000
0000
1100
0000
0000
0000
0001
0000
0000
1000
0000
0000
0001
0000
,
0101
0000
0000
0000
0101
0000
0000
0000
0100
0000
0000
0010
0000
0000
1000
0000
,
1010
0000
0000
0000
0011
0000
0000
0000
0001
0000
0010
0100
0000
0100
1000
0000
,
1100
0000
0000
0000
0101
0000
0000
0000
0001
0000
0100
0010
1000
0000
0001
0000
,
0022
0000
0000
0000
,
0000
0000
0000
0000
,
0000
0000
0000
0000
,
0033
0000
0000
0000
;

//---------------dance-single - ----------------
#NOTES:
     dance-single:
     :
     Medium:
     11:
     0.531141,0.626549,0.324007,0.153903,0.157954,459.000000,419.000000,40.000000,19.000000,0.000000,0.000000,0.531141,0.626549,0.324007,0.153903,0.157954,459.000000,419.000000,40.000000,19.000000,0.000000,0.000000:
0000
0000
0000
0000
,
0000
0000
0000
0000
,
0000
0000
0000
0000
,
0000
0000
0000
0000
,
1000
0000
0000
0000
1000
0000
0000
0000
0100
0000
0000
0010
0000
0000
0100
0000
,
1000
0000
0000
1000
0000
0000
0010
0000
1000
0010
0000
0100
,
0001
0000
0000
0000
0001
0000
0000
0000
0010
0000
0000
0100
0000
0000
0010
0000
,
0001
0000
0000
0000
0001
0000
0000
0000
0001
0000
0000
0100
0000
0000
0010
0000
,
1000
0000
1000
0000
1000
0100
0010
0001
,
1000
0000
0000
1000
0000
0000
1000
0000
0010
0100
0000
0001
,
1000
0001
1000
0001
0010
0100
0010
0100
,
1000
0001
0100
0001
0020
0000
0000
0000
,
0230
0000
0300
0000
0000
0100
0000
1000
,
0001
0001
0200
0300
,
0000
0000
0100
0000
0000
0000
0100
0000
0010
0000
0000
1000
0000
0000
0001
0000
,
0000
0010
0000
1000
0000
0010
0000
0000
,
0200
0000
0300
0000
0000
0100
0000
0100
,
1000
0001
1000
0001
1000
0001
0200
0000
0000
0300
0000
0000
,
0000
0000
0100
0000
0000
0000
0100
0000
0001
0000
0000
0010
0000
0000
0100
0000
,
0000
1000
0000
0010
0000
0200
0300
0000
,
0001
0001
0010
0010
,
1000
0010
0001
0100
,
1000
1000
0100
0100
,
0001
0010
1000
0100
,
0001
0100
0001
0000
1000
0100
1000
0000
,
0001
0000
0100
0001
0000
0100
0010
0000
1000
0010
0000
1000
,
0001
0001
0001
0001
,
2000
0100
0002
3003
,
1100
0000
0200
0000
0310
0000
0100
1000
,
0000
0000
0001
0000
0100
0000
0000
0000
0010
0000
0000
0010
0000
0000
0000
0000
,
0101
0000
0101
0000
0001
0000
1000
0010
,
0000
1000
0100
0000
0010
0000
0001
0000
,
0011
0000
0010
0000
0100
0000
1000
0001
,
1000
0000
0000
0010
0000
0000
0100
0000
0010
0100
0000
0010
,
1000
0010
0001
0010
,
1000
0100
0010
0000
0001
0100
0010
0000
,
1010
0000
0020
0000
0130
0000
0010
1000
,
0000
0000
0001
0000
0010
0000
0000
0000
0100
0000
0000
0010
0000
0000
0000
0000
,
0011
0000
0011
0000
1000
0000
0001
0100
,
0000
0001
0010
0000
0100
0000
1000
0000
,
1001
0000
0001
0000
0110
0000
0100
0010
,
0000
0000
0000
1001
0000
0000
0001
0000
0100
0010
0000
0010
,
1000
0000
0100
0000
0001
0000
0100
0010
,
0000
0010
0001
1000
0001
0000
0100
0000
,
0010
0000
0010
0000
0100
0001
1000
0001
,
0010
0000
0010
0000
0100
2000
0000
0000
,
3001
0011
1001
0101
,
0100
0010
0100
0002
0000
0000
1003
0000
,
0100
1000
0100
0000
0100
0010
0000
0010
,
0001
0000
0100
0010
0000
0010
1000
0000
,
1001
1100
1001
1010
,
0010
0100
0001
1000
0000
1000
0001
0010
,
0100
1100
1001
0101
,
0001
1000
0100
0020
0000
0000
0130
0000
,
1000
0001
1000
0000
0001
0010
0000
0100
,
1000
0000
1000
0001
0000
0100
0010
0000
,
0110
1010
1001
0011
,
0010
0100
1000
0010
0000
0010
0100
0001
,
1000
1000
0001
0001
,
1000
0100
1000
0001
0010
0001
1000
0010
,
0100
0000
0100
0000
0100
0001
0010
0000
,
0100
0000
0100
0000
0100
1000
0010
0000
,
0100
0000
0001
0000
0100
0010
1000
0000
,
0100
0000
1000
0000
0100
0010
0001
0000
,
0100
0000
0010
0000
1000
0001
1000
0000
,
0100
0000
0010
0000
0001
1000
0001
0000
,
0100
0001
0100
0001
1000
0010
1000
0001
,
0020
0000
0000
0130
,
1100
0000
0000
0000
1000
0000
0000
0000
0100
0000
0000
0010
0000
0000
0001
0000
,
0101
0000
0000
0000
1000
0000
0000
0000
0101
0000
0000
0100
0000
0000
0010
0000
,
1010
0000
0000
0000
1010
0000
0000
0000
0010
0000
0000
0100
0000
0000
0001
0000
,
0010
0000
0000
0000
0110
0000
0000
0000
1001
0000
0000
1000
0000
0000
0001
0000
,
0020
0000
0000
0000
0130
0000
0000
0000
0100
0000
0000
1000
0000
0000
0001
0000
,
0100
0000
0000
0000
0110
0000
0000
0000
0010
0000
0000
1000
0000
0000
0001
0000
,
0010
0001
0010
0000
0100
1000
0100
1000
,
0001
0100
0000
0200
0000
0000
0300
0000
,
0101
0000
0000
0000
0001
0000
0000
0000
0100
0000
0000
0010
0000
0000
1000
0000
,
1100
0000
0000
0000
0001
0000
0000
0000
1100
0000
0000
0100
0000
0000
0010
0000
,
0011
0000
0000
0000
1010
0000
0000
0000
0010
0000
0000
0100
0000
0000
0001
0000
,
0010
0000
0000
0000
0110
0000
0000
0000
1001
0000
0000
0001
0000
0000
1000
0000
,
0020
0000
0000
0000
0130
0000
0000
0000
0100
0000
0000
0001
0000
0000
1000
0000
,
0100
0000
0000
0000
0110
0000
0000
0000
0010
0000
0000
0010
0100
0000
1000
0000
,
0001
0100
0010
0000
0100
0010
1000
0000
,
0001
1000
0001
1000
0200
0000
0300
0000
,
1000
0000
0000
0000
1000
0000
0000
0000
0100
0000
0000
0010
0000
0000
0100
0000
,
1000
0000
0000
0000
1000
0000
0000
0000
0100
0000
0000
0010
0000
0000
0010
0000
,
0001
0000
0000
0000
0001
0000
0000
0000
0100
0000
0000
0010
0000
0000
0100
0000
,
0001
0000
0000
0000
0001
0000
0000
0000
1000
0000
0000
0001
0000
0000
0010
0000
,
0200
0000
0000
0000
,
0000
0000
0000
0000
,
0000
0000
0000
0000
,
0300
0000
0000
0000
;

//---------------dance-single - ----------------
#NOTES:
     dance-single:
     :
     Easy:
     7:
     0.358722,0.432550,0.064801,0.299707,0.040501,310.000000,302.000000,8.000000,37.000000,0.000000,0.000000,0.358722,0.432550,0.064801,0.299707,0.040501,310.000000,302.000000,8.000000,37.000000,0.000000,0.000000:
0000
0000
0000
0000
,
0000
0000
0000
0000
,
0000
0000
0000
0000
,
0000
0000
0000
0000
,
1000
1000
0200
0300
,
0010
0010
0200
0300
,
0001
0001
0200
0300
,
0010
0010
0200
0300
,
1000
1000
0020
0030
,
0100
0100
0020
0030
,
0001
0001
0020
0030
,
0100
0010
0220
0330
,
0002
0000
0003
0000
0000
0001
0000
0100
,
0010
0010
2000
3000
,
0000
0000
1000
0000
0000
0000
1000
0000
0100
0000
0000
0010
0000
0000
0100
0000
,
0000
0010
0000
0001
0000
1000
0000
0000
,
0002
0000
0003
0000
0000
0001
0000
0100
,
0010
0010
0110
0000
,
0000
0000
1000
0000
0000
0000
0100
0000
1000
0000
0000
0001
0000
0000
0100
0000
,
0000
0010
0000
0100
0000
0001
0000
0000
,
1000
0100
0010
0100
,
1000
0010
1000
0100
,
0010
0001
0100
0010
,
0100
0001
0010
0001
,
1000
0010
0100
0001
,
0010
0100
2000
0000
,
3001
0001
0001
0001
,
0202
0000
0000
0303
,
1000
0000
0100
0000
1000
0000
0000
0010
,
0000
0010
1000
0000
,
0001
0000
0100
0000
0001
0000
0000
0010
,
0000
0010
0200
0300
,
2000
0000
3000
0000
0002
0000
0003
0100
,
0000
0001
1000
0100
,
0010
0010
0001
0001
,
1000
1000
0200
0300
,
1000
0000
0010
0000
1000
0000
0000
0100
,
0000
0100
1000
0000
,
0001
0000
0010
0000
0001
0000
0000
0100
,
0000
0010
0100
0001
,
2000
0000
3000
0000
0002
0000
0003
0010
,
0000
0001
1000
0010
,
0100
0100
0001
0001
,
1000
1000
0020
0030
,
1000
1000
0100
1000
,
0001
0000
0001
0000
0100
0002
0000
0000
,
1003
0010
0100
0010
,
0001
0000
0010
0100
0000
0000
0100
0000
,
0001
0010
0200
0300
,
1000
0200
0300
0010
,
0001
0001
1000
1000
,
0100
0000
0100
0020
0000
0000
0030
0000
,
0001
0010
0100
0010
,
1000
0000
0010
0100
0000
0000
0100
0000
,
1000
0010
0200
0300
,
0001
0200
0300
0010
,
1000
1000
0001
0001
,
0010
0100
0010
0001
,
1000
0010
0100
0001
,
0100
0010
1000
0001
,
0010
0010
0100
1000
,
0010
0010
0100
0001
,
0010
0010
0001
1000
,
0010
0010
1000
0001
,
0100
0010
0100
0010
,
1000
0001
1000
0001
,
0010
0100
1000
0001
,
2000
0000
0000
3000
,
0001
0000
0000
0000
0001
0000
0000
0000
0100
0000
0000
0001
0000
0000
1000
0000
,
0001
0010
1000
0010
,
0011
0000
0000
0000
1100
0000
0000
0000
0100
0000
0000
1000
0000
0000
0001
0000
,
1000
0010
0001
0010
,
2000
0000
0000
0000
3000
0000
0000
0000
0010
0000
0000
1000
0000
0000
0001
0000
,
1000
0000
0000
0000
0001
0000
0000
0000
0010
0000
0000
0001
0000
0000
1000
0000
,
0001
0010
0100
1000
,
1000
0100
0010
0001
,
1000
0000
0000
0000
1000
0000
0000
0000
0010
0000
0000
0100
0000
0000
0010
0000
,
1000
0010
0001
0010
,
1010
0000
0000
0000
0101
0000
0000
0000
0100
0000
0000
0001
0000
0000
1000
0000
,
0001
0010
1000
0010
,
0002
0000
0000
0000
0003
0000
0000
0000
0100
0000
0000
0010
0000
0000
1000
0000
,
0001
0000
0000
0000
0001
0000
0000
0000
0010
0000
0000
0100
0000
0000
1000
0000
,
0001
1000
0010
0100
,
0100
0010
1000
0001
,
1000
1000
0200
0300
,
0001
0001
0200
0300
,
1000
1000
0020
0030
,
0001
0001
0020
0030
,
2002
0000
0000
0000
,
3003
0000
0000
0000
;

//---------------dance-single - ----------------
#NOTES:
     dance-single:
     :
     Beginner:
     2:
     0.202505,0.249486,0.016200,0.016200,0.000000,175.000000,173.000000,2.000000,2.000000,0.000000,0.000000,0.202505,0.249486,0.016200,0.016200,0.000000,175.000000,173.000000,2.000000,2.000000,0.000000,0.000000:
0000
0000
0000
0000
,
0000
0000
0000
0000
,
0000
0000
0000
0000
,
0000
0000
0000
0000
,
1000
1000
0000
0000
,
0001
0001
0000
0000
,
1000
1000
0000
0000
,
0001
0001
0000
0000
,
0100
0100
0000
0000
,
0010
0010
0000
0000
,
0100
0100
0000
0000
,
0010
0010
0000
0000
,
1000
0000
0000
0000
,
1000
0000
0100
0000
,
0000
0000
0100
0000
,
0000
0010
0000
0000
0000
0010
0000
0000
,
0001
0000
0000
0000
,
2000
0000
3001
0000
,
0000
0000
0100
0000
,
0000
0010
0000
0000
0000
0010
0000
0000
,
1000
0000
0000
0000
,
0100
0000
0000
0000
,
0010
0000
0000
0000
,
0001
0000
0000
0000
,
1000
0000
0001
0000
,
1000
0000
0001
0000
,
0000
0000
0000
0000
,
0110
0000
0000
0000
,
1000
1000
0000
0000
,
0001
0000
0001
0000
,
0100
0100
0000
0000
,
0001
0000
0001
0000
,
0010
0000
0001
0000
,
1000
0000
0010
0000
,
0100
0000
0010
0000
,
0010
0000
0100
0000
,
0001
0001
0000
0000
,
1000
0000
1000
0000
,
0100
0100
0000
0000
,
1000
0000
1000
0000
,
0010
0000
1000
0000
,
0001
0000
0010
0000
,
0100
0000
0010
0000
,
0010
0000
0100
0000
,
1000
0000
1000
0000
,
0001
0000
0001
0000
,
1000
1000
1000
0000
,
0100
0000
0010
0000
,
1000
0001
1000
0000
,
0001
1000
0001
0000
,
0001
0001
0001
0000
,
0100
0000
0010
0000
,
1000
1000
1000
0000
,
0100
0000
0010
0000
,
1000
0001
1000
0000
,
0001
1000
0001
0000
,
0001
0001
0001
0000
,
0100
0000
0010
0000
,
1000
0000
0010
0000
,
0100
0001
1000
0000
,
0100
1000
0100
0000
,
1000
0001
1000
0000
,
0001
0100
0001
0000
,
1000
0001
1000
0000
,
0100
1000
0100
0000
,
1000
0001
1000
0000
,
0001
0100
0010
2000
,
0000
0000
0000
3000
,
0001
0000
0001
0000
,
0100
0000
0100
0000
,
1000
0000
1000
0000
,
0100
0000
0100
0000
,
0001
0000
0001
0000
,
1000
0000
1000
0000
,
0100
0000
0010
0000
,
0010
0000
0100
0000
,
1000
0000
1000
0000
,
0100
0000
0100
0000
,
0001
0000
0001
0000
,
0100
0000
0100
0000
,
1000
0000
1000
0000
,
0001
0000
0001
0000
,
0100
0000
0010
0000
,
0010
0000
0100
0000
,
0001
0001
0000
0000
,
1000
1000
0000
0000
,
0100
0100
0000
0000
,
0010
0010
0000
0000
,
1001
0000
0000
0000
;
