#TITLE:Little Flipper;
#SUBTITLE:;
#ARTIST:S-C-U;
#TITLETRANSLIT:;
#SUBTITLETRANSLIT:;
#ARTISTTRANSLIT:;
#GENRE:DOLPHIN TECHNO;
#CREDIT:;
#BANNER:Little Flipper.png;
#BACKGROUND:Little Flipper-bg.png;
#LYRICSPATH:;
#CDTITLE:;
#MUSIC:Little Flipper.ogg;
#OFFSET:1.077645;
#SAMPLESTART:61.262218;
#SAMPLELENGTH:15.620000;
#LASTBEATHINT:0.152321;
#SELECTABLE:YES;
#BPMS:0.000000=165.000000
;
#STOPS:
;
#BGCHANGES:;
#KEYSOUNDS:;
#ATTACKS:;

//---------------dance-single - ----------------
#NOTES:
     dance-single:
     :
     Hard:
     14:
     0.723257,0.956159,0.154589,0.251208,0.719807,524.000000,508.000000,16.000000,26.000000,0.000000,0.000000,0.723257,0.956159,0.154589,0.251208,0.719807,524.000000,508.000000,16.000000,26.000000,0.000000,0.000000:
0000
0000
0000
0000
,
0000
0000
0000
0000
,
0000
0000
0000
0000
,
0000
0000
0000
0000
,
0000
0000
0000
0000
,
0001
0000
0100
0000
0000
0010
0000
0000
0100
0000
0000
0001
0000
0000
1000
0000
,
0000
0000
0100
0000
0000
0010
0000
0000
0100
0000
0000
1000
0000
0000
0001
0000
,
0100
0000
0000
0100
0000
0000
0010
0000
0000
0010
0000
0000
1000
0000
0001
0000
,
2002
0000
3003
0000
,
2100
0000
0000
3001
0000
0000
1000
0100
1000
0000
0001
0000
0100
0000
1000
0000
,
0200
0000
0000
0310
0000
0000
1000
0001
1000
0000
0100
0000
0001
0000
0100
0000
,
0010
0000
0000
0010
0000
0000
0001
0000
0100
0000
0000
0100
0000
0000
0010
0000
,
1000
0000
0000
1000
0000
0000
0001
1000
0001
0000
0100
0000
1000
0000
0100
0000
,
0001
0000
0000
0101
0000
0000
0001
1000
0100
0000
0010
0000
1000
0000
0010
0000
,
0001
0000
0000
0101
0000
0000
0100
0001
1000
0000
0100
0000
0001
0000
0100
0000
,
2000
0000
0000
0010
0000
0000
0100
0000
0002
0000
0000
0000
3003
0000
0000
0000
,
0001
0000
0010
0000
0100
0000
1000
0001
1000
0000
0010
0000
0001
0000
0010
0000
,
2000
0000
0000
3010
0000
0000
1000
0100
0010
0000
1000
0000
0010
0000
0001
0000
,
0020
0000
0000
0130
0000
0000
0010
0001
1000
0000
0010
0000
0100
0000
0001
0000
,
0010
0000
0000
0010
0000
0000
0100
0000
1000
0000
0000
1000
0000
0000
0001
0000
,
0100
0000
0000
0100
0000
0000
0010
1000
0001
0000
0010
0000
0100
0000
0010
0000
,
0001
0000
0000
1100
0000
0000
1000
0001
0100
0000
0010
0000
0001
0000
0010
0000
,
1000
0000
0000
0101
0000
0000
0001
1000
0100
0000
0010
0000
1000
0000
0010
0000
,
0002
0000
0000
0010
0000
0000
1000
0000
0200
0000
0000
0000
0303
0000
0000
0000
,
0010
0000
0000
1000
0000
0000
0001
0000
1001
0000
0000
0000
0000
0000
1000
0001
,
0100
0000
0001
0100
0000
0001
0100
0000
0010
0000
0010
0000
1000
0000
1000
0000
,
0001
0000
0001
0000
0010
0000
0010
0000
0100
0000
0000
1100
0000
0000
0100
1000
,
0001
0000
0100
0001
0000
0100
0001
0000
1000
0100
0000
1000
0100
0000
0010
0000
,
0100
0000
0000
1000
0000
0000
0001
0000
0100
0000
1000
0000
0100
0000
0001
1000
,
0010
0000
1000
0010
0000
1000
0001
0000
1000
0001
0000
0100
0001
0000
1000
0000
,
0001
0000
1000
0100
0000
1000
0100
0000
1000
0001
0000
1000
0010
0000
0100
0000
,
0001
0000
0000
0010
1000
0000
0010
0000
0200
0000
0000
0000
1300
0000
0100
0000
,
0001
0000
1000
0000
0010
0000
0001
0000
0100
0000
0010
0000
1000
0000
0001
1000
,
0001
0000
0100
0010
0000
0100
0001
0000
0100
0000
0100
0000
0010
0000
0010
0000
,
1000
0000
1000
0000
0001
0000
0001
0000
0010
0000
0000
1100
0000
0000
0001
1000
,
0001
0000
1000
0100
0000
0010
0100
0000
1000
0100
0000
0010
0001
0000
1000
0000
,
0020
0000
0000
0000
0030
0000
1000
0010
0100
0000
1000
0000
0100
0000
0001
0000
,
1000
0000
0100
0000
0010
0000
1000
0000
0100
0000
0010
0000
1000
0000
0001
1000
,
0001
0000
0100
0000
0010
0000
0001
0000
0100
0000
0010
0000
0001
0000
1000
0100
,
0020
0000
0000
1000
0000
0000
0031
0000
,
2000
0000
0000
0010
0000
0000
3001
0000
,
1000
0000
0100
0000
0001
0000
1000
0000
0010
0000
0001
0000
0100
0000
0010
0100
,
0020
0000
0000
0000
0000
0000
0000
0000
0000
0000
0000
0000
0030
0000
0010
1000
,
0001
0000
1000
0000
0100
1000
0000
1000
0010
0000
0010
1000
0000
1000
0100
0000
,
0001
0000
0100
0000
1000
0100
0000
0020
0000
0000
0001
0000
0031
0000
0010
0001
,
1000
0000
0001
0000
0100
0001
0000
0001
0010
0000
0010
0001
0000
0001
0100
0000
,
1000
0000
0100
0000
0001
0100
0000
0020
0000
0000
1000
0000
1030
0000
0001
0010
,
0100
0000
1000
0000
0100
0001
0000
0100
0010
0000
0100
1000
0000
0100
0010
0000
,
0001
0000
0100
0000
0010
1000
0000
0010
0100
0000
0010
0001
0000
0010
0100
0000
,
0010
0000
0010
0000
0000
0000
1000
0010
1000
0010
1000
0001
1000
0001
1000
0100
,
0010
0001
1000
0010
0100
0001
0010
0100
1000
0001
0100
0010
1000
0000
1000
0001
,
0100
0000
0001
0000
1000
0100
0000
0100
0001
0000
0001
0010
0000
0010
1000
0000
,
0001
0000
0010
0000
0100
1000
0000
0002
0000
0000
0100
0000
0103
0000
0001
1000
,
0010
0000
0100
0000
0001
0010
0000
0010
1000
0000
1000
0100
0000
0100
0001
0000
,
1000
0000
0100
0000
0010
0001
0000
2000
0000
0000
0010
0000
3010
0000
1000
0001
,
0100
0000
0001
0000
0100
0010
0000
0100
1000
0000
0100
0010
0000
0100
0001
0000
,
1000
0000
0100
0000
0010
0100
0000
0001
0100
0000
0010
0100
0000
1000
0001
0000
,
0101
0000
0000
0001
1000
0000
0010
0000
1010
0000
0000
1000
0100
0000
0010
0000
,
1002
0000
0000
0000
0103
0000
0001
0100
0010
1000
0010
0100
0001
1000
0001
1000
,
0001
0010
0001
1000
0001
0100
0010
1000
,
0002
0000
0000
0010
0000
0000
1003
0000
0001
0000
0010
0000
0001
0000
0100
0010
,
1000
0010
1000
0001
1000
0100
0010
0001
,
2000
0000
0000
0010
0000
0000
3001
0000
1000
0000
0100
0000
0001
0000
0100
0000
,
2000
0000
0100
0000
0000
0001
0000
0000
0010
0000
0000
0100
3000
0000
1000
0000
,
0002
0000
0010
0000
0000
1000
0000
0000
0100
0000
0000
0010
0003
0000
0001
0000
,
0101
0000
0000
0001
1000
0000
1100
0000
0000
1000
0000
0000
1001
0000
1000
0001
,
1000
0000
0000
0010
1000
0000
0010
1000
0000
0001
0010
0000
0001
0000
1000
0001
,
1000
0000
0100
0001
0000
0100
1000
0000
0010
0001
0000
0010
1000
0000
2002
0000
,
0000
3003
0000
0000
;

//---------------dance-single - ----------------
#NOTES:
     dance-single:
     :
     Beginner:
     4:
     0.241546,0.262802,0.009662,0.019324,0.000000,175.000000,174.000000,1.000000,2.000000,0.000000,0.000000,0.241546,0.262802,0.009662,0.019324,0.000000,175.000000,174.000000,1.000000,2.000000,0.000000,0.000000:
0000
0000
0000
0000
,
0000
0000
0000
0000
,
0000
0000
0000
0000
,
0000
0000
0000
0000
,
0000
0000
0000
0000
,
1000
1000
1000
0000
,
0001
0001
0001
0000
,
0100
0100
0100
0100
,
0100
0000
0010
0010
,
0010
0000
1000
1000
,
1000
0000
0001
0001
,
0001
0000
0010
0000
,
0100
0000
1000
1000
,
1000
0000
0001
0001
,
0001
0000
0100
0100
,
0100
0100
0100
0000
,
0010
0000
1000
1000
,
1000
0000
0001
0001
,
0001
0000
0010
0010
,
0010
0010
0010
0000
,
0100
0000
1000
1000
,
1000
0000
0001
0001
,
0001
0000
0100
0100
,
0100
0100
0100
0000
,
0010
0010
0010
0000
,
1000
0000
0001
0000
,
0010
0010
0010
0010
,
0010
0000
0001
0000
,
0100
0100
0100
0100
,
0100
0000
0010
0000
,
1000
1000
1000
0000
,
0001
0001
0001
0000
,
0010
0000
0100
0000
,
1000
0000
0001
0000
,
0100
0100
0100
0100
,
0100
0000
0010
0000
,
1000
0000
0001
0001
,
0002
0000
0003
0000
,
2000
0000
3000
0000
,
0010
0000
0100
0000
,
0001
0000
1000
0000
,
0100
0000
0010
0000
,
1001
0000
0000
0000
,
1000
0000
0001
0000
,
0100
0100
0100
0000
,
0001
0000
1000
0000
,
0010
0010
0010
0000
,
0100
0100
0100
0000
,
0010
0010
0010
0000
,
1000
0000
0001
0000
,
0010
0010
0010
0010
,
0010
0000
0100
0000
,
1000
1000
1000
0000
,
0001
0000
0100
0000
,
0001
0001
0001
0000
,
0010
0010
0010
0000
,
0100
0100
0100
0000
,
1000
1000
1000
1000
,
1000
0000
0001
0001
,
0001
0000
0100
0000
,
0010
0010
0010
0000
,
0100
0000
0001
0000
,
1000
1000
1000
0000
,
0100
0100
0100
0000
,
0010
0010
0010
0000
,
0001
0001
0001
0000
,
1000
1000
1000
0000
,
0010
0010
0010
0010
,
0010
0000
0000
0000
;

//---------------dance-single - ----------------
#NOTES:
     dance-single:
     :
     Easy:
     6:
     0.347826,0.362681,0.106280,0.173913,0.000000,252.000000,241.000000,11.000000,18.000000,0.000000,0.000000,0.347826,0.362681,0.106280,0.173913,0.000000,252.000000,241.000000,11.000000,18.000000,0.000000,0.000000:
0000
0000
0000
0000
,
0000
0000
0000
0000
,
0000
0000
0000
0000
,
0000
0000
0000
0000
,
0000
0000
0000
0000
,
1000
0100
1000
1000
,
0001
0100
0001
0001
,
0010
0100
0010
0100
,
2002
3003
1000
0001
,
0100
0100
0001
1000
,
0100
0100
1000
0001
,
1000
0010
0001
0000
,
1000
0100
0010
1000
,
0001
0001
0010
0001
,
0100
0100
0010
1000
,
0001
0010
0022
0033
,
0001
0100
1000
0100
,
0010
0010
1000
0001
,
0100
0100
0010
1000
,
0100
0100
1000
0000
,
0001
0100
1000
0100
,
0010
0010
1000
0001
,
0010
0010
0100
1000
,
0001
0100
0202
0303
,
1000
0100
2200
3300
,
1000
0010
0100
0010
,
1000
1000
0001
0001
,
0010
0100
0010
0001
,
1000
1000
0001
0001
,
0100
1000
0001
0020
,
1030
1000
0001
0001
,
0010
0100
2002
3003
,
1000
0100
0001
0100
,
1000
0010
0100
1000
,
0100
0100
0001
0001
,
1000
0100
0001
0100
,
0010
0010
0001
0001
,
2000
0010
3010
1000
,
0002
0010
0013
0001
,
1000
0100
0001
0010
,
0001
0100
1000
0001
,
0100
0100
0010
0010
,
2002
0000
0000
3003
,
1000
0100
0001
0100
,
1000
1000
0001
1001
,
0001
0100
1000
0100
,
0001
0001
1000
1001
,
1000
0010
0100
0100
,
0010
1000
0001
0001
,
0010
0010
0100
1000
,
0001
0100
1000
0100
,
0001
0010
1000
0100
,
1000
0010
0001
1001
,
1000
0100
0001
0010
,
0001
0100
1000
1001
,
0001
0100
1000
0100
,
0001
0010
1000
0010
,
0100
0100
1000
1000
,
2002
3003
0001
0100
,
0010
0010
0100
0100
,
0001
1000
0100
0000
,
0010
0010
0100
0100
,
1000
0001
0100
0010
,
1000
1000
1000
0100
,
0001
0001
0001
0100
,
0010
0010
0010
0100
,
1000
1000
1000
0001
,
0100
0000
0010
0000
1000
0000
0001
0002
,
0000
0003
0000
0000
;

//---------------dance-single - ----------------
#NOTES:
     dance-single:
     :
     Medium:
     11:
     0.535542,0.559481,0.164251,0.231884,0.164251,388.000000,371.000000,17.000000,24.000000,0.000000,0.000000,0.535542,0.559481,0.164251,0.231884,0.164251,388.000000,371.000000,17.000000,24.000000,0.000000,0.000000:
0000
0000
0000
0000
,
0000
0000
0000
0000
,
0000
0000
0000
0000
,
0000
0000
0000
0000
,
0000
0000
0000
0000
,
2100
0001
0100
3001
,
0102
1000
0100
1003
,
0001
0000
0000
0100
0000
0000
0010
0000
0000
1000
0000
0000
0001
0000
0000
0000
,
2002
0000
3003
0000
0001
0100
0010
0100
,
0001
0000
0001
0000
1000
0100
0010
0100
,
1000
0000
1000
0000
0001
0010
1000
0010
,
0001
0100
1000
0100
,
0010
0000
1000
0000
0001
0010
0100
0010
,
0001
0000
0101
0000
1000
0010
0100
0010
,
1000
0000
1010
0000
1000
0100
0001
0100
,
0010
0000
0000
0010
0000
0000
0001
0000
0002
0000
0000
0000
0100
0000
0000
0000
,
1000
0000
0103
0000
0001
0100
1000
0100
,
0001
0000
0101
0000
0001
0010
0100
0010
,
0001
0000
1001
0000
1000
0010
0100
0010
,
2000
3001
0100
0010
,
0100
0001
0010
0000
0100
1000
0001
0100
,
0010
0000
1010
0000
0010
1000
0001
0010
,
0100
0000
1100
0000
1000
0010
0001
0010
,
0100
0000
0000
0001
0000
0000
1000
0000
0020
0000
0000
0000
0130
0000
0000
0000
,
0001
0000
0000
0010
0000
0000
0100
0000
2000
0000
0000
0000
3001
0000
0000
0000
,
1000
0000
0000
0010
0000
0000
0100
0000
0001
0000
0010
0000
0001
0000
0010
0000
,
0100
0000
1000
0000
0100
0000
1000
0000
0001
0000
0000
0100
0000
0000
0010
0000
,
1000
0000
0000
0100
0000
0000
0010
0000
0000
0001
0000
0000
0100
0000
0010
0000
,
1000
0000
0000
0001
0000
0000
0200
0000
0000
0000
0000
0000
0301
0000
1000
0000
,
0001
0000
0000
0010
0000
0000
1000
0000
0000
0010
0000
0000
0001
0000
1000
0000
,
0001
0000
0000
0100
0000
0000
1000
0000
0000
0100
0000
0000
0001
0000
1000
0000
,
0001
0000
0000
0010
0000
0000
0100
0000
2000
0000
0000
0000
3001
0000
0000
0000
,
1000
0010
0100
0001
0100
0010
1000
0001
,
1000
0000
0000
0100
0000
0000
0001
0000
0100
0000
1000
0000
0100
0000
1000
0000
,
0001
0000
0100
0000
0001
0000
0100
0000
0010
0000
0000
1000
0000
0000
0001
0000
,
1000
0000
0000
0100
0000
0000
0010
0000
0000
0001
0000
0000
0010
0000
1000
0000
,
0020
0000
0130
0000
1000
0001
1000
0001
,
0200
0000
0001
0000
0010
0000
0301
0010
,
0200
0000
1000
0000
0010
0000
1300
0100
,
0020
0000
0001
0001
0000
0100
0130
0000
,
2000
0000
0010
0010
0000
0001
3001
0000
,
1000
0100
0010
0001
1000
0010
0100
0001
,
2002
0000
0000
0000
0000
0000
3003
0001
,
1000
0010
1000
0010
0001
0010
0001
0010
,
0100
0001
0100
0001
2000
0000
3001
0000
,
1000
0100
1000
0100
0001
0100
0001
0100
,
0010
0100
0010
0100
0020
0000
0031
0000
,
1000
0010
1000
0010
0001
0010
0001
0010
,
0100
0010
0100
0010
1000
0010
1000
0010
,
1000
0000
0000
0001
0000
0000
1000
0000
0100
0000
0000
0000
0110
0000
0000
0000
,
0010
0011
0001
1001
,
0001
0100
1000
0100
0001
0100
1000
0100
,
0010
0100
0010
0100
0002
0000
1003
0000
,
0001
0010
1000
0010
0001
0010
1000
0010
,
0001
0100
0010
1000
0002
0000
1003
0000
,
0001
0010
0100
0010
0001
0010
0100
0010
,
0001
0100
0010
0100
0001
0100
0010
0100
,
0001
0000
0000
0010
0000
0000
1000
0000
0001
0000
0000
0100
0000
0000
1000
0000
,
0002
0000
1003
0000
0001
0100
1000
0100
,
0010
1010
1000
1001
,
1000
0000
0000
0100
0000
0000
0010
0000
0002
0000
0000
0000
1003
0000
0000
0000
,
0001
0101
0100
0110
,
0010
0000
0000
1000
0000
0000
0100
0000
0000
0000
0010
0000
0001
0000
0100
0000
,
0010
0000
1000
0000
0000
0001
0000
0000
1000
0000
0000
0001
0000
0000
1000
0000
,
0000
0000
0010
0000
0000
0100
0000
0000
0010
0000
0000
0100
0000
0000
0010
0000
,
1000
0000
0000
0100
0000
0000
0001
0000
0000
0100
0000
0000
1000
0000
0001
0000
,
1000
0000
0000
0010
0000
0000
0001
0000
0000
0010
0000
0000
1000
0000
0001
0000
,
1000
0000
0000
0100
0000
0000
0001
0000
0000
0010
0000
0000
1000
0000
0002
0000
,
0000
0003
0000
0000
0000
0000
0000
0000
;
