#TITLE:Liar×Girl;
#ARTIST:BEMANI Sound Team "HuΣeR" feat.ゆきまめ;
#TITLETRANSLIT:Liar x Girl;
#ARTISTTRANSLIT:HuΣeR feat.Yukimame;
#BANNER:Liar x Girl.png;
#BACKGROUND:Liar x Girl-bg.png;
#JACKET:Liar x Girl-jacket.png;
#CDTITLE:./CDTITLES/JUBEAT.PNG;
#MUSIC:Liar x Girl.ogg;
#SAMPLESTART:63.658;
#SAMPLELENGTH:15;
#BPMS:0=164;

//---------------dance-single - t7r----------------
#NOTES:
     dance-single:
     t7r:
     Beginner:
     5:
     :
0000
0000
0000
0000
,
0000
0000
0000
0000
,
0000
0000
0000
0000
,
0000
0000
0000
0000
,
0000
0000
0000
0000
,
0000
0000
0000
0000
,
1000
0000
0000
0000
,
1000
0000
0000
0000
,
0001
0000
0001
0000
,
0001
0000
0000
0000
,
0100
0000
0000
0000
,
0000
0000
0000
0000
,
0000
0010
0000
0010
,
0010
0000
0010
0000
,
0000
1000
0000
1000
,
1000
0000
1000
0000
,
0000
0001
0000
0001
,
0001
0000
0001
0000
,
0000
0010
0000
0010
,
0010
0000
0010
0000
,
0100
0000
0000
0000
,
0100
0000
0000
0000
,
0010
0000
0000
0000
,
0010
0000
0000
0000
,
0001
0000
0001
0000
,
0001
0000
0000
0000
,
1000
0000
1000
0000
,
1000
0000
0000
0000
,
0000
0010
0000
0010
,
0010
0000
0010
0000
,
0100
0000
0100
0000
,
0001
0000
1000
0000
,
0000
0001
0001
0000
,
0010
0000
0100
0000
,
1000
0000
0010
0000
,
0100
0100
0100
0000
,
0001
0000
0000
0000
,
1000
1000
1000
0000
,
0100
0000
0000
0000
,
0010
0010
0010
0000
,
0001
0000
0000
0000
,
1000
0000
0000
0000
,
0010
0010
0010
0010
,
0010
0000
0000
0000
,
1000
0000
1000
0000
,
1000
1000
1000
0000
,
1000
0000
1000
0000
,
1000
1000
1000
0000
,
0001
0000
0001
0000
,
0001
0001
0001
0000
,
0001
0001
0001
0000
,
0001
0000
0010
0000
,
0000
0100
0100
0000
,
0010
0000
0010
0000
,
0001
0000
1000
0000
,
0010
0000
0100
0000
,
0010
0000
0001
0000
,
0010
0000
1000
0000
,
0100
0000
0010
0000
,
0100
0000
0001
0000
,
0100
0000
0000
0000
,
0000
0000
0000
0000
,
0010
0000
0000
0000
,
0010
0000
0000
0000
,
0001
0000
1000
0000
,
0010
0000
0010
0000
,
0100
0100
0100
0000
,
0001
0001
0001
0000
,
0000
1000
0000
1000
,
1000
0000
1000
0000
,
0000
0001
0000
0001
,
0001
0000
0001
0000
,
0000
0010
0000
0010
,
0010
0000
0010
0000
,
0100
0000
0000
0000
,
1000
1000
1000
1000
;

//---------------dance-single - t7r----------------
#NOTES:
     dance-single:
     t7r:
     Easy:
     8:
     :
0000
0000
0000
0000
,
0000
0000
0000
0000
,
0000
0000
0000
0000
,
0000
0000
0000
0000
,
0000
0000
0000
0000
,
0000
0000
0000
0000
,
0001
1000
0001
1000
,
0010
0100
0010
0100
,
0001
0001
2000
3100
,
0020
0000
0031
1000
,
0220
0000
0000
0000
,
0000
0000
0330
1000
,
0002
1003
0100
0010
,
0100
1000
0010
0100
,
0001
0010
0100
0010
,
0002
0100
2003
0100
,
3001
0010
0100
0010
,
0001
0100
0010
1000
,
0001
1000
0100
0010
,
0200
0001
0010
1300
,
0010
0000
0010
0000
,
0100
0001
1000
0000
,
0100
0000
0100
0000
,
1000
0001
0100
0000
,
0010
0010
1000
1000
,
0001
0000
0001
0000
0010
0001
0020
0000
,
0031
0001
0100
0100
,
0010
0000
0010
0000
2000
3000
2000
3000
,
0000
0000
0100
0000
0010
0000
0100
0001
,
0000
0100
0010
0100
,
1000
0010
0100
0010
,
1000
0000
0010
0000
2000
3000
2000
3000
,
0001
0020
0230
0302
,
0203
0320
0230
1300
,
0020
0230
2300
3200
,
0310
0100
0010
0000
0220
0000
0330
0000
,
1000
0000
0000
2100
0000
0000
0000
0000
,
0010
0000
0001
0000
3100
1000
0001
0000
,
0001
0000
0000
0102
0000
0000
0000
0000
,
0010
0000
1000
0000
0103
0001
1000
0000
,
0020
0000
0001
0100
,
2030
0000
0010
0001
,
3100
0000
0100
0000
0010
0001
1000
0000
,
0002
0003
0000
0000
,
1000
1100
1100
1100
,
1100
1100
1100
1100
,
0101
0101
0101
0110
,
1010
0000
1001
0000
0001
1000
0001
0000
,
0010
0011
0011
0011
,
0011
0011
0011
0011
,
1010
0000
1010
0000
0110
0000
0100
0001
,
1000
0000
0001
0000
1000
0100
0010
0000
,
0000
0001
2000
0010
,
3002
0100
2003
0100
,
3001
0010
0001
0000
0010
0000
0100
0000
,
0010
0100
1000
0000
0010
0000
0100
0000
,
0002
0003
1001
1001
,
0202
0303
1001
1001
,
1100
0000
1100
0000
0110
0000
0100
1000
,
0001
0101
0110
1001
,
0001
0000
2000
0000
0000
3020
0000
0230
,
0000
0000
0000
0000
,
0301
0010
0100
0010
,
2000
0000
0000
3010
0000
0001
0000
0000
,
0100
2010
0000
0000
,
3001
0010
0100
0010
,
1000
0010
0001
0100
,
0002
0010
2003
0010
,
3001
0000
0110
0000
0100
0000
0001
1000
,
0000
0000
0001
0000
0100
0000
0001
0010
,
0000
0000
0100
0000
1000
0000
0001
1000
,
0000
0000
0010
0000
0100
0001
1000
0000
,
0100
0000
0010
0000
0100
0000
1000
0001
,
0000
0100
0010
0100
,
0000
0002
0000
0000
0000
0000
0000
0000
,
2003
0010
3002
0010
,
0003
0000
0000
0000
;

//---------------dance-single - t7r----------------
#NOTES:
     dance-single:
     t7r:
     Medium:
     13:
     :
0000
0000
0000
0000
,
0000
0000
0000
0000
,
0000
0000
0000
0000
,
0000
0000
0000
0000
,
0000
0000
0000
0000
,
0000
0000
0000
0000
,
2000
0100
3002
0100
,
2003
0010
3002
0010
,
1003
0000
1000
0000
0100
0010
0001
0000
,
0200
0000
1300
0000
0110
0100
0001
0000
,
0020
0000
0000
0000
,
0000
0000
0000
0000
0030
0000
0100
2000
,
0001
0000
3000
0000
1001
0000
0000
0001
0000
0000
0100
0000
0010
0000
0000
1000
,
0000
0000
0100
0000
0010
0000
0000
0000
0001
0000
0100
0000
0010
0000
1000
0001
,
0000
0000
1000
0000
0010
0000
0000
1000
0000
0000
0001
0000
0010
0000
0000
0100
,
0020
0000
0000
0000
0001
0000
0000
0000
0130
0000
1000
0000
0010
0000
0000
0100
,
0001
0000
0000
0000
1001
0000
0000
1000
0000
0000
0010
0000
0100
0000
0000
0001
,
0000
0000
0010
0000
0100
0000
0000
0000
1000
0000
0010
0000
0100
0000
0001
1000
,
0000
0000
0001
0000
0010
0000
0001
1000
0000
0000
0100
0000
0010
0000
0000
0001
,
2000
0010
3002
0010
,
1003
0000
0000
0000
0100
0000
0010
0000
0000
0000
0100
0000
1000
0000
0000
0001
,
0100
0000
0010
0000
0000
0000
0100
0000
0001
0000
1000
0000
0001
0000
0000
1000
,
0010
0000
0100
0010
0000
1000
0100
0010
,
0002
0100
2003
0100
,
3001
0000
0100
0010
1000
0000
0100
0010
,
0001
0100
1000
0100
0010
0100
0001
0000
,
1000
0000
0010
0000
1000
0100
0001
0100
,
0010
0000
0010
0000
0002
0003
0002
0003
,
2000
0000
0000
0000
3100
0000
0000
0000
1000
0000
0001
0100
0000
0000
0001
0000
,
1000
0000
0100
0000
0010
0000
0000
0000
0100
0000
1000
0001
0000
0000
0100
0000
,
0020
0000
0000
0000
0130
0000
1000
0000
0100
0000
0010
0100
0000
0000
0001
0000
,
0020
0000
0130
0001
0200
0300
0200
0300
,
0010
0000
1001
0001
0100
0010
0100
1000
,
0100
0010
0100
0001
1000
0100
0010
0100
,
1000
0010
0001
0010
0100
0010
0001
0010
,
2000
0100
3002
0100
,
1003
0000
0001
0200
1000
0000
0310
0000
,
1000
0100
0010
0000
1000
0010
0100
1000
,
0001
0000
1000
0020
0001
0000
0130
0000
,
0010
0000
0200
0000
0301
0010
0100
1000
,
0010
0000
1000
0100
1000
0100
0010
0001
,
1000
0000
0001
0100
0001
0100
0010
1000
,
0001
0001
0010
0010
0100
1000
0001
1000
,
1001
0000
0000
0000
,
0100
0000
0000
0000
2001
0000
0000
3100
2000
0000
0000
3001
2000
0000
0000
3100
,
2000
0000
0000
3010
2000
0000
0000
3001
2000
0000
0000
3100
2000
0000
0000
3010
,
2000
0000
0000
3001
2000
0000
0000
3001
2000
0000
0000
3001
0010
0000
0100
0000
,
0020
0000
0031
0100
0010
0100
1000
0100
,
0002
0000
0000
1003
0002
0000
0000
0103
0002
0000
0000
1003
0002
0000
0000
0013
,
0002
0000
0000
1003
0002
0000
0000
0103
0002
0000
0000
0013
0002
0000
0000
1003
,
0002
0000
0000
1003
0002
0000
0000
0103
0010
0000
0100
0000
0001
0000
1000
0000
,
0100
0010
0100
0001
2000
0000
3020
0000
,
0031
0100
0010
0100
1000
0100
0020
0000
,
1030
0000
0100
0010
0000
0100
1000
0000
0020
0000
0001
0000
0230
0000
0000
0000
,
0301
0010
0100
0010
1000
0010
0100
0010
,
0001
0100
1000
0100
0001
0010
0100
0010
,
0002
0000
1000
0000
0103
0010
0100
1000
,
0200
1000
0310
0000
2000
0100
3001
0000
,
0020
0001
0130
0000
2000
0010
3001
0000
,
0110
0000
0110
0000
2001
0000
3001
0100
,
0010
0100
0102
0000
0000
0023
0000
0230
,
0000
0000
0000
1000
,
0310
0000
0001
0100
0000
0000
0001
0000
1000
0000
0001
0010
0000
0000
0001
0000
,
2000
0000
0000
3020
0000
0032
0000
0013
,
0100
2002
0000
3003
,
0001
0000
0010
0001
0010
0000
0001
0000
1000
0000
0010
1000
0010
0000
1000
0000
,
0001
0000
0100
0001
0100
0000
0001
0000
1000
0000
0100
1000
0100
0000
1000
0000
,
0002
0100
2003
0100
3002
0010
2003
0010
,
3001
0000
0100
0000
0110
0000
0000
0000
1000
0000
0100
0000
0010
0100
0000
1000
,
0000
0000
0001
0000
0100
0000
0010
0000
0001
0000
0010
0000
0100
0000
0001
1000
,
0000
0000
0001
0000
0010
0000
0100
0010
0000
0001
0000
1000
0010
0000
0100
0000
,
1000
0000
0100
0000
0010
0000
0100
0000
0001
0000
0010
0000
0100
0010
0000
0001
,
1000
0000
0000
0000
1001
0000
1000
0100
0000
0010
0000
0001
0100
0000
0001
1000
,
0000
0000
0001
0000
0010
0000
0100
0000
1000
0010
1000
0000
0001
0000
0010
0001
,
0000
0200
1000
0000
0010
0000
0301
0010
,
0002
0100
2003
0100
3002
0010
2003
0010
,
3000
0000
0000
0000
;

//---------------dance-single - t7r----------------
#NOTES:
     dance-single:
     t7r:
     Hard:
     16:
     :
0000
0000
0000
0000
,
0000
0000
0000
0000
,
0000
0000
0000
0000
,
0000
0000
0000
0000
,
0000
0000
0000
0000
,
0000
0000
0000
0000
,
2000
0100
3002
0100
,
2003
0010
3002
0010
,
1003
0000
1000
0000
0100
0000
0100
0000
1000
0001
1000
0001
1000
0001
1000
0001
,
0200
0000
0000
0000
0000
0000
0000
0310
0100
0000
0100
0000
0001
1000
0100
0000
,
0020
0000
0000
0000
,
0000
0000
0000
0000
0000
0000
0000
0000
0000
0000
0000
0000
0031
0100
0020
0000
,
1000
0000
0030
0000
1001
0000
1000
0010
0000
1000
0000
0100
1000
0001
0000
0100
,
0000
0001
1000
0001
0000
0100
0001
1000
0100
1000
0010
0100
0001
1000
0001
0100
,
0000
0000
0010
0000
0100
0000
0001
0010
0000
0100
0000
0010
0001
1000
0000
0010
,
0100
0000
0001
0010
0000
0100
1000
0001
0000
1000
0010
1000
0001
0010
0000
0100
,
0010
0000
0000
0000
1001
0000
0001
0010
0000
0001
0000
0100
0001
1000
0000
0100
,
0000
1000
0001
1000
0000
0100
1000
0001
0100
0001
0010
0100
1000
0001
1000
0100
,
0000
0000
0010
0000
0100
0000
1000
0010
0000
0100
0000
0010
1000
0001
0000
0100
,
0002
0010
2003
0010
3002
0100
2003
0100
,
3001
0000
0000
0000
0100
0000
0010
0100
0000
0001
0100
0000
0010
0000
0000
0100
,
0001
0000
1000
0100
1000
0000
0001
0000
1000
0000
0010
0000
0100
0000
0001
1000
,
0001
0000
0000
0010
0100
0000
0010
0000
0001
0000
1000
0000
0010
0000
0100
0010
,
0200
0000
1000
0000
0010
0000
0301
1000
,
1100
0000
0000
0100
0010
0000
0100
0000
0001
0000
0100
0000
0010
0000
0002
0000
,
1003
0000
0000
0010
0100
0000
0010
0000
0001
0000
0010
0000
0100
0000
0002
0000
,
1003
0000
0000
0100
0010
0000
1000
0000
0010
0000
0100
0000
0010
0000
0001
1000
,
0100
0000
0100
0000
0020
0030
0020
0030
,
0100
0000
1000
0001
1000
0000
0001
0000
0100
0000
0001
0010
0000
0001
1000
0000
,
0001
0000
1000
0000
0100
0010
0000
0100
1000
0001
0000
0001
0100
0010
0000
0010
,
0100
0000
1000
0000
0100
0010
0000
0100
0001
0000
1000
0100
0000
0100
0010
0000
,
0100
0000
1000
0000
0001
0100
0001
0000
0020
0000
0030
0000
0020
0000
0030
0000
,
0100
0000
1000
0010
1000
0000
0001
0010
0001
0000
1000
0001
1000
0000
0001
0100
,
0001
0000
1000
0100
1000
0000
0001
0100
0010
0000
0001
0000
0010
0000
1000
0000
,
0001
0000
0010
0100
1000
0000
0010
0100
1000
0000
0100
0000
0010
0000
1000
0000
,
0200
0000
0310
0000
0200
0000
0301
0000
0200
0000
0310
0100
1000
0000
0001
0000
,
2001
0000
3001
0200
1000
0320
0000
2030
,
0000
3100
0001
1000
0010
0100
1000
0010
,
2000
0000
3001
0020
1000
0230
0000
2300
,
0000
3010
0001
1000
0200
0000
0310
0000
,
2001
0000
3100
0010
1000
0010
0100
1000
,
0002
0000
0103
0010
0001
0010
0100
0001
,
0010
0000
0010
0000
0100
0000
0100
0000
1000
0001
1000
0001
0100
0010
0100
0010
,
1000
0000
0000
0000
,
0110
0000
0001
1000
0200
0000
1300
0001
0200
0000
0301
1000
0200
0000
1300
0001
,
0200
0000
0301
1000
0200
0000
1300
0001
0200
0000
0301
1000
0200
0000
1300
0010
,
0200
0000
0301
0010
0200
0000
1300
0010
0200
0000
0310
1000
0001
0000
0100
0000
,
0020
0000
0031
0000
0010
0000
1000
0100
0010
0000
0001
1000
0100
0000
1000
0000
,
0020
0000
1030
0001
0020
0000
0031
1000
0020
0000
1030
0001
0020
0000
0031
1000
,
0020
0000
1030
0001
0020
0000
0031
1000
0020
0000
1030
0001
0020
0000
0031
0100
,
0020
0000
1030
0100
0020
0000
0130
1000
0001
1000
0010
0000
0100
0001
1000
0100
,
0020
0000
1030
0000
0020
0000
0130
0000
0002
0000
0103
1000
0020
0000
0001
0000
,
0130
0010
0100
0010
2000
0000
3100
0010
0002
0000
0103
0000
0020
0000
0130
0000
,
1000
0000
0100
0010
0000
0100
0001
0000
0020
0000
1000
0000
0230
0000
0010
0000
,
1300
0000
0010
0100
0010
0000
0001
0000
0020
0000
0100
0000
1030
0000
0100
0000
,
0010
0000
0100
0001
0100
0000
0010
0000
0100
0000
1000
0010
0100
0000
0010
0000
,
0200
0000
0301
1000
0200
0000
1300
0001
0200
0000
1000
0000
0310
0000
1000
0001
,
0020
0000
0031
1000
0020
0000
1030
0001
0020
0000
0001
0000
0130
0000
0010
0001
,
2000
0000
0010
0000
0001
0000
3100
0010
0002
0000
0010
0000
1000
0000
0103
0000
,
0110
0010
1010
0010
2010
0000
3100
0100
,
0010
0110
1002
0000
0000
0023
0000
0230
,
0000
0000
0000
0010
,
1300
0000
0010
0100
0000
0010
0001
0000
0010
0000
0100
0010
0000
1000
0001
0000
,
0020
0000
0001
0230
0000
0010
1300
0010
,
0110
2001
0010
3001
,
1000
0010
0100
0001
1000
0010
0100
0001
1000
0100
0010
0001
1000
0100
0010
0100
,
2000
0000
3001
0100
0001
0010
0100
1000
0010
0100
0001
1000
0001
0010
0100
0010
,
0002
0100
2003
0100
3002
0010
2003
0010
,
3001
0000
0100
0000
0120
0000
1030
0100
0000
0010
0100
0000
0001
0100
0000
1000
,
0000
0001
0100
0001
0000
1000
0100
1000
0001
0010
0100
1000
0001
0100
0010
1000
,
0000
0000
0100
0000
0010
0000
0100
1000
0000
0010
0000
0001
0010
0100
0000
0010
,
1000
0100
0010
0001
1000
0010
0100
0001
0010
0100
0010
0001
0100
0010
0000
1000
,
0100
0000
0000
0000
2010
0000
3001
0010
0000
0100
0000
0010
1000
0010
0000
0100
,
0000
1000
0010
1000
0000
0001
0010
0001
1000
0100
0010
0001
1000
0010
0100
0001
,
0000
0000
1000
0000
0010
0000
0100
0010
0000
0001
0000
0010
1000
0001
0000
0010
,
0002
0100
2003
0100
3002
0010
2003
0010
,
3000
0000
0000
0000
;

//---------------dance-double - t7r----------------
#NOTES:
     dance-double:
     t7r:
     Easy:
     9:
     :
00000000
00000000
00000000
00000000
,
00000000
00000000
00000000
00000000
,
00000000
00000000
00000000
00000000
,
00000000
00000000
00000000
00000000
,
00000000
00000000
00000000
00000000
,
00000000
00000000
00000000
00000000
,
10000000
01000000
10000000
01000000
,
00010000
00001000
00010000
00001000
,
00000100
00000001
00002000
00003000
,
00000001
00000010
00000100
00010000
,
00022000
00000000
00000000
00000000
,
00000000
00000000
00033000
00001000
,
00020000
01030000
00100000
01000000
,
00000000
10000000
00100000
01000000
,
00100000
10000000
00010000
00100000
,
00000000
00001000
00010000
00000010
,
00000100
00000001
00001000
00000100
,
00000000
00000010
00000001
00000100
,
00000000
00001000
00010000
01000000
,
20000000
00100000
30020000
00100000
,
10030000
00000000
10000000
00000000
,
01000000
00100000
01000000
00000000
,
10000000
00000000
00100000
00000000
,
00010000
00001000
00010000
00000000
,
00001000
00000010
00000100
00000010
,
00000001
00000000
00000100
00000000
00000010
00001000
00000010
00000000
,
00001000
00000100
00010000
00001000
,
00010000
00000000
00010000
00000000
00200000
00300000
00200000
00300000
,
01000000
00000000
10010000
00000000
10000000
00000000
00100000
01000000
,
00000000
00100000
00010000
00001000
,
00000010
00000100
00000010
00000001
,
00001000
00000000
00000010
00000000
00000200
00000300
00000200
00000300
,
00000000
00000002
00000023
00002030
,
00023000
00230000
20300000
30010000
,
00000000
20000000
32000000
03020000
,
00032000
00003200
00000302
00002003
,
00003100
00000000
00000000
00000120
00000000
00000000
00000000
00000000
,
00001000
00000100
00000031
00000000
,
00001000
00000000
00000000
00001200
00000000
00000000
00000000
00000000
,
00010000
00001000
00010300
00000000
,
00011000
00000000
00000000
00000000
00010000
00000000
00100000
01000000
,
00010000
00010000
10000000
01000000
,
00010000
00000000
00001000
00000000
00000100
00000010
00000100
00000000
,
00000001
00000000
00000000
00000000
,
00000010
00000110
00000110
00000110
,
00000110
00000110
00000110
00000110
,
00001100
00001100
00001100
00011000
,
00011000
00000000
01001000
00000000
01000000
00010000
10000000
00000000
,
01000000
01100000
01100000
01100000
,
01100000
01100000
01100000
01100000
,
00110000
00000000
10010000
00000000
10200000
00000000
00310000
00001000
,
00010000
00001000
00000020
00000032
,
00001003
00001001
00000001
00000200
,
00002300
00000000
00013000
00001000
00020000
00000000
02030000
00000000
,
03100000
01000000
10000000
00000000
00100000
00000000
00100000
00000000
,
01000000
00000000
00010000
00000000
00100000
00001000
00010000
00000000
,
00001000
00011000
00011000
00011000
,
00010000
00011000
00011000
00011000
,
00020000
00000010
00032000
00000000
,
00103000
00110000
10010000
10010000
,
10000000
00000000
00200000
00000000
00000000
02300000
00000000
03002000
,
00000000
00000000
00000000
00000000
,
00013000
00001000
00000100
00000010
,
00002000
00000000
00000000
00003001
00000000
00000010
00000000
00000000
,
00001000
00022000
00000000
00033000
,
00010000
01000000
10000000
10000000
,
00100000
01000000
00100000
00010000
,
00001000
00000100
00000100
00001001
,
00000001
00000000
00000010
00000000
00000001
00000000
00000100
00000010
,
00000000
00001000
00000010
00010000
,
00001000
00000000
00100000
00000000
00010000
00000000
10000000
01000000
,
00000000
00000000
10000000
00000000
00100000
00000000
00010000
00001000
,
00010000
00021000
00000000
00030100
,
00012000
00000000
01003000
00010000
,
10000000
00000000
00100000
00000000
00010000
00001000
00010000
00000000
,
00002000
01000000
00023000
00000100
,
00030000
00000000
00000000
00000000
;

//---------------dance-double - t7r----------------
#NOTES:
     dance-double:
     t7r:
     Medium:
     13:
     :
00000000
00000000
00000000
00000000
,
00000000
00000000
00000000
00000000
,
00000000
00000000
00000000
00000000
,
00000000
00000000
00000000
00000000
,
00000000
00000000
00000000
00000000
,
00000000
00000000
00000000
00000000
,
20000000
01000000
30020000
01000000
,
20030000
30100000
00020000
00031000
,
00000010
00000000
00000010
00000000
00000100
00010000
00001000
00010000
,
02000000
00000000
13000000
00000000
00100000
00010000
00001000
00000000
,
00020000
00000000
00000000
00000000
,
00000000
00000000
00000000
00000000
00030000
00000000
00001000
00000200
,
00000001
00000000
00000300
00000000
00000110
00000000
00000000
00000001
00000000
00000000
00000100
00000000
00000010
00000000
00000000
00001000
,
00000000
00000000
00000100
00000000
00000010
00000000
00000000
00000000
00000001
00000000
00000100
00000000
00001000
00000000
00010000
00001000
,
00000000
00000000
00010000
00000000
01000000
00000000
00000000
10000000
00000000
00000000
00100000
00000000
01000000
00000000
00000000
00100000
,
20000000
00000000
00000000
00000000
01000000
00000000
00000000
00000000
30010000
00000000
00100000
00000000
00001000
00000000
00000000
00010000
,
00001000
00000000
00000000
00000000
00011000
00000000
00000000
00001000
00000000
00000000
00000010
00000000
00000100
00000000
00000000
00000010
,
00000000
00000000
00000001
00000000
00001000
00000000
00000000
00000000
00000001
00000000
00000010
00000000
00001000
00000000
00010000
00001000
,
00000000
00000000
00010000
00000000
00100000
00000000
00000000
01000000
00000000
00000000
00010000
00000000
10000000
00000000
00000000
01000000
,
00020000
00001000
00032000
00010000
,
01003000
00000000
00000000
00000000
00100000
00000000
10000000
00000000
00000000
00000000
01000000
00000000
00100000
00000000
00000000
01000000
,
10000000
00100000
00000000
01000000
00010000
10000000
00010000
00000000
,
10000000
00000000
00000000
00000000
00100000
00000000
00010000
00000000
00000000
00000000
00001000
00000000
00010000
00000000
00000000
00001000
,
00000020
00000000
00001000
00000000
00000100
00000000
00000031
00001000
,
00000100
00000000
00001000
00000010
00000100
00000000
00000001
00000010
,
00001000
00000000
00010000
00001000
01000000
00000000
00001000
00010000
,
00100000
00000000
01000000
00010000
10000000
00000000
01000000
00010000
,
00001000
00000000
00001000
00000000
00020000
00030000
00020000
00030000
,
00002000
00000000
00000000
00000000
00003100
00000000
00000000
00000000
00000010
00000000
00000100
00000001
00000000
00000000
00000010
00000000
,
00000100
00000000
00010000
00000000
00001000
00000000
00000000
00000000
00010000
00000000
01000000
10000000
00000000
00000000
00100000
00000000
,
02000000
00000000
00000000
00000000
03010000
00000000
00100000
00000000
00010000
00000000
10000000
00100000
00000000
00000000
10000000
00000000
,
01000000
00000000
00010000
00000000
00002000
00003000
00002000
00003000
,
00010000
00001000
00000100
00000010
00001000
00000100
00010000
00001000
,
00010000
00100000
01000000
00010000
00100000
01000000
00010000
00001000
,
00000010
00000100
00000010
00001000
00010000
00100000
01000000
00100000
,
20000000
00100000
30020000
00100000
,
10030000
00000000
00010000
02000000
10000000
00000000
03100000
00000000
,
10000000
01000000
00010000
00000000
00001000
00000100
00000001
00000000
,
00001000
00000000
00000001
00000020
00001000
00000000
00000130
00000000
,
00001000
00000000
00000010
00000000
00000100
00001000
00010000
01000000
,
00100000
00000000
00010000
01000000
00100000
10000000
01000000
00010000
,
00001000
00000000
00000100
00000001
00000010
00000100
00010000
00001000
,
00010000
00010000
00001000
00001000
00000100
00000001
00000010
00001000
,
00011000
00000000
00000000
00000000
,
01000000
00000000
00000000
00000000
10020000
00000000
00000000
01030000
00020000
00000000
00000000
10030000
00020000
00000000
00000000
01030000
,
00020000
00000000
00000000
00130000
00020000
00000000
00000000
10030000
00020000
00000000
00000000
01030000
00020000
00000000
00000000
00130000
,
00020000
00000000
00000000
10030000
00020000
00000000
00000000
10030000
00020000
00000000
00000000
10030000
00100000
00000000
00010000
00000000
,
00002000
00000000
00003010
00000100
00001000
00000010
00000100
00000001
,
00002000
00000000
00000000
00003001
00002000
00000000
00000000
00003100
00002000
00000000
00000000
00003001
00002000
00000000
00000000
00003010
,
00002000
00000000
00000000
00003001
00002000
00000000
00000000
00003100
00002000
00000000
00000000
00003010
00002000
00000000
00000000
00003001
,
00002000
00000000
00023000
00000000
20030000
00000000
31000000
00100000
,
02000000
00000000
03010000
00001000
00000200
00000000
00000320
00000000
,
00000130
00000100
00000001
00000010
00000001
00000100
00000020
00000000
,
00001030
00000000
00000100
00010000
00000000
00001000
00010000
00000000
02000000
00000000
00000000
00000000
23000000
00000000
00000000
00000000
,
30100000
01000000
00100000
00010000
00100000
10000000
01000000
00100000
,
00010000
00001000
00000010
00000100
00000010
00000001
00000010
00000100
,
00000020
00000000
00000001
00000000
00000130
00000001
00001000
00000100
,
00020000
00000100
00032000
01000000
,
00013000
01000000
20000000
00000000
30100000
00010000
00002000
00000000
,
00003010
00000000
00000110
00000000
00021000
00000000
00031000
00010000
,
00001000
00000100
00000210
00000000
00000000
00000302
00000000
00000023
,
00000000
00000000
00000000
00000100
,
00000031
00000000
00000100
00000010
00000000
00000000
00001000
00000000
00000100
00000000
00010000
00001000
00000000
00000000
00010000
00000000
,
00200000
00000000
00000000
02300000
00000000
03020000
00000000
10030000
,
01000000
20020000
00000000
30030000
,
10000000
00100000
00010000
00001000
00000010
00000001
00000100
00000010
,
00000001
00000010
00001000
00000100
00010000
00001000
00010000
00100000
,
20000000
01000000
30020000
01000000
20030000
00000000
30020000
00000000
,
00031000
00000000
00000010
00000000
00000110
00000000
00000000
00000000
00000001
00000000
00000100
00000000
00000010
00000100
00000000
00000001
,
00000000
00000000
00000010
00000000
00001000
00000000
00000010
00000000
00000100
00000000
00010000
00000000
00001000
00000000
00010000
00000100
,
00000000
00000000
00010000
00000000
00001000
00000000
00010000
01000000
00000000
10000000
00000000
00100000
01000000
00000000
00100000
00000000
,
10000000
00000000
01000000
00000000
00100000
00000000
00010000
00000000
00001000
00000000
00000100
00000000
00001000
00000001
00000000
00000100
,
00000010
00000000
00000000
00000000
00001001
00000000
00000001
00000010
00000000
00000100
00000000
00001000
00000001
00000000
00000100
00001000
,
00000000
00000000
00010000
00000000
00001000
00000000
00010000
00000000
01000000
00000000
00100000
00000000
01000000
00000000
10000000
00010000
,
00000000
02000000
10000000
00000000
00100000
00000000
03010000
10000000
,
20010000
00000000
30020000
00000000
00032000
00000100
00003002
00000100
,
00000003
00000000
00000000
00000000
;

//---------------dance-double - t7r----------------
#NOTES:
     dance-double:
     t7r:
     Hard:
     16:
     :
00000000
00000000
00000000
00000000
,
00000000
00000000
00000000
00000000
,
00000000
00000000
00000000
00000000
,
00000000
00000000
00000000
00000000
,
00000000
00000000
00000000
00000000
,
00000000
00000000
00000000
00000000
,
00002000
01000000
00023000
00000100
,
00032000
00100000
00023000
00000010
,
00031000
00000000
00001000
00000000
00010000
00000000
00010000
00000000
01000000
10000000
00010000
10000000
00010000
10000000
00010000
10000000
,
00200000
00000000
00000000
00000000
00000000
00000000
00000000
00310000
00001000
00000000
00001000
00000000
00010000
00001000
00000100
00000000
,
00000020
00000000
00000000
00000000
,
00000000
00000000
00000000
00000000
00000000
00000000
00000000
00000000
00000000
00000000
00000000
00000000
00001030
00000100
00000020
00000000
,
00000100
00000000
00000030
00000000
00001001
00000000
00000001
00000100
00000000
00000001
00000000
00001000
00000100
00000010
00000000
00000100
,
00000000
00010000
00001000
00010000
00000000
00001000
00010000
00000000
01000000
00000000
10000000
00100000
01000000
00010000
10000000
00010000
,
00000000
00000000
01000000
00000000
00100000
00000000
10000000
01000000
00000000
00100000
00000000
01000000
10000000
00010000
00000000
01000000
,
00020000
00000000
00001000
00000000
00130000
00000000
00001000
00010000
00001000
00000000
00000010
00000000
00000100
00000010
00000000
00000001
,
00001000
00000000
00000000
00000000
00001001
00000000
00000001
00000100
00000000
00000010
00000000
00001000
00000100
00010000
00000000
00001000
,
00000000
00010000
01000000
00100000
00000000
01000000
10000000
00000000
00100000
00000000
01000000
00000000
00010000
00100000
01000000
10000000
,
00000000
00000000
00100000
00000000
01000000
00000000
00010000
00100000
00000000
00001000
00000000
00010000
00001000
00000000
00000010
00000000
,
00000002
00000100
00002003
00000100
00003002
00000010
00002003
00000010
,
00003001
00000000
00000000
00000000
00000100
00000000
00000010
00001000
00000000
00000001
00001000
00000000
00000001
00000000
00000000
00000010
,
00000100
00000000
00010000
00001000
00010000
00000000
00001000
00000000
00010000
00000000
00100000
00000000
01000000
00000000
00010000
10000000
,
00010000
00000000
00000000
00100000
01000000
00000000
10000000
00000000
00100000
00000000
01000000
00010000
10000000
00000000
01000000
00100000
,
02000000
00000000
00010000
00000000
00100000
00000000
13000000
01000000
,
00010000
00000000
00000000
00001000
00010000
00000000
00100000
00000000
01000000
00000000
00100000
00000000
10000000
00000000
00020000
00000000
,
10030000
00000000
00000000
01000000
00100000
00000000
01000000
00000000
00010000
00000000
00001000
00000000
00000010
00000000
00000002
00000000
,
00000103
00000000
00000000
00000010
00001000
00000000
00000001
00000000
00000100
00000000
00001000
00000000
00010000
00000000
00200000
00000000
,
01300000
00000000
01000000
00000000
00020000
00030000
00020000
00030000
,
10000000
00000000
00100000
01000000
00100000
00000000
10000000
00000000
01000000
00000000
00100000
00010000
00000000
10000000
00010000
00000000
,
10000000
00000000
01000000
00000000
00010000
00001000
00000000
00010000
00000100
00001000
00000000
00001000
00000010
00000100
00000000
00000100
,
00000001
00000000
00000010
00000000
00000100
00000010
00000000
00001000
00000010
00000000
00000100
00001000
00000000
00001000
00000001
00000000
,
00000100
00000000
00001000
00000000
00010000
00001000
00010000
00000000
00002000
00000000
00003000
00000000
00002000
00000000
00003000
00000000
,
00000010
00000000
00000100
00001000
00000001
00000000
00000100
00001000
00010000
00000000
00100000
10000000
00010000
00000000
10000000
01000000
,
00100000
00000000
01000000
10000000
00010000
00000000
10000000
00100000
01000000
00000000
00100000
00000000
10000000
00000000
01000000
00000000
,
00010000
00000000
00001000
00000010
00001000
00000000
00010000
00100000
00010000
00000000
00001000
00010000
00001000
00000000
00010000
00000000
,
00002000
00000010
00023000
00100000
00032000
00000100
00023000
01000000
,
00032000
00000000
00003100
00000002
00000010
00002003
00000000
00003200
,
00000000
00010300
00001000
00010000
01000000
00100000
01000000
10000000
,
00020000
00000000
00130000
20000000
01000000
30020000
00000000
00230000
,
00000000
00301000
00010000
00001000
00000020
00000000
00000031
00000000
,
00000201
00000000
00001300
00000100
00000010
00001000
00000100
00010000
,
00002000
00000000
00013000
01000000
00100000
00001000
00010000
00100000
,
10000000
00000000
10000000
00000000
01000000
00000000
01000000
00000000
00010000
00001000
00010000
00001000
00010000
00001000
00010000
00001000
,
00010000
00000000
00000000
00000000
,
00000110
00000000
00001000
00000001
00000200
00000000
00000301
00001000
00000200
00000000
00001300
00000001
00000200
00000000
00000301
00001000
,
00000200
00000000
00001300
00000001
00000200
00000000
00000301
00001000
00000200
00000000
00001300
00000001
00000200
00000000
00001300
00010000
,
02000000
00000000
13000000
00010000
02000000
00000000
03010000
10000000
02000000
00000000
13000000
00010000
01000000
00000000
00100000
00000000
,
00020000
00000000
00031000
00000000
00000010
00000000
00000100
00010000
00001000
00000000
00010000
01000000
10000000
00000000
00010000
00000000
,
00200000
00000000
00310000
10000000
00200000
00000000
10300000
00010000
00200000
00000000
00310000
10000000
00200000
00000000
10300000
00010000
,
00200000
00000000
00310000
10000000
00200000
00000000
10300000
00010000
00200000
00000000
00310000
10000000
00200000
00000000
00310000
00001000
,
00000020
00000000
00000031
00001000
00000020
00000000
00001030
00000001
00000200
00000000
00000301
00001000
00000010
00000000
00000100
00000000
,
00002000
00000000
00013000
00000000
01000000
00000000
00100000
00001000
00020000
00000000
00031000
00000100
00000002
00000000
00000010
00000000
,
00001003
00000001
00001000
00000001
00001000
00000000
00000100
00000010
00000002
00000000
00000103
00000000
00000020
00000000
00000130
00000000
,
00001000
00000000
00010000
00100000
00000000
01000000
00100000
00000000
20000000
00000000
01000000
00000000
30020000
00000000
00100000
00000000
,
10030000
00000000
00100000
01000000
00100000
00000000
00010000
00000000
00100000
00000000
10000000
00000000
01000000
00000000
00010000
00000000
,
00001000
00000000
00000010
00000100
00000010
00000000
00000001
00000000
00000100
00000000
00001000
00010000
00001000
00000000
00010000
00000000
,
00002000
00000100
01003000
00011000
,
00020000
00100000
00030010
00011000
,
00002000
00000000
00000010
00000000
00000000
00000000
00013000
00001000
00020000
00000000
00100000
00000000
00000000
00000000
00031000
00010000
,
00001000
00010000
01010000
01000000
11000000
10000000
00100000
00100000
,
01000000
00100000
20010000
00000000
00000000
32000000
00000000
03200000
,
00000000
00000000
00000000
10000000
,
01300000
00000000
10000000
00100000
00000000
01000000
00100000
00000000
00010000
00000000
00001000
00010000
00000000
00001000
00000010
00000000
,
00000002
00000000
00000100
00002003
00000000
00000010
00003001
00000100
,
00000110
00012000
00000100
00013000
,
00001000
00000000
00010000
01000000
00100000
00000000
01000000
00000000
10000000
00000000
00100000
01000000
00100000
00000000
10000000
00000000
,
00100000
00000000
00010000
00001000
00010000
00000000
00001000
00000000
00000010
00000000
00000100
00001000
00000001
00000000
00000100
00000000
,
00002000
01000000
00023000
00000100
00032000
00100000
00023000
00000010
,
00031000
00000000
00010000
00000000
00011000
00000000
00010000
00100000
00000000
01000000
00010000
00000000
10000000
01000000
00000000
00100000
,
00000000
01000000
10000000
01000000
00000000
10000000
00100000
10000000
01000000
10000000
00010000
01000000
00010000
00100000
00001000
00010000
,
00000000
00000000
00001000
00000000
00010000
00000000
00001000
00000010
00000000
00000100
00000000
00000010
00000001
00001000
00000000
00000001
,
00000100
00000010
00001000
00000001
00000010
00000100
00010000
00001000
00010000
01000000
10000000
00000000
00100000
01000000
00000000
00010000
,
00100000
00000000
00000000
00000000
00012000
00000000
00003100
00000010
00000000
00000100
00000000
00000001
00000010
00000001
00000000
00001000
,
00000000
00000010
00001000
00000001
00000100
00000010
00001000
00000001
00000100
00001000
00010000
00001000
01000000
00010000
10000000
00010000
,
00000000
00000000
10000000
00000000
00100000
00000000
00010000
00001000
00000000
00000010
00000000
00000100
00010000
00001000
00000000
00010000
,
00000200
00001000
02000300
00010000
03000200
00000000
02000000
00000000
,
03000300
00000000
00000000
00000000
;
