#VERSION:0.83;
#TITLE:Level Four;
#SUBTITLE:;
#ARTIST:DJ Striden;
#TITLETRANSLIT:;
#SUBTITLETRANSLIT:;
#ARTISTTRANSLIT:;
#GENRE:;
#ORIGIN:;
#CREDIT:;
#BANNER:Level Four.png;
#BACKGROUND:Level Four-bg.png;
#PREVIEWVID:;
#JACKET:Level Four-jacket.png;
#CDIMAGE:;
#DISCIMAGE:;
#LYRICSPATH:;
#CDTITLE:cdtitle.png;
#MUSIC:Level Four.ogg;
#OFFSET:-0.135986;
#SAMPLESTART:22.635984;
#SAMPLELENGTH:14.999998;
#SELECTABLE:YES;
#BPMS:0.000=128.000;
#STOPS:;
#DELAYS:;
#WARPS:12.000=4.000;
#TIMESIGNATURES:0.000=4=4;
#TICKCOUNTS:0.000=4;
#COMBOS:0.000=1;
#SPEEDS:0.000=1.000=0.000=0;
#SCROLLS:0.000=1.000,
16.000=0.100,
20.000=1.000;
#FAKES:;
#LABELS:0.000=Song Start,
100.000=Half;
#BGCHANGES:;
#KEYSOUNDS:;
#ATTACKS:
;

//---------------dance-single - ----------------
#NOTEDATA:;
#CHARTNAME:;
#STEPSTYPE:dance-single;
#DESCRIPTION:;
#CHARTSTYLE:;
#DIFFICULTY:Hard;
#METER:14;
#RADARVALUES:0.594855,0.699549,0.433054,0.455262,0.505230,375.000000,336.000000,39.000000,41.000000,46.000000,0.000000,14.000000,0.000000,9.000000,0.594855,0.699549,0.433054,0.455262,0.505230,375.000000,336.000000,39.000000,41.000000,46.000000,0.000000,14.000000,0.000000,9.000000;
#CREDIT:Pilgrimsito;
#NOTES:
// measure 0
0000
0000
0000
0000
0000
0000
0000
0000
0000
0000
0000
0000
M00M
M00M
M00M
MMMM
,  // measure 1
000M
000M
000M
000M
0000
0000
0000
0000
M00M
M00M
M00M
MMMM
000M
000M
000M
000M
,  // measure 2
0000
0000
0000
0000
M00M
M00M
M00M
MMMM
000M
000M
000M
000M
0000
0000
0000
0000
,  // measure 3
0000
0000
0M0M
000M
000M
0000
000M
000M
000M
0000
0000
M000
0M00
0000
0000
0000
,  // measure 4
0000
0000
0000
0000
,  // measure 5
0102
0000
0003
0000
0002
0000
0003
1000
0100
0000
0010
0000
0100
0000
1000
0000
,  // measure 6
0020
0000
0030
0000
0020
0000
0030
0100
0001
0000
0010
0000
0100
0000
0010
0000
,  // measure 7
0002
0000
0003
0000
0002
0000
0003
1000
0100
0000
0001
0000
0100
0000
1000
0000
,  // measure 8
0020
0000
0030
0000
0020
0000
0030
0100
0001
0000
0011
0000
1000
0000
1010
0000
,  // measure 9
0010
0100
0001
0010
0100
0010
0001
1000
0100
1000
0010
0100
0001
1000
0010
0100
,  // measure 10
0002
0000
0003
0000
0002
0000
0003
0100
0010
0000
1000
0000
0100
0000
0010
0000
,  // measure 11
0100
1000
0010
0100
0010
1000
0100
0010
0001
0100
0010
1000
0100
1000
0010
0000
,  // measure 12
1001
1000
1010
0010
0110
0100
0101
0001
,  // measure 13
1000
0001
1000
0000
0010
0000
1000
0100
0010
0100
1000
0001
0020
0000
0000
0000
,  // measure 14
0031
0100
0001
0000
1000
0000
0010
0000
0001
0000
0010
0000
0100
0000
0001
0000
,  // measure 15
1000
0010
1000
0000
0001
0000
0010
0001
0100
0001
0010
0001
0100
0000
0100
0000
,  // measure 16
0001
0000
0000
0000
0010
0000
0000
0000
0100
0000
0000
0000
2000
0000
0000
0000
0000
0000
3200
0000
0000
0000
0000
0000
0302
0000
0000
0000
0000
0000
0203
0000
0000
0000
0000
0000
4300
0000
0000
0000
0000
0000
0000
0000
0000
3000
0000
0000
,  // measure 17
0001
1000
0001
0000
0100
0000
0001
0010
0100
0010
0001
1000
0200
0000
0000
0000
,  // measure 18
1300
0010
1000
0000
0001
0000
0100
0000
1000
0000
0100
0000
0010
0000
1000
0000
,  // measure 19
0001
0100
0001
0000
1000
0000
0100
1000
0010
1000
0100
1000
0010
0000
0010
0000
,  // measure 20
1000
0000
0000
0000
0100
0000
0000
0000
0010
0000
0000
0000
0002
0000
0000
0000
0000
0000
0023
0000
0000
0000
0000
0000
2030
0000
0000
0000
0000
0000
3020
0000
0000
0000
0000
0000
0034
0000
0000
0000
0000
0000
0000
0000
0000
0003
0000
0000
,  // measure 21
1001
0000
0001
0000
0400
0000
0000
0300
1010
0000
1000
0000
0400
0000
0000
0300
,  // measure 22
0011
0000
0001
0000
4000
0000
0000
3000
1100
0000
1000
0000
0004
0000
0000
0003
,  // measure 23
0101
0000
0100
0000
0040
0000
0000
0030
1100
0000
0100
0000
0040
0000
0000
0030
,  // measure 24
1001
1000
0040
0130
0004
1003
0400
0310
,  // measure 25
0001
0100
0010
0100
0002
0000
4003
0000
0000
0000
3000
0100
0010
0100
0000
1000
,  // measure 26
0001
0000
0001
0100
0000
0100
0001
0000
0001
1000
0000
1000
0100
0000
0100
0000
,  // measure 27
0M20
0031
002M
0130
0M20
1030
M020
0130
,  // measure 28
1000
0001
1000
0001
0100
0010
0100
0010
1000
0001
1000
0001
0010
0100
0010
0100
,  // measure 29
2000
0000
3000
0000
0101
0000
0000
0001
1000
0000
0100
0000
1000
0000
0010
0000
,  // measure 30
0100
0000
0000
0000
0011
0000
0000
0001
1000
0000
0200
0000
0340
0000
0030
0000
,  // measure 31
0100
0000
0000
0000
1001
0000
0000
1000
0100
0000
0001
0000
0100
0000
1000
0000
,  // measure 32
0010
0000
0000
0000
0110
0000
0000
0010
1000
0000
0001
0000
0010
0000
0001
0000
,  // measure 33
0100
0000
0000
0000
0011
0000
0000
0001
1000
0000
0001
1000
0000
0000
0020
0000
,  // measure 34
0130
0000
0000
0000
1001
0000
0000
1000
0100
0000
1000
0000
0040
0000
0000
0030
,  // measure 35
1000
0000
0000
0000
1100
0000
0000
0001
0010
0000
0001
0100
0000
0000
0001
0000
,  // measure 36
1000
0000
0000
0000
0110
0000
0000
0001
0010
0000
1000
0000
0010
0000
0001
0000
,  // measure 37
1001
0000
0000
0000
1001
0000
0000
0010
1000
0000
0100
0000
0010
0000
0100
0000
,  // measure 38
1001
0000
0000
0000
1001
0000
0000
0100
0001
0000
0010
0000
0100
0000
0010
0000
,  // measure 39
0011
0000
0000
0000
0011
0000
0000
1000
0100
0000
0001
0000
0100
0000
1000
0000
,  // measure 40
0110
0000
0000
0000
0110
0000
0000
0001
0010
0000
1000
0000
0010
0000
0001
0000
,  // measure 41
1001
0000
0000
0000
1001
0000
0000
0001
0200
0000
0320
0000
2030
0000
3200
0000
,  // measure 42
0320
0000
0030
0000
1001
0000
0000
1000
0020
0000
0230
0000
0302
0000
0023
0000
,  // measure 43
0230
0000
0300
0000
1001
0000
0000
0001
0200
0000
0302
0000
0023
0000
0031
0000
,  // measure 44
1001
0010
1001
0010
1100
0001
1010
0001
,  // measure 45
0110
0000
0000
0000
;
