#TITLE:Lagtrain;
#SUBTITLE:;
#ARTIST:inabakumori;
#TITLETRANSLIT:;
#SUBTITLETRANSLIT:;
#ARTISTTRANSLIT:;
#GENRE:;
#CREDIT:;
#BANNER:Lagtrain.png;
#BACKGROUND:Lagtrain-bg.png;
#LYRICSPATH:;
#CDTITLE:cdtitle.png;
#MUSIC:Lagtrain.ogg;
#OFFSET:0.000000;
#SAMPLESTART:22.857000;
#SAMPLELENGTH:13.061000;
#SELECTABLE:YES;
#BPMS:0.000000=147.000000
;
#STOPS:
;
#BGCHANGES:0.000=Lagtrain.avi=1.000=0=0=0=StretchNoLoop====,
99999=-nosongbg-=1.000=0=0=0 // don't automatically add -songbackground-
;
#KEYSOUNDS:;
#ATTACKS:;

//---------------dance-single - MEGAtive----------------
#NOTES:
     dance-single:
     :
     Beginner:
     3:
     0.159954,0.242162,0.104156,0.095476,0.000000,129.000000,117.000000,12.000000,11.000000,0.000000,0.000000,0.159954,0.242162,0.104156,0.095476,0.000000,129.000000,117.000000,12.000000,11.000000,0.000000,0.000000:
// measure 0
0000
0000
0000
0000
,  // measure 1
0000
0000
0000
0000
,  // measure 2
0000
0000
0000
0000
,  // measure 3
0000
0000
0000
0000
,  // measure 4
0000
0000
0000
0000
,  // measure 5
0000
0000
0000
0000
,  // measure 6
0001
0000
0000
0000
,  // measure 7
1000
0000
0000
0000
,  // measure 8
0100
0000
0000
0000
,  // measure 9
0010
0000
0000
0000
,  // measure 10
0001
0000
0000
0000
,  // measure 11
0100
0000
0000
0000
,  // measure 12
0010
0000
0000
0000
,  // measure 13
1000
0000
0000
0000
,  // measure 14
1001
0000
0001
0000
,  // measure 15
0100
0100
0100
0000
,  // measure 16
0010
0000
1000
0000
,  // measure 17
0100
0100
0010
0000
,  // measure 18
0110
0000
0100
0000
,  // measure 19
1000
1000
1000
0000
,  // measure 20
0001
0000
0100
0000
,  // measure 21
0010
0000
0010
0000
,  // measure 22
1001
0000
1000
0000
,  // measure 23
0100
0000
0010
0000
,  // measure 24
0001
0000
0100
0000
,  // measure 25
0010
0000
1000
0000
,  // measure 26
1001
0000
0001
0000
,  // measure 27
0010
0000
0100
0000
,  // measure 28
0010
0000
0001
0000
,  // measure 29
2000
0000
3000
0000
,  // measure 30
1001
0000
0001
0000
,  // measure 31
0100
0000
0010
0000
,  // measure 32
1000
1000
1000
0000
,  // measure 33
0001
0001
0001
0000
,  // measure 34
1000
0000
0100
0000
,  // measure 35
0010
0000
0001
0000
,  // measure 36
0100
0000
0100
0000
0000
0000
0000
1001
,  // measure 37
0000
0000
0000
0000
,  // measure 38
0002
0000
0003
0000
,  // measure 39
0020
0000
0030
0000
,  // measure 40
0200
0000
0300
0000
,  // measure 41
2000
0000
3000
0000
,  // measure 42
0020
0000
0030
0000
,  // measure 43
0200
0000
0300
0000
,  // measure 44
0002
0000
0000
0000
0003
0000
0000
1001
,  // measure 45
0000
0000
0000
0000
,  // measure 46
2002
3003
0000
0000
,  // measure 47
0000
0000
0000
0000
,  // measure 48
1000
1000
0010
0000
,  // measure 49
0100
0000
0001
0000
,  // measure 50
0010
0010
0001
0000
,  // measure 51
1000
0000
0100
0000
,  // measure 52
0010
0000
0001
0000
,  // measure 53
1001
0000
0000
0000
,  // measure 54
1000
0010
0010
0000
,  // measure 55
0100
0100
0100
0000
,  // measure 56
0001
0010
0010
0000
,  // measure 57
0001
0001
0001
0000
,  // measure 58
1000
0100
0100
0000
,  // measure 59
0010
0010
0010
0000
,  // measure 60
0001
1000
1000
0000
,  // measure 61
1001
0000
0000
0000
,  // measure 62
1001
0000
1000
0000
,  // measure 63
0010
0000
0100
0000
,  // measure 64
0001
0000
0010
0000
,  // measure 65
0100
0000
1000
0000
,  // measure 66
0000
1001
0000
0000
,  // measure 67
1000
0000
0010
0000
,  // measure 68
0100
0000
0001
0000
,  // measure 69
2000
0000
0000
3000
;

//---------------dance-single - MEGAtive----------------
#NOTES:
     dance-single:
     :
     Easy:
     6:
     0.276509,0.363243,0.078117,0.269069,0.000000,223.000000,214.000000,9.000000,31.000000,0.000000,0.000000,0.276509,0.363243,0.078117,0.269069,0.000000,223.000000,214.000000,9.000000,31.000000,0.000000,0.000000:
0000
0000
0000
0000
,
0000
0000
0000
0000
,
0000
0000
0000
0000
,
0000
0000
0000
0000
,
0000
0000
0000
0000
,
0000
0000
0000
0000
,
2000
3010
0000
1000
,
0002
0013
0000
0001
,
2000
3100
0000
1000
,
0002
0103
0000
0001
,
2000
3010
0000
1000
,
0002
0013
0000
0001
,
2000
3100
0000
1000
,
0002
0003
0000
0000
,
1000
0100
0010
0001
,
0100
0100
0010
0000
,
1000
0010
0100
0001
,
0010
0000
0010
0000
0100
0010
0100
0000
,
1000
1000
0010
0100
,
0001
0001
0010
0200
,
0300
2000
0000
3000
0002
0000
0003
0100
,
0200
0300
0010
1000
,
1001
0001
0010
0100
,
1000
1000
0010
0100
,
0001
0001
1000
0100
,
0010
0010
0100
1000
,
0010
0100
0001
1000
,
0100
0100
1000
0001
,
0100
0010
1000
0001
,
0020
0000
0000
0030
,
1001
0000
0001
0000
0001
0000
1000
0010
,
0000
0010
0000
0000
0100
0000
0001
0000
,
1000
0000
1000
0000
1000
0000
0001
0010
,
0000
0010
0000
0000
0100
0000
0010
0000
,
0001
0000
0001
0000
0001
0000
1000
0100
,
0000
0100
0000
0000
0010
0000
0001
0000
,
1000
0000
1000
0000
1000
0000
0010
0010
,
0000
0000
0000
0000
,
2001
0000
0010
0000
,
3002
0000
0010
0000
,
2003
0000
0100
0000
,
3002
0000
0010
0013
,
0210
0000
1000
0000
,
2300
0000
0010
0000
,
3002
0000
0000
0000
0100
0000
0103
0100
,
0000
0010
0000
0100
0000
0001
0001
0000
,
1001
0000
0000
0000
,
0000
0000
0000
0000
,
1100
1000
0010
0100
,
0001
0000
0001
0000
0010
0100
0010
0000
,
0110
0100
1000
0010
,
0100
0100
0001
2000
,
3000
0200
0000
0300
0020
0000
0030
0001
,
0002
0003
0000
0000
,
1001
1000
0010
0100
,
0001
0001
0020
0000
,
0130
0010
0001
1000
,
0010
0000
0200
0000
0000
0001
0301
0000
,
0100
0100
0010
1000
,
0001
0001
0010
0200
,
0300
0020
0000
0030
0002
0000
0003
1000
,
2000
0000
3000
0010
0010
0000
0100
0000
,
1001
0000
0001
0000
0001
0000
0100
0010
,
0000
0010
0000
0000
0100
0000
0001
0000
,
1000
0000
1000
0000
1000
0000
0001
0010
,
0000
0010
0001
0000
0100
0000
0010
0000
,
0000
0000
1000
0000
1000
0000
0001
0100
,
0000
0100
0000
0000
0010
0000
1000
0000
,
0001
0000
0001
0000
0001
0000
1000
0100
,
2000
0000
0000
3001
;

//---------------dance-single - MEGAtive----------------
#NOTES:
     dance-single:
     :
     Medium:
     9:
     0.384385,0.393514,0.208312,0.407944,0.000000,310.000000,286.000000,24.000000,47.000000,0.000000,0.000000,0.384385,0.393514,0.208312,0.407944,0.000000,310.000000,286.000000,24.000000,47.000000,0.000000,0.000000:
0000
0000
0000
0000
,
0000
0000
0000
0000
,
0000
0000
0000
0000
,
0000
0000
0000
0000
,
0000
0000
0000
0000
,
0000
0000
0000
0000
,
0002
0000
0103
0000
0000
0001
0101
0000
,
2000
0000
3100
0000
0000
1000
1100
0000
,
0002
0000
0013
0000
0000
0001
0011
0000
,
2000
0000
3010
0000
0000
1000
1010
0000
,
0002
0000
0103
0000
0000
0100
0101
0000
,
2000
0000
3100
0000
0000
0100
1100
0000
,
0002
0000
0103
0000
0000
0100
0101
0000
,
2000
3000
0000
0000
,
1001
0000
0001
0010
0001
0000
1000
0010
,
0100
0000
1000
0000
1000
0000
0100
0010
,
0100
0000
0001
0000
0001
0000
0010
0100
,
0000
0100
1000
0010
0000
0010
0100
0000
,
0110
0000
0010
1000
0001
0000
0010
0100
,
0010
0000
0100
1000
0001
0000
0100
0010
,
0000
0010
1000
0000
1000
0001
0000
0001
,
0010
1000
0000
0010
0001
0000
1000
0000
,
2001
0000
0010
0000
3001
0000
1000
0200
,
0000
0010
0000
1000
0000
0010
0000
1300
,
2000
0000
0100
0000
3001
0000
1000
0020
,
0000
0100
0000
1000
0000
0100
0000
1030
,
1002
0000
0010
0000
1003
0000
0001
0200
,
0000
0010
0000
0001
0000
0010
0000
0301
,
0002
0000
0100
0000
1003
0000
0001
0020
,
0000
0100
0000
0100
0000
0100
0130
0000
,
1001
0000
0001
0010
0001
0000
0100
0010
,
0000
0010
0100
0000
0001
0000
1000
0100
,
0020
0000
0100
0000
0001
0000
0130
1000
,
0000
1000
0001
0000
0010
0000
0010
0000
,
0001
0000
1000
0010
1000
0000
0100
0010
,
0000
0010
0100
0000
1000
0000
0001
0100
,
0020
0000
0100
0000
1000
0000
0130
0120
,
0000
0000
0000
1030
,
1002
0010
0203
0010
,
0302
0023
0230
2300
,
3020
0100
2030
0100
,
3002
0203
0320
1030
,
1002
0010
2003
0010
,
3002
0023
0230
0320
,
0032
0000
0100
0000
2003
0000
0100
3100
,
0000
1100
0000
1001
0000
0010
0010
0000
,
2002
3003
0000
0000
,
0000
0000
0000
0000
0000
0001
0010
0100
,
2000
0000
3010
0000
0001
0000
0010
0100
,
0000
0001
0010
0100
0000
1000
1000
0000
,
1100
0000
0100
1000
0010
0000
0100
0001
,
0010
0000
0100
0000
0110
0000
0010
0001
,
0000
0001
1000
0000
1000
0010
0000
0010
,
0200
0300
0000
0000
,
1001
0000
0001
0010
1000
0000
0010
0000
,
0100
0000
1000
0010
0001
0000
0010
0000
,
0200
0000
0001
0000
0301
0000
1000
0100
,
0000
0100
1000
0001
0000
0100
0100
0000
,
0110
0000
0010
1000
0100
0000
0001
0000
,
0100
0000
1000
0001
0100
0000
0010
0100
,
0000
0100
0001
0000
0001
1000
0000
1000
,
0100
0001
0000
0100
1000
0000
0001
0000
,
0101
0000
0100
0000
0010
0000
1000
0002
,
0000
0010
0000
1000
0000
0100
0000
1003
,
1000
0000
0010
0000
0100
0000
0001
2000
,
0000
0100
0000
0001
0000
0010
0000
3001
,
0010
0000
0110
0000
0100
0000
1000
0020
,
0000
0100
0000
0001
0000
0100
0000
1000
,
1030
0000
0100
0000
0010
0000
0001
0200
,
0000
0010
0000
0010
0000
0010
0310
0000
;

//---------------dance-single - MEGAtive----------------
#NOTES:
     dance-single:
     :
     Hard:
     12:
     0.489780,0.544865,0.347186,0.381905,0.008680,395.000000,355.000000,40.000000,44.000000,5.000000,0.000000,0.489780,0.544865,0.347186,0.381905,0.008680,395.000000,355.000000,40.000000,44.000000,5.000000,0.000000:
0000
0000
0000
0000
,
0000
0000
0000
0000
,
0000
0000
0000
0000
,
0000
0000
0000
0000
,
0000
0000
0000
0000
,
0000
0000
0000
0000
,
2100
0000
3001
0100
0010
0000
0100
0001
,
0010
0000
0100
1000
0010
0000
0100
0001
,
0010
0000
1000
0000
0010
0100
0010
0001
,
0000
0001
0100
0010
0000
1000
1000
0000
,
0002
0000
1003
0100
0010
0000
0100
1000
,
0010
0000
0100
0001
0010
0000
0100
1000
,
0000
0010
0100
0000
0001
0010
0000
0100
,
0200
0300
0000
0000
,
1000
0100
0010
0001
0100
0000
0010
0100
,
0001
0010
0001
0100
0010
0000
0100
0001
,
0010
0000
1000
0010
0001
0000
0100
0010
,
0M00
0010
0100
1000
0000
0001
0101
0000
,
0001
0100
0010
1000
0100
0000
0010
0100
,
1000
0001
0100
0010
0100
0000
0010
2000
,
0000
3100
0002
0000
0013
2000
0000
3010
,
1010
1000
0000
0001
0101
0000
1100
0000
,
0201
0000
1300
0100
0001
0000
1000
1200
,
0000
0001
0000
0310
0001
1000
0100
0010
,
0021
0000
1030
0010
0001
0000
0100
0201
,
0000
0000
1300
0000
0100
0000
0010
0000
0100
0000
0001
0000
1000
0000
0001
0020
,
0001
0000
1030
0010
0001
0000
0100
0120
,
0000
0001
0000
0130
0010
1000
0001
0100
,
0201
0000
0000
0000
1300
0000
0100
0000
0001
0000
0000
0000
0010
0000
0100
1000
,
0200
0010
0000
0010
0000
0310
0100
0000
,
1000
0100
1000
0001
0100
0000
0010
1000
,
0200
0010
0000
1300
0001
0010
0100
1000
,
1010
0000
0101
0000
1010
0010
1000
0001
,
0010
1000
0000
1020
0000
0000
0100
0000
,
0031
0100
0001
1000
0010
0000
0100
0001
,
0020
0100
0000
0031
1000
0010
0100
0001
,
0101
0000
1010
1000
0001
0010
0100
0110
,
0000
2000
0000
0000
0000
0000
3001
0000
,
0012
0000
1000
0000
0100
0000
1003
0100
,
0020
0000
0100
0100
0000
0032
0000
1003
,
2000
0010
0001
0100
,
3002
0100
0100
0000
1000
0000
0013
0100
,
2000
0000
0001
0000
0010
0000
3001
0010
,
0200
0000
0010
0010
0000
0000
1300
1000
,
0002
0000
0100
0100
0000
0000
0013
0011
,
0000
1010
0000
1100
0000
0001
0101
0000
,
2002
3003
0000
0000
,
0000
0000
0000
0000
0000
0001
0001
1000
,
1010
0000
0101
0000
0100
0001
0010
1000
,
0000
1000
0010
0001
0000
0100
0101
0000
,
0001
0100
0010
0100
1000
0000
0100
0010
,
1000
0001
0010
0100
1000
0000
0001
0020
,
0000
1030
0200
0000
0301
0020
0000
0031
,
0022
0033
0000
0000
,
1000
0100
0001
0100
0010
0M00
0010
0100
,
0001
1000
0001
0100
0010
0M00
0010
0001
,
0011
0000
1000
0010
1010
0000
0101
0100
,
000M
0100
0010
0001
0000
1000
1001
0000
,
0001
0100
1000
0100
0010
0M00
0010
0001
,
0011
0000
1000
0010
1010
0000
1000
0002
,
0000
0013
2000
0000
3100
0002
0000
0103
,
0101
0001
0000
1000
1100
0000
0011
0000
,
0201
0000
1000
0000
0010
0000
0301
1000
,
0200
0010
0000
1300
0100
1000
0100
0020
,
0001
0000
1000
0000
0100
0000
0031
1000
,
0020
0100
0000
0130
0010
0100
0001
1000
,
1000
0000
1200
0000
0001
0000
0310
0001
,
2000
0010
0000
3010
1000
0010
1000
0001
,
0200
0000
1000
0000
0010
0000
0301
1000
,
0002
0010
0000
0010
0000
0013
0011
0000
;
