#TITLE:狂イ咲ケ焔ノ華;
#SUBTITLE:;
#ARTIST:覚醒ノPrim;
#TITLETRANSLIT:;
#SUBTITLETRANSLIT:;
#ARTISTTRANSLIT:;
#GENRE:;
#CREDIT:;
#MUSIC:Kuruizake homura no hana.ogg;
#BANNER:;
#BACKGROUND:;
#CDTITLE:;
#SAMPLESTART:53.210;
#SAMPLELENGTH:9.903;
#SELECTABLE:YES;
#OFFSET:-0.200;
#BPMS:0.000=206.000
,144.000=103.000
,160.000=206.000
,279.000=103.000
,295.000=206.000
;
#STOPS:166.000=0.291
,301.000=0.291
;
#BGCHANGES:;
#FGCHANGES:;

//--------------- dance-single - eataninja ----------------
#NOTES:
     dance-single:
     eataninja:
     Beginner:
     5:
     0,0,0,0,0:
0000
0000
0000
0000
,
0000
0000
0000
0000
,
0000
0000
0000
0000
,
0000
0000
0000
0000
,
0000
0000
0000
0000
,
0000
0000
0000
0000
,
0000
0000
0000
0000
,
0000
0000
0000
0000
,
1001
0000
0000
0000
,
1000
0000
0010
0000
,
0100
0000
0000
0000
,
0001
0000
0010
0000
,
1001
0000
0000
0000
,
0001
0000
0100
0000
,
0010
0000
0000
0000
,
1000
0000
0001
0000
,
0010
0000
0000
0000
,
0001
0001
0001
0000
,
1000
0000
0000
0000
,
0010
0010
0010
0000
,
0100
0000
0000
0000
,
0001
0001
0001
0000
,
1000
0000
0000
0000
,
0100
0100
0100
0000
,
1001
0000
0000
0000
,
1000
0000
0010
0000
,
0100
0000
0000
0000
,
0001
0000
0010
0000
,
0100
0000
0000
0000
,
1000
1000
1000
0000
,
0010
0000
0000
0000
,
0100
0100
0100
0000
,
0001
0000
0000
0000
,
0010
0010
0010
0000
,
0100
0000
0000
0000
,
1000
0000
0001
0000
,
2001
0000
3002
0000
,
0103
1000
0100
0001
,
1002
0000
2003
0000
,
3100
0001
0100
1000
,
0002
0000
0000
0000
,
0100
0100
0103
1001
,
0000
1000
0000
0100
,
0000
0010
0000
0001
,
0000
0100
0000
0010
,
0000
1000
0000
1001
,
0000
0001
0000
0010
,
0000
0100
0000
1001
,
0000
1000
0000
0010
,
0010
0010
0000
1001
,
0000
1000
0000
0010
,
0000
0100
0000
1001
,
0000
0010
0000
0100
,
0000
1000
0000
0001
,
0001
1000
0000
1000
,
1000
0010
0000
0100
,
0000
1000
0000
0100
,
0000
0001
0000
2000
,
0000
0000
3000
0200
,
0000
0000
0300
0020
,
0000
0000
0030
0002
,
0000
0000
0003
1000
,
0000
0010
0000
1000
,
0000
0000
0000
0001
,
0000
0010
0000
0100
,
0000
0100
0000
1001
,
0000
0000
0000
1000
,
0000
0010
0000
1001
,
0000
0000
0000
0100
,
0000
0100
0000
2001
,
0000
3002
0000
0013
,
1000
0010
0001
1002
,
0000
2003
0000
3010
,
0001
0010
1000
0002
,
0000
0000
0000
0010
,
0010
0013
0100
0010
,
0100
0000
1000
0001
,
1000
0000
0001
0100
,
0001
0000
1000
0010
,
1000
0000
0001
0010
,
0001
0000
0010
0100
,
0010
0000
1000
0000
,
0010
0000
0001
0000
,
1000
0000
1001
0000
,
0001
0000
0100
0010
,
0100
0000
1001
0000
,
1000
0000
0100
0010
,
0100
0000
1000
0000
,
0001
0000
0100
0000
,
1000
0000
0200
0000
,
0000
0300
0010
0000
,
1000
0000
1001
0000
,
0000
0000
0100
0100
,
0100
0000
0010
0000
,
0000
0000
0001
0001
,
0001
0000
1001
0000
,
0000
0000
0100
0100
,
0100
0000
0010
0000
,
0001
0000
0100
0000
,
1000
0000
2002
0000
,
0000
0000
0000
0000
,
0000
0000
3003
0000
;

//--------------- dance-single - eataninja ----------------
#NOTES:
     dance-single:
     eataninja:
     Easy:
     9:
     0,0,0,0,0:
0000
0000
0000
0000
,
0000
0000
0000
0000
,
0000
0000
0000
0000
,
0000
0000
0000
0000
,
0000
0000
0000
0000
,
0000
0000
0000
0000
,
0000
0000
0000
0000
,
0000
0000
0000
0000
,
1001
0000
1000
0100
,
0010
0001
0001
1000
,
0010
0000
0100
0010
,
0010
1000
0001
0010
,
1001
0000
0001
0010
,
0100
1000
1000
0001
,
0100
0000
0010
0100
,
0001
1000
1001
1001
,
0010
0100
1000
0000
,
0001
0100
0001
0000
,
1000
0001
0010
0000
,
0100
0001
0100
1000
,
0001
0100
0100
0000
,
0010
0100
0001
0000
,
1000
0001
0010
0000
,
0100
0010
0100
0100
,
1001
0000
1000
0010
,
0100
0001
1000
0100
,
0010
0000
0001
1000
,
0010
0100
0001
1000
,
0100
0100
0010
0001
,
1000
0010
0100
0000
,
0001
1000
0001
0010
,
0100
0001
0100
0000
,
1001
1000
0001
0100
,
0010
0010
1000
0000
,
1001
0001
0100
0010
,
1000
1000
0001
0001
,
0020
0000
0230
0000
1000
1000
1300
0000
,
0020
0000
0130
0000
1000
0100
0001
0000
,
0200
0000
0320
0000
1000
1000
1030
0000
,
0001
1000
0001
0000
0020
0000
0230
0000
,
2300
0000
0000
0000
,
0010
0010
3010
1001
,
0001
0010
0010
0001
,
1000
0100
0100
1000
,
0001
0100
1000
0100
,
0001
1000
1000
1001
,
0001
0010
0010
0100
,
1000
0001
0100
1001
,
1000
0010
0010
0110
,
1000
0001
0110
1001
,
1000
0010
0010
1000
,
0001
0100
0100
0010
,
1000
0100
0001
0100
,
1000
0010
0100
1001
,
0001
0010
0100
1001
,
1000
0010
0100
2000
,
0000
3200
0000
0302
,
1003
0200
0310
0002
,
0000
1000
0000
0100
,
0000
1003
0000
2000
,
0000
0001
0000
0100
,
0000
3001
0000
0020
,
0100
0130
0000
2000
,
0001
3001
0000
0100
,
0010
1000
0001
0010
,
0100
1000
1000
1001
,
0000
0001
0100
0100
,
0010
1000
0001
1001
,
0000
1000
0100
0010
,
0010
0001
0001
0200
,
0320
0000
1000
1000
1030
0000
0200
0000
,
0310
0000
1000
0010
0001
0000
0020
0000
,
0230
0000
1000
1000
1300
0000
0001
1000
,
0001
0200
0320
2030
,
0000
0000
0000
0010
,
0010
3010
1000
0001
,
0001
0010
0001
1000
,
1000
0010
0100
1000
,
0100
0001
0010
0100
,
1000
0001
0100
0010
,
0010
1000
0100
0010
,
0010
0001
0100
1000
,
0100
0001
0010
0100
,
1000
1001
0110
0010
,
1000
1000
0100
0010
,
0001
0001
1001
0010
,
0100
0001
0010
1000
,
0010
0100
1000
1000
,
0001
0001
0100
0100
,
1001
1001
0001
0010
,
1000
0010
0200
2300
,
3020
0130
1001
0000
,
1000
0010
0010
0100
,
0100
0001
1000
0000
,
0001
0010
0010
0100
,
0100
0110
1001
0000
,
1000
0010
0001
0010
,
0010
0100
0001
0001
,
1000
1000
0100
0100
,
0010
0010
2002
0000
,
0000
0000
0000
0000
,
0000
0000
3003
0000
;

//--------------- dance-single - eataninja ----------------
#NOTES:
     dance-single:
     eataninja:
     Medium:
     13:
     0,0,0,0,0:
0000
0000
0000
0000
,
0000
0000
0000
0000
,
0000
0000
0000
0000
,
0000
0000
0000
0000
,
0000
0000
0000
0000
,
0000
0000
0000
0000
,
0000
0000
0000
0000
,
0000
0000
0000
0000
,
1001
0000
0001
0000
0100
0010
0000
0010
,
0000
1000
0000
2000
0000
3002
0000
0013
,
0100
0000
0100
0000
1000
0001
0000
0001
,
0000
0100
0000
0010
0000
0200
0000
0301
,
1000
0000
1000
0000
0100
0010
0000
0010
,
0000
0001
0000
0002
0000
2003
0000
3010
,
0100
0000
0100
0000
0001
1000
0000
1000
,
0000
0200
0000
0310
0001
0000
0001
0000
,
1000
0010
1000
0000
0001
0000
1000
0100
,
0000
0001
0000
0100
0010
0000
0001
0000
,
1000
0010
0100
0000
0010
0000
1000
0001
,
0000
0010
0100
0010
0000
1000
0010
0001
,
0000
1000
0010
0100
0000
0010
0100
0001
,
0000
1000
0100
1000
0001
0100
0000
0100
,
0000
0010
1000
0000
0001
0010
0100
0000
,
0001
0000
0100
1000
0000
0010
0100
0000
,
1001
0000
0001
0000
0010
0100
0000
0100
,
0000
1000
0000
2000
0000
3002
0000
0103
,
0010
0000
0010
0000
1000
0001
0000
0001
,
0000
0010
0000
0100
0000
0020
0000
0031
,
1000
0100
1000
0000
0001
1000
0010
0100
,
0000
1000
0100
0001
1000
0000
1000
0000
,
0001
0010
0100
0000
1000
0001
1000
0010
,
0000
0100
0100
0000
0001
0010
1000
0000
,
0010
0100
0010
0100
1000
0001
0100
0010
,
0000
1000
0001
1000
0100
0010
0001
1000
,
0000
0010
0100
0100
0001
0000
1000
0100
,
0002
0203
2300
3002
,
0100
0000
0000
0100
0100
0000
0000
0000
2003
0000
0000
0000
0100
0000
0000
0000
,
3001
1000
0100
0010
0001
1000
0010
0000
,
2001
0000
0000
0100
0100
0000
0000
0000
3002
0000
0000
0000
0100
0000
0000
0000
,
1003
0001
0100
0010
0001
0010
1000
0001
,
0020
0230
0320
0230
,
1000
0000
1000
0000
1300
0000
0001
1000
,
0010
0001
0000
0010
0010
0000
1000
0001
,
0010
1000
0000
0010
0010
0000
0100
1000
,
0001
0100
0000
0010
0010
0000
0100
0001
,
1000
0100
0000
1000
1000
0000
0001
0100
,
0010
1000
0000
0001
0001
0000
1000
0100
,
0001
0100
0000
0010
0010
0000
0002
0000
,
2003
0000
3020
0000
0230
0000
0301
1000
,
0001
1000
0100
0010
0001
1000
0010
0100
,
1000
0100
0000
0001
0001
0000
0010
1000
,
0010
0100
0000
1000
1000
0000
0001
0100
,
1000
0100
0000
0010
0010
0000
1000
0001
,
0010
0100
0000
1000
1000
0000
0001
0100
,
1000
0000
0100
0001
0010
0000
1000
0010
,
0001
0000
0000
0000
0010
0000
0000
0100
0000
0000
1000
0000
0002
0000
0000
0000
,
0100
0100
0103
0102
,
1003
2100
3001
0021
,
0000
0230
0000
2300
,
0000
3002
0000
0203
,
0320
0032
0023
2030
,
3002
0023
0230
2300
,
0000
3002
0000
0203
,
0000
2300
0000
3200
,
0320
2030
3002
0023
,
0230
1000
1300
2001
,
3010
0000
0100
0001
0000
0001
0000
0010
,
0000
0020
0000
0230
0000
1300
0001
0000
,
0001
0000
1000
0010
0000
0010
0100
0001
,
0100
0000
0001
0000
1000
0000
0001
0000
1000
0000
0001
0000
0020
0000
0000
0100
,
0100
0000
0032
0000
1003
0000
0010
0010
,
0100
0000
0001
0000
0010
0000
0100
0000
1000
0000
0000
0000
0020
0000
0000
0100
,
0100
0000
2030
0000
3001
0000
0010
0100
,
0010
0100
1000
0001
0100
0010
2000
0000
,
3002
2003
3002
0010
,
0010
0000
0013
0000
0100
1000
0001
0100
,
0000
1000
0100
0001
0010
0001
1000
0010
,
0000
0001
0010
0100
0001
1000
0100
0010
,
0000
0001
1000
0010
0100
0010
1000
0001
,
0000
1000
0100
0010
0001
0100
0010
1000
,
0000
0001
1000
1000
0100
0001
0100
0010
,
0000
0001
1000
0010
0100
0001
1000
0000
,
0100
0010
0001
1000
0020
0000
0230
0000
,
0302
0000
2003
0000
3100
0010
0001
1000
,
0000
0001
0100
0010
1000
0100
0001
0100
,
0000
0010
0001
0100
0000
1000
0100
0001
,
0000
0010
0100
1000
0001
0100
0010
0200
,
0000
0001
0301
0000
1000
0010
1000
0010
,
0100
0001
0100
0001
1000
0001
0010
0100
,
1000
0000
0000
0001
0000
0000
0100
0000
0020
0000
0000
0000
1000
0000
0000
0000
,
1000
1030
2010
3001
,
0012
1003
2001
3100
,
0010
0001
0010
0001
0000
1000
0010
2000
,
0000
3002
0000
0013
0100
0000
0100
0000
,
1000
0001
1000
0010
0000
0100
0001
0100
,
0000
0020
0000
1030
1002
0000
0013
0000
,
0100
1000
0100
1000
0000
0001
0100
0002
,
0000
0203
0000
0310
1000
0001
1000
0001
,
0010
0100
0010
0100
1000
0001
0100
0010
,
1000
0100
0010
0001
0200
0000
0000
0000
,
0000
0000
0000
0000
,
0000
0000
0300
0000
;

//--------------- dance-single - eataninja ----------------
#NOTES:
     dance-single:
     eataninja:
     Hard:
     16:
     0,0,0,0,0:
0000
0000
0000
0000
,
0000
0000
0000
0000
,
0000
0000
0000
0000
,
0000
0000
0000
0000
,
0000
0000
0000
0000
,
0000
0000
0000
0000
,
0000
0000
0000
0000
,
0000
0000
0000
0000
,
1010
0000
1000
0000
0001
0010
0100
1000
,
0000
0010
0100
0020
0000
2030
0000
3001
,
0010
0000
0110
0000
1000
0001
1000
0001
,
0000
0100
0010
1000
0000
0002
0000
0013
,
0011
0000
0001
0000
1000
0010
0100
0001
,
0000
0010
0100
0020
0000
0032
0000
1003
,
0010
0000
0110
0000
0001
1000
0001
1000
,
0000
0000
0100
0000
0010
0000
0001
0000
1000
0010
1000
0000
0010
1000
0010
0000
,
0100
0010
0110
0000
1000
0001
1000
0001
,
0010
0100
1000
0001
0100
0010
1000
0000
,
0001
0010
0011
0000
1000
0001
0100
0010
,
1000
0001
0010
0100
0001
0100
1000
0000
,
0001
0100
0101
0000
1000
0010
0100
0010
,
1000
0001
0010
0100
1000
0001
0100
0000
,
0010
0100
0110
0000
1000
0001
1000
0001
,
0010
0000
0100
0000
1000
0000
0001
0000
0100
0001
0100
0000
0001
0100
0001
0000
,
0010
0000
0110
0000
1000
0001
0010
0001
,
0000
0100
1000
0200
0000
0310
1000
0001
,
0010
0000
0110
0000
0001
1000
0010
0100
,
0000
0001
1000
0100
0000
0010
0001
1000
,
1010
0000
0010
0100
0001
1000
0001
0010
,
0110
0100
1000
0001
1001
1000
0010
0100
,
0110
0000
0100
0001
1000
0100
0010
0001
,
1001
1000
0010
0100
0110
0010
1000
0001
,
0011
0000
0001
0010
1000
0010
0100
1000
,
1100
0100
0010
0001
0101
0100
0010
1000
,
1001
0000
0001
0010
1000
0010
0100
1000
,
0001
0100
0001
0000
1000
0001
1000
0000
0100
1000
0100
0000
0010
0100
0010
0000
,
0002
0000
0010
0000
1000
1000
0103
0000
,
0010
0000
1000
0000
0001
0000
0010
0100
0010
0100
1000
0000
0001
0000
0100
0010
,
2000
0000
0010
0000
0001
0001
3100
0000
,
0001
0000
1000
0000
0100
0000
0010
0001
0010
0001
1000
0000
0010
0000
0100
0000
,
0002
2003
3200
0320
,
0032
0000
2003
0000
3001
0000
1100
0100
,
1000
0100
0010
0001
0010
0001
1000
0010
,
1000
0001
0100
0010
0100
0001
1000
0100
,
0010
0001
1000
0010
1000
0010
0100
0001
,
1000
0001
0010
0100
1000
0001
1001
1000
,
0010
0001
0010
0100
0001
1000
0100
0001
,
0100
0010
0001
1000
0010
1000
1001
0001
,
0010
0100
1000
0001
1000
0010
0110
0100
,
0001
0000
1000
0000
0100
0010
0001
0000
1000
0000
0010
0000
0110
0000
0100
0000
,
0001
1000
0100
0010
0001
1000
0001
0100
,
0010
0100
0001
0010
0100
1000
1001
0001
,
0100
1000
0100
0010
1000
0001
0010
0100
,
1000
0000
0001
0000
0100
0000
0010
0000
1000
0000
0000
0000
0001
0000
0010
0001
,
0010
0000
0001
0000
1000
0000
0010
1000
0010
0000
0100
0000
0001
0000
0010
0000
,
0100
0000
1000
0000
0001
0000
0000
0100
0000
0000
0001
0000
2001
0000
0000
0000
,
0001
0000
0000
0000
0001
0000
0000
0000
3001
0000
0000
0000
1000
0010
1000
0000
,
0001
0100
0001
0000
1000
0001
1000
0000
0001
0010
0001
0000
0020
0000
0000
0000
,
0100
0100
0130
2000
,
0001
0001
3001
0200
,
0010
0001
0310
2000
,
0001
0000
0100
0000
3001
0000
0010
0100
,
1000
0000
0001
0100
0010
0000
1000
0010
,
0001
0010
1000
0100
0010
0000
1000
0010
,
0001
0000
0100
0010
0100
0000
1000
0100
,
0001
0000
0000
0000
1000
0001
1000
0000
0001
1000
0001
0000
0010
0000
0100
0000
,
1100
0000
1000
0001
1000
0001
0100
0010
,
1000
0010
0100
0001
0010
0100
1000
0001
,
0011
0000
0000
0000
0001
0000
1000
0000
0001
0000
1000
0000
0010
0100
0010
0000
,
0100
0001
0100
0000
0001
1000
0001
0000
1000
0000
0000
0000
0002
0000
0000
0000
,
0100
0000
1000
1000
0013
0000
0001
1000
,
0010
0000
0100
0001
0100
0001
1000
0000
0100
0000
0000
0000
2000
0000
0000
0000
,
0010
0000
0001
0001
3100
0000
0010
0001
,
1000
0000
0010
0100
0010
0100
0001
0000
1000
0000
0100
0000
0020
0000
0000
0000
,
0032
2003
3002
0203
,
0320
0000
1030
0000
1001
0001
0010
0100
,
1000
0001
0100
0010
0110
0100
0001
1000
,
0100
0010
0001
1000
1010
0010
0001
0010
,
0100
0001
1000
0001
0011
0010
0100
0001
,
0100
1000
0001
0100
0101
0001
1000
0010
,
0100
0010
1000
0001
0011
0010
0100
1000
,
0001
0100
0001
0100
0110
0010
1000
0001
,
0010
1000
0010
0100
1000
0001
1000
0001
,
0100
0010
1000
0000
0001
0000
0010
0000
0011
0000
1000
0000
0001
0000
0100
0000
,
0010
1000
0100
0010
0110
0001
1000
0010
,
0001
0010
0100
0001
0101
1000
0001
0010
,
1000
0010
0100
1000
1100
0001
0100
0010
,
1000
0000
0001
0000
0010
0000
0000
0000
0100
0010
0001
0000
1000
0100
0010
0000
,
0001
1000
0001
0000
1000
0010
1000
0000
0001
0100
0010
0000
1000
0010
0100
0000
,
0001
0000
0000
1000
0000
0000
0001
0000
0021
0000
0000
0000
0100
0000
0000
0000
,
0100
0000
0000
0000
0130
0000
0000
0000
1000
0001
1000
0001
1000
0001
1000
0000
,
0001
0100
0001
0100
0001
0100
0001
0000
1000
0000
0000
0000
0010
0000
0100
0000
,
0001
1000
0100
1000
0001
0100
1000
0100
,
0010
1000
0100
0010
0001
0000
1000
0100
,
0010
0001
1000
0001
0100
1000
0100
0001
,
0010
0100
1100
1000
1001
0000
0001
0100
,
0001
0100
0010
1000
0100
0001
0100
0010
,
0001
0000
1000
0000
0001
0000
0100
0000
0010
0100
0010
0000
1000
0000
0001
0000
,
0010
0100
0010
0000
0100
0000
1000
0000
0001
0100
0001
0000
1000
0010
1000
0000
,
0001
1000
0001
0000
1000
0100
1000
0000
0200
0000
0000
0000
0000
0000
0000
0000
,
0000
0000
0000
0000
,
0000
0000
0300
0000
;

//--------------- dance-single - eataninja ----------------
#NOTES:
     dance-single:
     eataninja:
     Challenge:
     18:
     0,0,0,0,0:
0000
0000
0000
0000
,
0000
0000
0000
0000
,
0000
0000
0000
0000
,
0000
0000
0000
0000
,
0000
0000
0000
0000
,
0000
0000
0000
0000
,
0000
0000
0000
0000
,
0000
0000
0000
0000
0000
0000
0000
0000
0001
0010
0001
0010
0100
1000
0100
1000
,
0001
1000
0010
0100
0010
1000
0001
0010
,
0100
1000
0001
1000
0010
0100
0001
0001
,
1000
0010
1000
0001
0010
0100
1000
0001
,
0100
0010
0100
0001
1000
0100
0010
0001
,
1001
1000
0001
0010
0100
1000
0001
1000
,
0010
0100
0001
1000
0100
0010
0001
0001
,
1000
0100
1000
0001
0100
0010
1000
0001
,
0010
0000
0100
0000
0010
0000
0001
0000
1000
0100
1000
0100
0010
0001
0010
0001
,
1000
1000
0001
0001
0010
0100
1000
0020
,
0000
0032
0000
0013
0100
0001
1000
0100
,
0010
0001
0001
1000
0010
0100
0001
2000
,
0000
3100
0001
0100
0010
0001
1000
0010
,
0100
0001
1000
0002
0000
0013
0100
2000
,
0000
3010
0100
1000
0100
0001
1000
1000
,
0001
0010
0100
0100
1000
0001
0100
0010
,
1000
0000
0000
0000
0100
0000
0010
0000
0001
1000
0001
1000
0001
0100
0001
0100
,
0010
1000
1010
0000
1000
0100
0010
0001
,
1000
0001
1000
0010
0100
1000
0100
0001
,
1000
0010
1010
0000
0001
1000
0100
0010
,
0001
1000
0010
0100
0001
1000
0100
0010
,
0001
0000
1000
0001
1000
0000
0100
0000
0010
0000
0001
0000
1000
0000
0020
0000
,
0000
0000
0130
0000
1000
0000
0100
0000
0010
0100
0010
0000
2000
0000
0000
0000
,
3001
0000
0010
0001
0010
0000
0100
0000
1000
0000
0001
0000
0100
0000
0020
0000
,
0000
0000
0031
0000
0010
0000
1000
0000
1000
0000
0001
0000
0010
0100
1000
0000
,
0001
0000
0100
0010
0100
0000
0001
0000
1000
0000
0100
0000
0010
0000
0002
0000
,
0000
0000
0103
0000
0010
0000
0010
0000
1000
0001
1000
0000
0001
0010
0100
0000
,
1000
0001
0001
1000
0010
0010
0100
0001
,
1000
0001
1000
0000
0001
0010
0001
0000
1000
0010
1000
0010
0100
0001
0100
0001
,
2000
0000
0000
0001
3001
0000
0010
1000
0010
0001
0010
0000
0110
0000
0000
0000
,
0001
0000
1000
0010
0000
0010
0100
0001
2000
0000
0000
0100
3001
0000
0000
0000
,
0002
0000
0000
1000
1003
0000
0010
0001
0010
1000
0010
0000
0110
0000
0000
0000
,
0001
0000
1000
0100
0000
0100
0010
0001
2000
0000
0000
3010
0200
0000
0302
0000
,
2003
3002
0023
0032
,
1003
0010
1000
0010
0100
0010
0100
0010
1000
0000
0000
0000
0001
0000
1000
0000
,
0100
0000
0001
0000
0100
0010
0100
0000
1000
0100
1000
0000
0001
0000
1000
0000
,
0010
0000
0001
0000
0010
0100
0010
0000
0100
0001
0100
0000
0001
0000
0010
0000
,
0100
0000
0001
0000
0100
0010
0100
0000
1000
0001
1000
0000
0001
0000
1000
0000
,
0010
0000
0001
0000
0010
0100
0010
0000
1000
0001
1000
0000
0001
0000
0010
0000
,
0100
0000
1000
0000
0001
0100
0001
0000
1000
0010
1000
0000
0001
0000
0100
0000
,
1000
0000
0100
0000
0010
0100
0010
0000
1000
0001
1000
0000
0001
0000
0010
0000
,
0100
0000
1000
0000
0010
0000
0100
0000
0010
0000
1000
0000
0001
0100
0001
0100
,
0010
1000
0010
1000
0001
0010
0100
1000
0001
1000
0010
0100
0001
0000
1000
0010
,
1000
0000
0001
0000
0010
0100
1000
0000
0001
1000
0100
0000
0010
0000
0001
1000
,
0010
0000
0001
0000
0010
0100
0010
0000
1000
0001
0100
0000
0001
0000
0010
1000
,
0010
0000
0100
0000
0010
0001
1000
0000
0001
1000
0001
0000
0010
0000
0100
1000
,
0001
0000
0100
0000
1000
0100
1000
0000
0100
0010
0100
0000
0001
0000
0010
0000
,
0100
0000
1000
0000
0010
0000
0100
0010
1000
0000
0001
0000
1000
0100
1000
0000
,
0001
0010
0001
0000
1000
0010
1000
0000
0001
0100
0001
0000
0100
0000
1000
0000
,
0100
0000
1000
0000
0100
0000
0010
0000
0100
0000
0010
0000
1000
0001
1000
0001
,
0010
0001
0010
0001
1000
0100
1000
0100
1000
0001
1000
0001
0200
0000
0000
0000
,
0010
0001
0310
2000
,
0100
0001
3010
0200
,
0010
1000
0301
0020
,
0230
0000
2300
0000
3001
0000
1000
0010
,
0100
0010
1000
0001
0100
0001
0010
1000
,
0010
0100
1000
0001
0100
0010
1000
0001
,
0100
0001
0010
0100
1000
0001
0100
0010
,
0100
0000
0001
0000
1000
0010
1000
0010
0100
0001
0100
0001
1000
0000
1000
0000
,
0001
1000
0100
0010
0001
1000
0010
1000
,
0001
0100
0010
1000
0001
0010
0001
0001
,
1000
0000
0001
0000
0010
0000
0100
0000
1000
0000
0001
0000
1000
0010
1000
0010
,
0100
0010
0100
0010
1000
0001
1000
0001
0010
0000
0000
0000
1002
0000
0000
1000
,
1003
0000
0100
0001
0100
1000
0100
0000
0110
0000
0000
0000
1000
1000
0001
0100
,
0000
0100
0010
1000
0002
0000
0000
0010
1003
0000
0000
0000
2000
0000
0000
0001
,
3001
0000
0100
1000
0100
0001
0100
0000
0110
0000
0000
0000
1000
0000
0001
0010
,
0000
0000
0000
0010
0000
0000
0100
0000
0000
1000
0000
0000
0002
0000
0000
0000
0000
0000
0000
0000
0000
0000
0000
0000
1003
0000
0000
0000
0001
0000
0000
0000
0100
0000
0000
0000
0020
0000
0000
0000
0000
0000
0000
0000
0000
0000
0000
0000
,
2030
0000
0000
0000
3002
0000
0000
0000
0203
0000
0000
0000
0301
1000
0001
1000
,
0100
0010
0100
0010
0001
0000
0000
0000
1000
0000
0010
0100
0001
0000
1000
0000
,
0001
0010
0001
0000
1000
0100
0010
0000
0001
0000
1000
0010
1000
0000
0001
0000
,
0100
1000
0100
0000
0010
0100
0001
0000
1000
0000
0100
0010
0001
0000
0100
0000
,
0010
0100
1000
0000
0100
0010
1000
0000
0001
0000
1000
0100
0010
0000
0001
0000
,
0010
0100
0010
0000
0001
1000
0010
0000
0100
0000
0001
1000
0100
0000
0010
0000
,
0001
0010
0001
0000
1000
0100
0010
0000
0001
0000
0100
1000
0100
0000
0010
0000
,
1000
0001
0100
0000
0010
1000
0001
0000
0010
0000
0100
1000
0001
0000
0100
0000
,
0001
0001
1000
0100
0010
0001
1000
0010
,
0100
0010
0100
0010
1000
0010
1000
0010
0100
0000
0001
1000
0100
0000
0010
0000
,
0001
1000
0010
0001
0010
0100
0001
1000
,
0001
0010
0001
0010
0100
1000
0001
1000
0100
0000
0001
0100
0010
0000
0001
0000
,
1000
0001
0001
0100
0010
1000
0001
0010
,
0100
0010
0100
0010
0001
1000
0001
1000
0001
0010
0001
0010
0100
1000
0100
1000
,
0001
0100
0001
0100
0010
1000
0010
1000
0001
0100
0010
1000
0001
0010
0100
1000
,
0001
0000
0000
0000
1001
0000
0000
0000
1100
0000
0000
0000
0001
0000
0000
0100
0000
0000
0010
0000
0000
1000
0000
0000
,
0001
0000
1000
0000
0100
0000
0010
0000
0001
1000
0001
1000
0010
1000
0010
1000
,
0001
0010
0100
1000
0001
1000
0001
1000
0010
0000
0100
0000
0001
0000
0000
0000
,
1000
0010
1000
0010
0100
1000
0100
0001
,
0010
0000
0100
0010
0100
0000
1000
0000
0001
0000
1000
0000
0010
0000
0000
0000
,
0100
0001
1000
0001
0010
1000
0010
0100
,
1000
0000
0001
0010
0001
0000
1000
0000
0010
0000
0100
0000
0001
0000
0000
0000
,
1000
0010
0001
0010
0100
0001
1000
0100
,
0010
0000
0001
1000
0001
0000
0100
0000
0010
1000
0010
1000
0001
0010
0100
1000
,
0001
0100
0001
0100
0010
1000
0001
0010
0100
1000
0100
0000
1000
0001
1000
0000
,
0001
0100
0010
1000
0001
0010
0100
1000
0002
0000
0000
0000
0000
0000
0000
0000
,
0000
0000
0000
0000
,
0000
0000
0003
0000
;
