#TITLE:Kruel Kreator;
#SUBTITLE:;
#ARTIST:トップハムハット狂 (TOPHAMHAT-KYO);
#TITLETRANSLIT:;
#SUBTITLETRANSLIT:;
#ARTISTTRANSLIT:;
#GENRE:;
#CREDIT:;
#BANNER:Kruel Kreator.png;
#BACKGROUND:Kruel Kreator-bg.png;
#LYRICSPATH:;
#CDTITLE:CDtitle.png;
#MUSIC:Kruel Kreator.ogg;
#OFFSET:-0.018000;
#SAMPLESTART:51.116001;
#SAMPLELENGTH:24.774000;
#SELECTABLE:YES;
#BPMS:0.000000=155.000000
,261.000000=77.500000
;
#STOPS:260.000000=1.161000
;
#BGCHANGES:0.000=Kruel Kreator.mp4=1.000=1=0=0=StretchNoLoop==CrossFade==,
99999=-nosongbg-=1.000=0=0=0 // don't automatically add -songbackground-
;
#KEYSOUNDS:;
#ATTACKS:;

//---------------dance-single - Pandemonium X----------------
#NOTES:
     dance-single:
     :
     Beginner:
     6:
     0.210861,0.314044,0.116528,0.023306,0.000000,190.000000,175.000000,15.000000,3.000000,0.000000,0.000000,0.210861,0.314044,0.116528,0.023306,0.000000,190.000000,175.000000,15.000000,3.000000,0.000000,0.000000:
// measure 0
0000
0000
0000
0000
,  // measure 1
0000
0000
0000
0000
,  // measure 2
0000
0000
0000
0000
,  // measure 3
0000
0000
0000
0000
,  // measure 4
0001
0000
0110
0000
,  // measure 5
1000
0000
0110
0000
,  // measure 6
0001
0000
1000
0001
,  // measure 7
0020
0000
0030
0000
,  // measure 8
0100
0100
0100
0000
,  // measure 9
0010
0010
0010
0000
,  // measure 10
0001
0001
0001
0000
,  // measure 11
1000
1000
1000
0000
,  // measure 12
0001
0001
0001
0000
,  // measure 13
1000
1000
1000
0000
,  // measure 14
0010
0000
0100
0000
,  // measure 15
0010
1000
0100
0000
,  // measure 16
0010
0000
0000
0001
0000
0000
0000
0000
,  // measure 17
1000
0000
0000
0001
0000
0000
0100
0000
,  // measure 18
0000
0010
0000
0000
1000
0000
0000
0000
,  // measure 19
0001
0000
1000
0000
,  // measure 20
0010
0100
0010
0000
,  // measure 21
1000
0001
1000
0000
,  // measure 22
0001
0000
1000
0000
,  // measure 23
0001
0001
0001
0000
,  // measure 24
1100
0000
0101
0000
,  // measure 25
0001
1000
0001
0000
,  // measure 26
0100
0000
0010
0000
,  // measure 27
0100
0001
0010
0000
,  // measure 28
0011
0000
1010
0000
,  // measure 29
0011
0001
0001
0000
,  // measure 30
1000
0000
0001
0000
,  // measure 31
0010
0000
0100
0000
,  // measure 32
0000
0000
0000
0000
,  // measure 33
1000
0000
0001
0000
,  // measure 34
0100
0000
0001
0000
,  // measure 35
1000
0000
0100
0000
,  // measure 36
1000
0100
0010
0001
,  // measure 37
1000
0000
0001
0000
,  // measure 38
0010
0000
0001
0000
,  // measure 39
1001
0000
0000
0000
,  // measure 40
0110
0000
0000
0000
,  // measure 41
0001
0000
0100
0000
,  // measure 42
1000
0100
0001
0000
,  // measure 43
1000
0000
0100
0000
,  // measure 44
0001
0100
1000
0000
,  // measure 45
0001
0000
1000
0000
,  // measure 46
0010
0100
0010
0000
,  // measure 47
1001
0000
0110
0000
,  // measure 48
1001
1001
1001
0000
,  // measure 49
0010
0010
0010
0000
,  // measure 50
1000
0000
0001
0000
,  // measure 51
0010
0010
0010
0000
,  // measure 52
0100
0000
0010
0000
,  // measure 53
0001
0000
1000
0000
,  // measure 54
0010
0000
0000
0000
,  // measure 55
1000
0000
0001
0000
,  // measure 56
0100
0000
0000
0000
,  // measure 57
0001
0000
0010
0010
,  // measure 58
0000
0000
0100
0100
,  // measure 59
0000
0000
1000
1000
,  // measure 60
0000
0000
0001
0001
,  // measure 61
1000
0000
0001
0000
,  // measure 62
0100
0000
0010
0000
,  // measure 63
0100
0000
0001
0000
,  // measure 64
1000
0001
1000
0000
,  // measure 65
0000
0001
0001
1000
,  // measure 66
0000
0010
0010
0100
,  // measure 67
0000
0000
2002
0000
3003
0000
0001
0001
,  // measure 68
0001
0000
1000
0000
0010
0000
0100
0100
,  // measure 69
0100
0010
1000
0001
,  // measure 70
0001
1000
0010
0100
,  // measure 71
0100
0000
0010
0000
1000
0000
0001
1000
,  // measure 72
0001
1000
0001
0100
,  // measure 73
0010
0000
1000
0001
1000
0000
0000
0000
;

//---------------dance-single - Pandemonium X----------------
#NOTES:
     dance-single:
     :
     Easy:
     11:
     0.431710,0.599539,0.419502,0.225288,0.038843,389.000000,335.000000,54.000000,29.000000,0.000000,0.000000,0.431710,0.599539,0.419502,0.225288,0.038843,389.000000,335.000000,54.000000,29.000000,0.000000,0.000000:
// measure 0
0000
0000
0000
0000
,  // measure 1
0000
0000
0000
0000
,  // measure 2
0000
0000
0000
0000
,  // measure 3
0000
0000
0000
0000
,  // measure 4
0001
0000
0100
0000
1020
0000
1030
0100
,  // measure 5
0010
0000
0001
0000
0102
0000
0013
0100
,  // measure 6
1000
0001
0010
0100
,  // measure 7
2002
0000
3003
0000
,  // measure 8
1000
0000
0010
1000
0010
0000
0100
0000
,  // measure 9
0001
0000
0010
0001
0010
0000
0011
0000
,  // measure 10
0001
0000
0100
0010
0100
0000
0010
0000
,  // measure 11
1000
0000
0001
1000
0001
0000
1000
0000
,  // measure 12
0101
1100
1001
1001
,  // measure 13
1010
0011
1001
1001
,  // measure 14
0001
1000
0010
0100
,  // measure 15
0001
0010
0100
1000
0010
0000
0000
0000
,  // measure 16
0110
0000
0000
0101
0000
0000
0000
0000
,  // measure 17
0011
0000
0000
1100
0000
0000
1001
0000
,  // measure 18
0000
0101
0000
0000
1010
0000
0000
1000
,  // measure 19
0001
0100
0010
0000
0100
0010
0100
0000
,  // measure 20
0010
1000
1100
0011
,  // measure 21
0001
0010
0011
1100
,  // measure 22
0001
0100
0001
1000
,  // measure 23
0001
0010
0100
1000
0001
0010
0100
1000
,  // measure 24
0001
0100
0001
0000
1000
0100
1000
0000
,  // measure 25
0001
0100
0001
1000
0100
0000
0000
0000
,  // measure 26
0010
0001
0100
0010
,  // measure 27
1000
0001
0010
0000
,  // measure 28
0001
0010
0001
0000
1000
0010
1000
0000
,  // measure 29
0001
0010
0001
1000
0010
0000
0000
0100
,  // measure 30
0010
1000
0001
0010
,  // measure 31
0200
0000
0000
0320
0200
0000
0000
0000
,  // measure 32
0330
0000
0000
1000
0001
1000
0001
0000
0000
0110
0000
0000
,  // measure 33
1001
0110
1010
0101
,  // measure 34
1010
0101
1010
0101
,  // measure 35
0110
1001
1100
0011
,  // measure 36
1000
0000
0100
1000
0010
0000
0100
0001
,  // measure 37
1001
0110
1010
0101
,  // measure 38
1010
0101
1010
0101
,  // measure 39
2000
0000
0000
3001
0000
1000
0001
0100
,  // measure 40
0020
0000
0000
0200
0000
0000
0330
0000
,  // measure 41
0001
0100
1000
0100
,  // measure 42
0001
0010
0100
1000
0001
0000
0000
0000
,  // measure 43
1000
0010
0001
0010
,  // measure 44
1000
0100
0010
0001
1000
0000
0000
0000
,  // measure 45
0001
0010
1000
0010
,  // measure 46
0001
0010
0100
1000
0001
0000
0100
0000
,  // measure 47
2002
3003
0010
0000
2002
0000
3003
0000
,  // measure 48
0101
1100
2002
3003
,  // measure 49
0002
2003
3002
1003
,  // measure 50
0001
0100
0010
1000
,  // measure 51
0020
0230
0320
0130
,  // measure 52
0001
1000
0100
0010
,  // measure 53
0100
1000
0010
0100
,  // measure 54
0001
0010
0100
1100
,  // measure 55
0100
1000
0010
0100
,  // measure 56
0001
1000
0001
0011
,  // measure 57
0001
0000
0100
0000
0010
0100
0010
0000
,  // measure 58
0100
0000
0001
0000
1000
0100
1000
0000
,  // measure 59
0100
0000
0010
0000
0001
0010
0001
0000
,  // measure 60
0100
0000
0010
0000
0100
0100
0100
0000
,  // measure 61
0010
0000
1000
0001
0010
0000
0100
0000
,  // measure 62
0010
0000
0001
0010
0100
0000
1000
0000
,  // measure 63
0011
0000
0001
0100
0010
0000
0100
0000
,  // measure 64
0010
0000
1000
0001
0010
0000
0100
0000
,  // measure 65
1001
0000
0000
0000
1000
0000
0100
0000
0010
0000
0001
0000
1000
0001
0100
0000
,  // measure 66
0001
1000
0100
0000
0010
0000
0001
0000
0100
0000
0010
0000
1000
0000
0001
0100
,  // measure 67
0001
0100
2002
0000
3003
0000
0001
1000
,  // measure 68
0010
0000
1000
0000
0100
0000
0010
0000
0001
1000
0001
0100
0001
0010
0100
1000
,  // measure 69
0020
0000
0130
0001
0010
0100
2000
0000
,  // measure 70
3002
0000
1003
0100
0010
0001
2000
0000
,  // measure 71
3002
0000
1003
0010
0100
0001
0010
0100
,  // measure 72
0010
0001
0100
0010
1000
1000
1000
1000
,  // measure 73
1000
0000
0001
0000
1000
0000
0001
0100
0001
0000
0000
0000
0000
0000
0000
0000
;

//---------------dance-single - Pandemonium X----------------
#NOTES:
     dance-single:
     :
     Medium:
     13:
     0.548238,0.942132,0.279668,0.372891,0.256362,494.000000,458.000000,36.000000,48.000000,0.000000,0.000000,0.548238,0.942132,0.279668,0.372891,0.256362,494.000000,458.000000,36.000000,48.000000,0.000000,0.000000:
// measure 0
0000
0000
0000
0000
,  // measure 1
0000
0000
0000
0000
,  // measure 2
0000
0000
0000
0000
,  // measure 3
0000
0000
0000
0000
0000
0000
0000
1000
,  // measure 4
0001
0100
0001
0100
0101
0000
1001
0000
,  // measure 5
1000
0100
1000
0100
1100
0000
1001
0000
,  // measure 6
0001
0100
0010
0000
0100
0010
1000
0000
,  // measure 7
2002
0000
3003
0000
,  // measure 8
0001
0100
0010
1000
0100
0000
0110
0000
,  // measure 9
0100
0010
0001
1000
0010
0000
0101
0000
,  // measure 10
0001
1000
0010
1000
0100
0000
1100
0000
,  // measure 11
1000
0100
0010
0100
1000
0000
0011
0000
,  // measure 12
0001
1000
0001
1000
0001
1000
0001
0000
0000
0100
0000
0000
,  // measure 13
0010
0100
0010
0100
0010
0100
0010
0000
0000
1000
0000
0000
,  // measure 14
0000
0001
0100
0001
1000
0100
0010
0001
,  // measure 15
1000
1000
0001
0001
0200
0000
0000
0000
,  // measure 16
0310
0000
1000
1100
0000
0100
0010
0001
,  // measure 17
0011
0000
0001
0101
0000
0100
0110
0000
,  // measure 18
0010
1010
0000
1000
1001
0000
0110
0000
,  // measure 19
0001
0001
1000
0000
0010
0010
0100
0000
,  // measure 20
0002
0203
0310
1001
,  // measure 21
2000
3200
0310
1001
,  // measure 22
1000
0001
1000
0000
0010
0100
0010
0000
,  // measure 23
1000
0100
0100
0010
0010
0001
0001
0000
,  // measure 24
1000
0001
0101
0000
0001
1000
1100
0000
,  // measure 25
1000
0100
0010
0001
1000
0000
0000
0001
,  // measure 26
0200
0000
0302
0000
0023
0000
0130
0010
,  // measure 27
0001
1000
0010
1000
0001
0000
0000
0000
,  // measure 28
1000
0001
0011
0000
0001
1000
1010
0000
,  // measure 29
1000
0001
0010
0100
1000
0000
0000
0100
,  // measure 30
1000
0010
0100
0001
0010
1000
0010
0001
,  // measure 31
2000
0000
0000
0001
0002
0000
0000
0000
,  // measure 32
3003
0000
0000
1000
0010
0100
0001
0000
0000
1001
0000
0000
,  // measure 33
0001
0100
0010
1000
1020
0000
0130
0000
,  // measure 34
1020
0130
1020
0130
,  // measure 35
0001
0100
0001
1000
1200
0000
0310
0000
,  // measure 36
0100
0000
1000
0000
0001
1000
0001
0000
0100
0000
0010
0000
1000
0001
1000
0000
,  // measure 37
0001
0010
0001
0100
0210
0000
0301
0000
,  // measure 38
0210
0301
0210
0301
,  // measure 39
2000
0000
3001
0200
0000
0301
1000
0001
,  // measure 40
2000
0000
3001
0020
0000
0130
0100
0100
,  // measure 41
1000
0000
0100
1000
0100
0000
1000
0000
0001
0000
0000
0000
0100
0000
0001
0000
,  // measure 42
0010
0100
0010
0001
1000
0000
0000
0000
,  // measure 43
0001
0000
0100
0001
0100
0000
0001
0000
1000
0000
0000
0000
0010
0000
1000
0000
,  // measure 44
0001
0010
0100
1000
1001
0000
0000
0000
,  // measure 45
1000
0000
0001
0100
0001
0000
1000
0000
0010
0000
0000
0000
0100
0000
0010
0000
,  // measure 46
1000
0000
0100
1000
0100
0000
0010
0000
0001
0000
0000
0000
1000
0001
1000
0000
,  // measure 47
2002
0000
3003
0000
0001
1000
0001
0000
2002
0000
0000
0000
3003
0000
0000
0000
,  // measure 48
0001
0001
1000
0010
0010
0100
0002
0000
0000
0000
0000
0000
,  // measure 49
1003
0000
0000
0001
0100
0000
0000
0010
0100
0000
0000
0000
0010
0000
1000
0000
,  // measure 50
0001
0010
0100
0010
0001
1000
0010
0000
,  // measure 51
1000
0000
0000
0001
1000
0000
0000
0100
0010
0000
0000
0000
0200
0000
0000
0000
,  // measure 52
0310
0000
0010
0100
0000
0100
1000
0000
1000
0001
0000
0000
,  // measure 53
1000
0010
0100
0010
1000
0010
0100
0010
,  // measure 54
1000
0000
0000
0001
0000
0000
0010
0000
0000
0100
0000
0000
1000
0000
0000
0000
,  // measure 55
0001
0100
0010
0100
0001
0100
0010
0100
,  // measure 56
0001
0000
0000
1000
0000
0000
0100
0000
0000
0020
0000
0000
0032
0000
0000
0000
,  // measure 57
1003
0000
0001
0000
0100
0100
0100
0000
,  // measure 58
0010
0000
1000
0000
0010
0010
0010
0000
,  // measure 59
0100
0000
0001
0000
0010
0010
0010
0000
,  // measure 60
0100
0000
0010
0000
0100
0100
0100
0000
,  // measure 61
0010
0001
0100
0000
0010
1000
0001
0000
,  // measure 62
1000
0100
0001
0100
1000
0001
0100
0000
,  // measure 63
0101
0000
0001
0010
1000
0000
0010
0000
,  // measure 64
0001
0010
0100
1000
0001
0010
0100
1000
,  // measure 65
0010
0000
0000
0000
0000
0000
0000
0000
1001
0000
0000
0000
0001
0100
0000
0000
0100
0010
0000
0000
0010
1000
0000
0000
0001
0000
0000
0000
1000
0000
0100
0000
,  // measure 66
1000
0000
0000
0000
0100
0000
0000
0000
1000
0000
0000
0000
1000
0100
0000
0000
0100
0010
0000
0000
0010
0001
0000
0000
1000
0000
0000
0000
0001
0000
0100
0000
,  // measure 67
0010
0000
1000
0000
0202
0000
0000
0000
0303
0000
0000
0000
0001
1000
0010
1000
,  // measure 68
0001
0000
1000
0100
0001
0100
1000
0010
0001
0010
1000
0010
0100
0001
0010
0100
,  // measure 69
2000
0000
3002
0203
0320
2030
3002
0000
,  // measure 70
2000
0003
3200
0320
0032
2003
3002
0000
,  // measure 71
2003
0000
0000
0000
3001
0100
0001
0000
1000
0010
1000
0000
0100
1000
0100
0000
,  // measure 72
0010
0000
0000
0001
0000
0000
0010
0000
0000
0000
0000
0000
0001
0000
0000
0000
0000
0000
1000
0000
0000
0000
0000
0000
0001
0000
0100
0000
0001
0000
0100
0000
0010
0000
0100
0000
0010
0000
1000
0000
0010
0000
1000
0000
0001
0000
1000
0000
,  // measure 73
0010
1000
0010
0100
0001
0020
0200
0000
0000
0030
0000
0000
0300
0000
0000
0000
0000
0000
0000
0000
0000
0000
0000
0000
;

//---------------dance-single - Pandemonium X----------------
#NOTES:
     dance-single:
     :
     Hard:
     17:
     0.749111,1.113429,0.466114,0.652559,0.757434,675.000000,615.000000,60.000000,84.000000,20.000000,0.000000,0.749111,1.113429,0.466114,0.652559,0.757434,675.000000,615.000000,60.000000,84.000000,20.000000,0.000000:
// measure 0
0000
0000
0000
0000
,  // measure 1
0000
0000
0000
0000
,  // measure 2
0000
0000
0000
0000
,  // measure 3
0000
0000
0000
0000
0000
0000
0000
0001
,  // measure 4
1000
0001
0010
0001
0201
0000
0301
1000
,  // measure 5
0100
0000
0010
0000
0100
0000
1000
0000
1010
0000
1000
0010
1000
0001
1000
0001
,  // measure 6
0010
0000
0000
0000
0100
0000
0100
0000
0010
0000
0000
0010
0000
0000
0100
0000
,  // measure 7
2000
0000
0000
0000
0002
3000
0003
0000
,  // measure 8
1000
0000
0010
0000
0100
0001
0100
0001
0010
0000
0000
0000
0100
0000
0010
0001
,  // measure 9
1000
0000
0010
0000
1000
0100
1000
0100
0010
0000
0000
0000
1001
0000
0000
0000
,  // measure 10
0001
0000
0010
0000
0100
0010
0100
0010
0001
0000
0000
0000
0100
0000
0010
0000
,  // measure 11
1000
0000
0100
0000
0010
0100
0010
0100
1000
0000
0000
0000
1001
0000
0000
0000
,  // measure 12
0001
0010
001M
1000
0010
M010
0001
0010
0100
1000
0001
1000
,  // measure 13
0100
M100
0001
0100
010M
1000
0001
1000
0001
0101
0000
0000
,  // measure 14
1000
0000
0100
0000
0010
0000
0001
0000
1000
0010
0100
0010
1000
0000
0001
0000
,  // measure 15
0020
0032
0023
0230
2000
0000
3300
0000
,  // measure 16
0011
0000
0001
0100
0010
1000
1010
0000
0001
0100
0010
1000
0010
1000
0010
0100
,  // measure 17
0101
0000
0001
0100
0010
1000
1010
0000
1000
0010
0100
0001
0101
0000
1000
0001
,  // measure 18
0010
0100
1100
0000
1000
0100
0010
0001
0011
0000
0010
0100
1000
0000
0001
0000
,  // measure 19
1000
0010
0020
0000
0130
0100
0200
0000
,  // measure 20
0310
0100
0001
0100
0001
0100
0010
0000
0000
1001
0000
0000
,  // measure 21
0001
0010
0001
0010
0001
1000
0001
0000
0000
1010
0000
0000
,  // measure 22
0001
0000
0100
0010
0000
0100
0001
1000
0001
0000
0010
0100
0000
0010
0001
0000
,  // measure 23
1000
0100
2000
0000
3200
0000
0320
0000
0032
0000
2003
0000
3200
0000
0320
0000
,  // measure 24
0031
0000
1000
0001
0000
0000
0100
0000
0000
0000
0000
0000
0001
0000
1000
0001
0000
0000
0100
0000
0000
0000
0000
0000
,  // measure 25
0010
1000
0010
1000
0001
0000
0000
1000
,  // measure 26
1002
0000
0023
0000
0230
0000
0310
0100
,  // measure 27
1000
0100
0010
0100
1100
0000
0000
0000
,  // measure 28
1000
0000
0001
1000
0000
0000
0010
0000
0000
0000
0000
0000
1000
0000
0001
1000
0000
0000
0010
0000
0000
0000
0000
0000
,  // measure 29
1000
0000
0001
1000
0000
0000
0010
0000
0000
0100
0000
0000
0010
0000
0000
0000
0000
0000
0000
0000
0000
1000
0000
0000
,  // measure 30
0100
1000
0010
0100
0001
1000
0100
0010
,  // measure 31
0001
0000
1000
0001
0000
0001
1000
0000
1000
0001
0000
0001
1000
0000
1000
0001
0000
0001
1000
0000
1000
0001
0000
0001
,  // measure 32
1000
0000
0000
0000
0000
0000
0002
0000
0020
0003
0200
0030
2000
0300
0000
0000
0000
0000
3100
0000
0000
0000
0000
0000
,  // measure 33
1001
0001
0010
0100
2002
0003
301M
0000
,  // measure 34
2002
3000
M013
0000
2002
0003
301M
0000
,  // measure 35
0100
0010
0100
0001
2002
0003
301M
0000
,  // measure 36
1000
0100
1000
0000
0001
0100
0001
0000
1000
0010
1000
0000
0001
0010
0001
0000
,  // measure 37
1000
0100
0010
0001
2002
0003
310M
0000
,  // measure 38
2002
3000
M103
0000
2002
0003
310M
0000
,  // measure 39
1002
0000
1003
2001
0000
3100
0010
0001
,  // measure 40
2001
0000
3001
1002
0000
1000
1000
1003
,  // measure 41
0001
0000
1000
0010
0100
0000
0001
0000
2000
0000
0000
0000
3100
0000
0010
0000
,  // measure 42
0001
0000
0010
0100
1000
0000
0001
0000
2002
0000
0000
0000
3003
0000
0000
0000
,  // measure 43
0001
0000
1000
0100
0010
0000
0001
0000
2000
0000
0000
0000
3010
0000
0100
0000
,  // measure 44
0001
0000
0100
0010
1000
0000
0001
0000
2002
0000
0000
0000
3003
0000
0000
0000
,  // measure 45
1000
0000
0001
0100
0010
0000
1000
0000
0002
0000
0000
0000
0013
0000
0100
0000
,  // measure 46
1000
0000
0000
0000
0000
0000
0100
0000
0000
0010
0000
0000
0001
0000
0000
0000
0000
0000
1000
0000
0000
0000
0000
0000
2002
0000
0000
0000
0000
0000
0000
0000
3003
0000
0000
0000
0001
0000
0000
0100
0000
0000
0010
0000
0000
0000
0000
0000
,  // measure 47
2020
0000
3030
0000
1000
0100
0010
0000
0022
0000
0000
0000
0033
0000
0000
0000
,  // measure 48
1001
1001
1001
1001
1001
1001
2002
0000
0000
3003
0000
0000
,  // measure 49
1020
0000
0000
0030
12M0
0000
0000
0300
1M20
0000
0000
0000
1030
0000
0001
0000
,  // measure 50
0010
0000
0010
0000
0100
0000
0010
0000
0010
0000
0001
1000
0001
0000
0100
0000
,  // measure 51
0201
0000
0000
0300
0M21
0000
0000
0030
02M1
0000
0000
0000
0302
0000
0000
0000
,  // measure 52
0013
0100
1000
0100
1000
0010
0100
0010
1000
0001
0000
0000
,  // measure 53
1000
0000
0010
0000
0100
0001
0010
0000
0100
0000
0010
0000
0001
1000
0010
1000
,  // measure 54
0001
0100
0000
0001
0000
1000
0100
0000
0000
0010
0000
0001
1000
0000
0000
0000
,  // measure 55
0001
0100
0001
0100
0001
0000
0010
0000
0100
1000
0100
1000
0100
0000
0010
0000
,  // measure 56
0100
0010
0000
0100
0000
1000
0010
0000
0000
0M00
0000
000M
0M00
0000
0000
0000
,  // measure 57
1001
0000
1000
0010
0100
0000
0100
0000
0110
0000
0110
0000
0110
0000
0000
0010
,  // measure 58
0100
0001
1000
0100
1000
0001
1000
0001
1000
0000
1001
0000
1001
0000
0000
0000
,  // measure 59
1000
0000
1000
0100
0010
0000
0010
0100
1000
0000
0011
0000
1100
0000
0100
1000
,  // measure 60
0010
0000
0100
0001
0010
0000
0001
0000
0011
0000
1100
0000
1001
0000
0000
0000
,  // measure 61
1000
0000
0010
0000
1000
0000
0001
0000
0010
0100
0010
0100
0010
0000
0001
0000
,  // measure 62
1000
0000
0100
0000
1000
0000
0001
0000
0100
0010
0100
0010
0100
0000
0001
0000
,  // measure 63
2000
0000
3010
1000
0001
0100
0010
1000
,  // measure 64
0001
0000
1000
0001
0000
0001
1000
0000
1000
0001
0000
0001
1000
0000
1000
0001
0000
0001
1000
0000
1000
0001
0000
0001
,  // measure 65
1000
0000
0000
0000
0000
0000
0000
0000
1001
0000
0000
0000
1000
0100
0000
0000
M100
0001
0000
0000
1000
0001
0000
0000
1000
0100
1000
0100
1000
0000
0001
0000
,  // measure 66
0100
0010
0100
0010
0100
0000
0000
0000
1001
0000
0000
0000
0001
0010
0000
0000
001M
1000
0000
0000
0001
1000
0000
0000
1000
0000
0000
0001
0010
0100
1000
0001
,  // measure 67
0100
0001
0100
0001
1000
0000
0000
0000
0004
0400
0000
0000
0000
0000
0000
0000
0303
0000
0000
0000
1010
0000
0000
0000
1000
0000
0100
0000
1000
0000
0001
0000
,  // measure 68
0010
0000
0001
0100
0010
0010
1000
0001
1000
0002
2003
3020
0032
0023
2030
3002
,  // measure 69
4000
0000
0000
3003
0002
0000
0203
0000
2300
0000
3020
0000
0032
0000
0000
0000
,  // measure 70
2000
3003
2000
3200
0302
0023
2030
0000
,  // measure 71
0002
0000
3003
0000
1000
1000
0010
1000
0001
0001
0010
0100
0010
0010
0001
0100
,  // measure 72
0010
0000
0000
0000
0000
0000
0100
0000
0000
0010
0000
0000
1000
0000
0000
1000
0000
0000
0001
0000
0000
0010
0000
0000
0100
0000
1000
0000
0001
0000
0100
0000
0001
0000
0010
0000
0100
0000
1000
0000
0100
0000
1000
0000
0010
0000
0100
0000
,  // measure 73
0001
0000
1000
0000
0100
0000
0010
0000
0001
0000
0010
0000
0100
0000
0000
0000
0000
0000
1000
0000
0000
0001
0000
0000
1000
0000
0000
0000
0000
0000
0000
0000
0000
0000
0000
0000
0000
0000
0000
0000
0000
0000
0000
0000
0000
0000
0000
0000
;
