#TITLE:Knickknack Kingdom;
#SUBTITLE:;
#ARTIST:FAKE TYPE.;
#TITLETRANSLIT:;
#SUBTITLETRANSLIT:;
#ARTISTTRANSLIT:;
#GENRE:;
#CREDIT:;
#MUSIC:Knickknack Kingdom.ogg;
#BANNER:Knickknack Kingdom.png;
#BACKGROUND:Knickknack Kingdom-bg.png;
#CDTITLE:;
#SAMPLESTART:51.413;
#SAMPLELENGTH:13.077;
#SELECTABLE:YES;
#OFFSET:-0.644;
#BPMS:0.000=156.000;
#STOPS:;
#ORIGIN:;
#PREVIEWVID:;
#JACKET:Knickknack Kingdom-jacket.png;
#CDIMAGE:;
#DISCIMAGE:;
#BGCHANGES:-1.674=Knickknack Kingdom.avi=1.000=1=0=0=StretchNoLoop==CrossFade==,
99999.000=-nosongbg-=1.000=0=0=0=StretchNoLoop====
;
#FGCHANGES:;

//--------------- dance-single - ----------------
#NOTES:
     dance-single:
     :
     Beginner:
     4:
     0,0,0,0,0:
0000
0000
0000
0000
,
0000
0000
0000
0000
,
0000
0000
0000
0000
,
0000
0000
0000
0000
,
0000
0000
0000
0000
,
0000
0000
0000
0000
,
0000
0000
0000
0000
,
0000
0000
0000
0000
,
1000
0000
0001
0000
,
0001
0000
1000
0000
,
0100
0000
0010
0000
,
0010
0000
0100
0000
,
1000
0000
0100
0000
,
0010
0000
0001
0000
,
0001
0000
0100
0000
,
0010
0000
1000
0000
,
0001
0000
0000
0000
,
1001
0000
0000
0000
,
1000
0000
0000
0000
,
1001
0000
0000
0000
,
1000
1000
0100
0000
,
0001
0001
0100
0000
,
1000
1000
0010
0000
,
0001
0001
0010
0000
,
0100
0000
0000
0000
,
0100
0000
0000
0000
,
0010
0000
0010
0000
,
0100
0000
0110
0000
,
1000
0000
0000
0000
,
1000
0000
0000
0000
,
0001
0000
0001
0000
,
0100
0100
0100
0100
,
0000
0000
0000
0000
,
0001
0000
0001
0000
,
1000
0000
1000
0000
,
0100
0000
0010
0000
,
0002
0000
0003
0000
,
1000
0000
1000
0000
,
0001
0000
0001
0000
,
0100
0000
0010
0000
,
2000
0000
3000
0000
,
1001
0000
0000
0000
,
0000
0000
0000
0000
,
0001
0001
0100
0000
,
1000
1000
0100
0000
,
0010
0000
0010
0000
,
0100
0000
0100
0000
,
2000
0000
3000
0000
,
0002
0000
0003
0000
,
0001
0000
0100
0000
,
0010
0010
0010
0000
,
1000
0000
0100
0000
,
0010
0010
0010
0000
,
0001
0000
1000
0000
,
0100
0000
1000
0000
,
0010
0000
0010
0000
,
0100
0000
0100
0000
,
0001
0000
0000
0000
,
1000
0000
1000
0000
,
0001
0000
0001
0000
,
0100
0000
0010
0000
,
2000
0000
3000
0000
,
0001
0000
0001
0000
,
1000
0000
1000
0000
,
0100
0000
0010
0000
,
0002
0000
0003
0000
,
1001
0000
0000
0000
,
0000
0000
0000
0000
,
0000
0000
0000
0000
,
0000
0000
0000
0000
,
1000
0000
0010
0000
,
0100
0000
0001
0000
,
0010
0000
0010
0000
,
0100
0000
0100
0000
,
1001
0000
0000
0000
;

//--------------- dance-single - ----------------
#NOTES:
     dance-single:
     :
     Easy:
     7:
     0,0,0,0,0:
0000
0000
0000
0000
,
0000
0000
0000
0000
,
0000
0000
0000
0000
,
0000
0000
0000
0000
,
0000
0000
0000
0000
,
0000
0000
0000
0000
,
0000
0000
0000
0000
,
1000
1000
0001
0010
,
0200
0300
0200
0300
,
1000
0010
1000
1001
,
0002
0003
0002
0003
,
0100
0010
0100
0110
,
0020
0030
2000
3000
,
0001
0010
0100
0000
,
1000
0010
0100
0000
,
0001
1000
0001
0000
,
2000
0000
3100
0000
,
0002
0000
0103
0000
,
0001
0001
0100
0010
,
1000
1000
0001
0010
,
0200
0300
1000
0001
,
1000
0100
1000
0010
,
0100
0001
0001
1000
,
0001
0100
0001
0010
,
0200
0000
0300
0100
,
2000
0000
3000
1000
,
0010
0000
0010
0000
,
0100
0100
0100
0000
,
0002
0000
0003
0001
,
0020
0000
0030
0010
,
0100
0000
0100
0100
,
1000
0001
1000
0001
,
0000
0000
0000
0000
,
2000
3000
2000
3000
,
1000
0100
0010
0001
,
0100
0001
0100
0001
,
1000
0100
1000
0001
,
0002
0003
0002
0003
,
1000
0010
0100
0001
,
0010
0001
0010
0100
,
1000
0100
1000
0010
,
0000
0000
0000
0000
,
0000
0000
0000
0000
,
0001
0001
0001
0001
,
1000
1000
1000
1000
,
0002
0103
0200
0301
,
1000
0100
0020
0030
,
0001
0000
2000
0000
0000
3020
0000
0030
,
0000
1000
0001
0000
0010
0000
0011
0000
,
1000
0100
0010
0001
,
1000
0001
2002
3003
,
0001
0100
0010
1000
,
0100
0010
0220
0330
,
0001
1000
0001
1000
,
0001
0100
0001
0100
,
0010
0010
0010
1000
,
1000
0100
0010
0001
,
0000
0000
0000
0000
,
2002
3003
2002
3003
,
0001
0100
0010
1000
,
0100
1000
0100
1000
,
0001
0100
0001
0100
,
0020
0030
2002
3003
,
0001
0001
0010
0100
,
1000
0010
1000
0010
,
0100
0001
0100
0001
,
0010
0000
0000
0000
,
0000
0000
0000
0000
,
0000
0000
0000
0000
,
0001
0010
0100
1000
,
0010
0010
0200
0300
,
0001
0001
2000
3000
,
1000
0100
0010
0001
,
0100
0010
1000
0001
,
1001
0000
0000
0000
;

//--------------- dance-single - ----------------
#NOTES:
     dance-single:
     :
     Medium:
     13:
     0,0,0,0,0:
0000
0000
0000
0000
,
0000
0000
0000
0000
,
0000
0000
0000
0000
,
0000
0000
0000
0000
,
0001
1000
0010
1000
,
0001
0010
0001
0010
0100
1000
0100
1000
,
0010
1000
0100
1000
,
0001
1000
0001
1000
0001
0100
0020
0000
,
1030
0001
1000
0001
0100
0001
0100
0001
,
1000
0010
1000
0001
0010
0000
0011
0000
,
0001
0100
0001
0100
0001
1000
0001
1000
,
0010
0100
0001
0010
0200
0000
2300
0000
,
3001
0100
0010
0000
0010
1000
0001
0001
,
2000
3200
0302
0203
,
1300
0010
0100
0000
0100
0001
0010
0010
,
0002
0000
0203
0000
2300
0000
3100
0001
,
1000
1100
0001
0101
,
0001
0100
0010
0100
1000
0100
0010
0100
,
0001
0011
1000
1010
,
1000
0010
0100
0010
0001
0010
0100
0010
,
1000
1000
0002
0000
1003
1000
0200
0000
,
0310
0100
0010
0001
1000
0010
1000
0001
,
0200
0010
0310
0100
0001
1000
0002
0000
,
1003
0100
0010
0100
2000
0000
3000
0000
,
0001
0000
0000
0000
0101
0000
0001
1000
,
0100
0000
0000
0000
1100
0000
1000
0100
,
0020
0031
0002
1003
,
1000
0010
0100
0001
0100
0010
1000
0100
,
0010
0000
0000
0000
0110
0000
0010
0001
,
1000
0000
0000
0000
1001
0000
0001
1000
,
0010
0000
0010
0000
0100
0001
0100
0001
,
1000
0010
0001
0010
1000
0100
0010
0001
,
0000
0000
0000
0000
,
1000
0002
0100
0000
1003
0002
0100
0000
,
1003
0100
0010
0001
0010
0100
2000
0000
,
3001
0100
0010
0100
0001
0001
1000
0020
,
0000
1030
0100
0010
0001
0000
0011
0000
,
0001
2000
0010
0000
3001
2000
0010
0000
,
3001
0100
0010
1000
0010
0100
0002
0000
,
1003
0100
0010
0100
1000
1000
0001
0200
,
0000
0310
0100
0001
1000
0010
0100
0001
,
1000
0000
0000
0000
,
0000
0000
0000
0000
,
2000
0100
0100
3001
,
0002
0203
0320
2030
,
3100
0010
0100
0010
0001
1000
1000
0001
,
0100
0010
0100
0010
1000
0001
0001
1000
,
0001
0000
0100
0000
1000
0000
0100
0002
0000
0000
0000
0000
0013
0000
0100
0002
,
0000
0000
0103
1000
0010
1000
2002
3003
,
0001
0100
0001
1000
0001
0010
0100
1000
,
0020
0100
0130
0000
0001
1000
0100
0000
,
1000
0100
1000
0001
1000
0010
0100
0001
,
2000
0001
3001
0000
0001
0010
0001
0000
,
2000
0000
3200
0000
0301
0100
1000
0001
,
0100
1000
0100
0001
0010
0100
1000
0001
,
0400
0000
0000
0000
,
0301
1000
0010
0100
0001
0010
0100
1000
,
0001
0000
0000
0000
,
0001
2000
0100
0000
3001
2000
0010
0000
,
3001
0100
0010
1000
0010
0100
0002
0000
,
1003
0100
0010
0100
1000
1000
0001
0020
,
0000
0031
0100
0010
1000
0000
1001
0000
,
1000
0002
0100
0000
1003
0002
0010
0000
,
1003
0100
0010
0001
0010
0100
1000
1000
,
0001
0100
0010
0100
0001
0001
1000
0200
,
0000
0310
0100
1000
0001
0010
0100
1000
,
0002
0000
2003
0000
3020
0000
1030
0001
,
0000
0001
2000
0000
3100
0010
0001
0000
,
2000
0000
3002
0000
0023
0000
0031
1000
,
0000
1000
0010
0000
0100
0001
0020
0000
,
0130
1100
1000
1001
,
0101
1100
1010
0011
,
1001
1001
0110
0110
,
1001
1001
0110
0110
,
1001
0000
0000
0000
;

//--------------- dance-single - XO+ JA+ FS DS SJ BR- ----------------
#NOTES:
     dance-single:
     XO+ JA+ FS DS SJ BR-:
     Hard:
     15:
     0.659227,0.753264,0.31386,0.229033,0.212067,544,507,37,27,12,6,0,0,0,0.659227,0.753264,0.31386,0.229033,0.212067,544,507,37,27,12,6,0,0,0:
0000
0000
0000
0000
,
0000
0000
0000
0000
,
0000
0000
0000
0000
,
0000
0000
0000
0000
,
2001
0100
0010
0100
,
3001
0010
0100
1000
0001
0100
0010
1000
,
0002
0100
0010
0100
,
1003
0000
0001
0100
0001
0000
1000
0000
0200
0000
0010
0000
0310
0000
0000
0000
,
1000
0001
0010
0001
0100
0010
0100
0001
,
1000
0010
0100
0001
2000
0000
3101
0000
,
0001
1000
0010
1000
0100
0010
0100
1000
,
0001
0010
0100
1000
0002
0000
1103
0000
,
0001
1000
0001
1000
0000
0000
0010
0000
1000
0100
1000
0000
0001
1000
0001
1000
,
0010
0000
0100
0000
0001
0000
1000
0000
0001
0010
0001
0010
0100
0000
1000
0000
,
0001
0100
1000
0100
0010
0100
0001
1000
,
0100
0001
0100
0010
0001
0100
0010
1000
,
0001
0000
1000
0000
0100
0000
0100
0000
2000
0000
0000
0001
0000
0000
3010
0000
,
2000
0000
0000
0001
0000
0000
3100
0000
1000
0000
0100
0000
0001
0000
0100
0000
,
1000
0000
0010
0000
0100
0000
0100
0000
0002
0000
0000
1000
0000
0000
0013
0000
,
0002
0000
0000
1000
0000
0000
0103
0000
1000
0000
0001
0000
0010
0000
0100
0000
,
1000
0001
1000
0000
0010
0000
0100
0000
0001
0010
0001
0000
1000
0000
0100
0000
,
1000
0010
1000
0000
0010
0100
0010
0000
0100
0001
0100
0000
0001
1000
0100
0000
,
1001
0000
0001
0010
0001
0010
0100
1000
0002
0000
0203
0000
2300
0000
3200
0000
,
0302
0023
2030
3002
0103
0000
0110
0000
,
2001
3010
0100
0001
0020
0000
0100
0130
,
1000
0001
1000
0100
0020
0000
0031
0200
,
1000
0001
1000
0001
,
0301
0000
0100
0000
0010
0000
1000
0000
0100
0000
0010
0001
0010
0000
0100
0000
,
1001
1000
0010
1000
0002
0000
0103
0100
,
0001
0010
0100
1000
0002
0000
1003
0001
,
0100
0000
0110
0000
1001
0001
1000
0001
,
0010
0000
0100
1000
0010
0000
0100
0000
0001
0000
1000
0100
0010
0000
0001
0000
,
2000
3000
0000
0000
,
1001
0000
0001
0000
0010
0M00
0010
0000
1000
0000
0001
0000
0100
00M0
0100
0000
,
1000
0000
0001
0000
0010
0M00
0010
0000
1000
0000
0100
0000
0001
0000
0100
0000
,
1000
1000
0010
0010
0100
0100
1000
0200
,
0000
0000
0301
0000
1000
0000
0100
0000
0010
0000
0001
0100
0010
0000
1000
0000
,
0001
0000
1000
0000
0010
0M00
0010
0000
0001
0000
1000
0000
0100
00M0
0100
0000
,
0001
0000
1000
0000
0010
0M00
0010
0000
0001
0000
0100
0000
1000
0000
0100
0000
,
0001
0001
0010
0010
0100
0100
0001
0200
,
0000
0000
0310
0000
0001
0000
0100
0000
0010
0000
1000
0100
1000
0000
0001
0000
,
2002
0000
3003
0000
,
0000
0000
0000
0000
,
1000
0100
0010
0100
1000
0001
0101
0000
,
0001
0100
0010
0100
0001
1000
1010
0000
,
1000
0001
1000
0001
0010
0000
0100
0000
1000
0000
0001
0000
1000
0100
0010
0000
,
0001
0000
0100
0000
0010
0000
1000
0000
0001
0000
0010
0100
0010
0000
0001
0000
,
1000
0100
1000
0100
0010
0000
0001
0200
0000
0000
0301
0000
1000
0000
0001
0020
,
0000
0000
0031
1000
0001
1000
0001
1000
0010
0000
1010
0000
0001
0000
0101
0000
,
1000
0100
0010
0001
0100
0001
0010
0001
,
1000
0002
1013
0000
1000
0002
1103
0000
,
0001
0100
0010
1000
0100
1000
0010
1000
,
0001
2000
3011
0000
0001
0200
0311
0000
,
1000
0001
0010
0100
1000
0010
1000
0100
,
0001
0100
1000
0010
0001
0010
0100
0001
,
2000
0100
0100
0100
3100
0001
0010
0100
,
1000
0100
0001
0100
1000
0010
0100
0001
,
1000
0000
0000
0000
,
1002
0000
0103
0000
0010
M000
0010
0000
0001
0000
1000
0000
0010
0M00
0010
0000
,
0001
0000
0100
0000
0010
M000
0010
0000
0001
0000
1000
0000
0010
0000
1000
0000
,
0100
0100
0001
0001
0100
0100
0010
0002
,
0000
0000
0103
0000
1000
0000
0100
0000
0001
0000
1000
0100
0010
0000
0001
0000
,
1000
0000
0100
0000
0010
000M
0010
0000
1000
0000
0001
0000
0010
0M00
0010
0000
,
1000
0000
0100
0000
0010
000M
0010
0000
1000
0000
0001
0000
0010
0000
0001
0000
,
0100
0100
1000
1000
0100
0100
0001
0020
,
0000
0000
0130
0000
0001
0000
0100
0000
1000
0000
0001
0100
0010
0000
1000
0000
,
1001
0000
1100
0000
1010
0000
1001
0002
,
0000
0000
1003
0000
1000
0000
0001
0000
0010
0000
0100
1000
0001
0000
1000
0000
,
1100
0000
0101
0000
0011
0000
1001
1000
,
0010
0000
0100
0001
0010
0000
0001
0000
1000
0000
0010
0000
1000
0000
0100
0000
,
1100
1010
0101
0011
,
0001
0100
1000
0100
0001
0010
1000
0010
,
0001
0000
1000
0100
0010
0000
0001
0000
0100
0000
0010
1000
0100
0000
0010
0000
,
0001
0000
1000
0010
1000
0000
0001
0010
0001
0000
1000
0100
1000
0000
0010
0000
,
0200
0300
0000
0000
0000
0000
0000
0000
;
