#VERSION:0.83;
#TITLE:Katamari on the Swing;
#SUBTITLE:(SEXY-SYNTHESIZER ALL ABOUT namco MIX);
#ARTIST:SEXY-SYNTHESIZER;
#TITLETRANSLIT:;
#SUBTITLETRANSLIT:;
#ARTISTTRANSLIT:;
#GENRE:;
#ORIGIN:;
#CREDIT:;
#BANNER:;
#BACKGROUND:;
#PREVIEWVID:;
#JACKET:;
#CDIMAGE:;
#DISCIMAGE:;
#LYRICSPATH:;
#CDTITLE:;
#MUSIC:katamariontheswing.ogg;
#OFFSET:0.623680;
#SAMPLESTART:18.200001;
#SAMPLELENGTH:11.765000;
#SELECTABLE:YES;
#BPMS:0.000=204.000;
#STOPS:;
#DELAYS:;
#WARPS:;
#TIMESIGNATURES:0.000=4=4;
#TICKCOUNTS:0.000=4;
#COMBOS:0.000=1;
#SPEEDS:0.000=1.000=0.000=0;
#SCROLLS:0.000=1.000;
#FAKES:;
#LABELS:0.000=Song Start;
#BGCHANGES:;
#KEYSOUNDS:;
#ATTACKS:
;

//---------------dance-single - ----------------
#NOTEDATA:;
#CHARTNAME:;
#STEPSTYPE:dance-single;
#DESCRIPTION:;
#CHARTSTYLE:;
#DIFFICULTY:Hard;
#METER:14;
#RADARVALUES:0.657679,0.865781,0.305390,0.282486,0.774927,603.000000,563.000000,40.000000,37.000000,8.000000,0.000000,10.000000,0.000000,0.000000,0.657679,0.865781,0.305390,0.282486,0.774927,603.000000,563.000000,40.000000,37.000000,8.000000,0.000000,10.000000,0.000000,0.000000;
#CREDIT:TonyAkita;
#NOTES:
// measure 0
0000
0000
0000
0000
,  // measure 1
0000
0000
0000
0000
,  // measure 2
2020
0030
0002
0003
,  // measure 3
0020
0000
0000
3030
0000
0001
0100
0000
0000
0000
0000
0022
,  // measure 4
0000
0030
2000
3003
,  // measure 5
0001
1000
0001
1000
0001
1000
0001
1000
0000
0000
0000
0000
,  // measure 6
2200
0300
0002
0003
,  // measure 7
0200
0000
0000
3300
0000
0001
0010
0000
0000
0000
0000
0202
,  // measure 8
0000
0000
0000
0300
0000
0000
2000
0000
0000
3003
0000
0001
,  // measure 9
1000
0010
0000
0100
0000
0010
0000
0000
,  // measure 10
2000
0000
0000
3200
0000
0000
0302
0000
,  // measure 11
0000
0023
0000
0000
1030
0001
0000
0000
,  // measure 12
0002
0000
0000
0203
0000
0000
2300
0000
,  // measure 13
0000
3020
0000
0000
0031
1000
0000
0000
,  // measure 14
4000
0000
3400
0000
,  // measure 15
0340
0000
0000
0000
0000
0000
0031
0000
1000
0000
0001
0000
,  // measure 16
2000
3002
2003
3020
,  // measure 17
0230
0020
0000
0330
,  // measure 18
1010
0000
0010
0001
0000
0000
0010
0000
0100
0001
0000
0010
,  // measure 19
1000
0000
0010
0001
0000
0000
1000
0000
0010
0100
0000
0001
,  // measure 20
1000
0000
0100
1000
0000
0100
1000
0000
0100
0001
0000
0100
,  // measure 21
0001
0000
0000
0000
0100
0000
1000
0000
0000
0000
0001
0000
0000
0000
0000
1001
0000
0000
0000
0000
0000
0101
0000
0000
,  // measure 22
0000
0000
0100
1000
0000
0000
0100
0000
0010
1000
0000
0100
,  // measure 23
0001
0000
0100
1000
0000
0000
0001
0000
0100
0010
0000
1000
,  // measure 24
0001
0000
0010
0001
0000
0010
0001
0000
0010
1000
0000
0010
,  // measure 25
1000
0000
0001
0100
0000
1000
0010
0000
0000
0101
0000
0000
,  // measure 26
0011
0000
0010
1000
0000
0000
0010
0000
0100
1000
0000
0010
,  // measure 27
0001
0000
0010
1000
0000
0000
0001
0000
0010
0100
0000
1000
,  // measure 28
0001
0000
0100
0001
0000
0100
0001
0000
0100
1000
0000
0100
,  // measure 29
0020
0000
1000
0000
1030
0001
0000
1100
,  // measure 30
0000
0000
0100
0001
0000
0000
0100
0000
1000
0010
0000
0100
,  // measure 31
1000
0000
0100
0001
0000
0000
1000
0000
0100
0010
0000
0001
,  // measure 32
1000
0000
0010
1000
0000
0010
1000
0000
0010
0001
0000
0010
,  // measure 33
0001
0000
1000
0100
0000
0001
0010
0000
0000
1100
0000
0000
,  // measure 34
1001
0000
0000
0001
0000
0000
0001
0100
0010
1000
0000
0000
,  // measure 35
0001
0000
0000
0000
0010
0000
0100
0000
0000
0001
0000
0000
0000
0000
0000
0000
0100
0000
1000
0000
0000
0000
0000
0000
,  // measure 36
0001
0000
0100
0001
0000
0000
1000
0000
0001
1000
0000
0000
,  // measure 37
0100
0000
0000
0000
1000
0000
0100
0000
0000
0000
0010
0000
0000
0000
0000
0000
0000
0000
0001
0000
0000
1000
0000
0000
,  // measure 38
0000
0000
0000
1000
0000
0000
1000
0100
0010
0001
0000
0000
,  // measure 39
0000
0000
0000
1000
0010
1000
0010
0000
0000
0100
0000
0000
,  // measure 40
0001
0000
0001
0100
0000
0000
0010
0000
0010
0100
0000
0000
,  // measure 41
1000
0000
0000
0000
1000
0000
0100
0000
0000
0000
0000
0000
0010
0000
0000
0000
1000
0000
0001
0000
0000
4004
0000
0000
,  // measure 42
0000
0000
0000
0000
,  // measure 43
0000
3003
MMMM
0000
,  // measure 44
1010
0000
0000
0100
0000
0000
0001
0000
0100
1000
0000
0000
,  // measure 45
0100
0000
0000
0000
0001
0000
0000
0000
0000
1000
0000
0000
0000
0000
0000
0000
0100
0000
0001
0000
0000
0000
0000
0000
,  // measure 46
0100
0000
0000
0010
0000
0000
1000
0000
0010
0001
0000
0000
,  // measure 47
1000
0000
0000
0000
0010
0000
0100
0000
0000
0010
0000
0000
0000
0000
0000
0000
0001
0000
0010
0000
0000
0000
0000
0000
,  // measure 48
1000
0000
0000
0000
0010
0000
1000
0000
0000
0000
0000
0000
0001
0000
0000
0000
0100
0000
0001
0000
0000
1000
0000
0000
,  // measure 49
0000
0000
0100
1000
0000
0000
0001
0000
0010
0001
0000
0000
,  // measure 50
1000
0000
0000
0000
0010
0000
0100
0000
0000
0000
0010
0000
0001
0000
0000
0010
0000
0000
0000
0000
0000
1000
0000
0000
,  // measure 51
0000
0000
0000
0000
0001
0000
0010
0000
0000
0000
0100
0000
1000
0000
0000
1001
0000
0000
0000
0000
0000
0000
0000
0000
,  // measure 52
0011
0000
0000
0100
0000
0000
1000
0000
0100
0001
0000
0000
,  // measure 53
0100
0000
0000
0000
1000
0000
0000
0000
0000
0001
0000
0000
0000
0000
0000
0000
0100
0000
1000
0000
0000
0000
0000
0000
,  // measure 54
0100
0000
0000
0010
0000
0000
0001
0000
0010
1000
0000
0000
,  // measure 55
0001
0000
0000
0000
0010
0000
0100
0000
0000
0010
0000
0000
0000
0000
0000
0000
1000
0000
0010
0000
0000
0000
0000
0000
,  // measure 56
0001
0000
0000
0000
0010
0000
0001
0000
0000
0000
0000
0000
1000
0000
0000
0000
0100
0000
1000
0000
0000
0001
0000
0000
,  // measure 57
0000
0000
0100
0001
0000
0000
1000
0000
0010
1000
0000
0000
,  // measure 58
0011
0000
1000
0100
0000
0000
1010
0000
0001
0100
0000
0000
,  // measure 59
0001
0010
0001
0010
0001
0010
0100
1000
0100
1000
0100
1000
,  // measure 60
0001
0000
0100
1000
0000
0100
0001
0000
0000
0100
0000
0000
,  // measure 61
0010
0000
1000
0100
0000
1100
0000
0000
0000
0000
0000
0000
,  // measure 62
1000
0000
0100
0001
0000
0100
1000
0000
0000
0100
0000
0000
,  // measure 63
0010
0000
0001
0100
0000
0101
0000
0000
0000
0000
0000
0000
,  // measure 64
0001
0000
0010
1000
0000
0010
0001
0000
0000
0010
0000
0000
,  // measure 65
0100
0000
1000
0000
0000
0001
0100
0000
0000
0010
0000
0000
,  // measure 66
1000
0000
0010
0001
0000
0010
1000
0000
0000
0010
0000
0000
,  // measure 67
2000
0000
0001
0000
0001
0000
3001
0000
0000
0010
0000
0000
,  // measure 68
0001
0000
0100
1000
0000
0010
0001
0000
0000
1000
0000
0000
,  // measure 69
0100
0000
0000
0000
0001
0000
0000
0000
0000
0100
0000
0000
0000
0000
0000
0000
1000
0000
0001
0000
0000
0000
0000
0000
,  // measure 70
1000
0000
0100
0001
0000
0010
1000
0000
0000
0001
0000
0000
,  // measure 71
1000
0010
1000
0010
1000
0010
0100
0001
0100
0001
0100
0001
,  // measure 72
0101
0000
0000
1001
0000
0000
0011
0000
,  // measure 73
0000
1001
0000
0000
1000
0100
0000
0000
,  // measure 74
1100
0000
0000
1001
0000
0000
1010
0000
,  // measure 75
0000
1001
0000
0000
0001
0100
0000
0000
,  // measure 76
0004
0000
0043
0000
,  // measure 77
0430
0000
0000
0000
0000
0000
1300
0000
0001
0000
1000
0000
,  // measure 78
0002
2003
3002
0023
,  // measure 79
0230
0020
0000
0330
,  // measure 80
0011
0000
0010
1000
0000
0000
0010
0000
0100
1000
0000
0010
,  // measure 81
0001
0000
0010
1000
0000
0000
0001
0000
0010
0100
0000
1000
,  // measure 82
0001
0000
0100
1000
0000
0100
1000
0000
0100
0001
0000
0100
,  // measure 83
0020
0000
1000
0000
1030
0001
0000
1100
,  // measure 84
0000
0000
0100
0001
0000
0000
0100
0000
0010
0001
0000
0100
,  // measure 85
1000
0000
0100
0001
0000
0000
1000
0000
0100
0010
0000
0001
,  // measure 86
1000
0000
0010
1000
0000
0010
1000
0000
0010
0001
0000
0010
,  // measure 87
0001
0000
1000
0100
0000
0001
0010
0000
0000
1100
0000
0000
,  // measure 88
1010
0000
0010
0001
0000
0000
0010
0000
0100
0001
0000
0010
,  // measure 89
1000
0000
0010
0001
0000
0000
1000
0000
0010
0100
0000
0001
,  // measure 90
1000
0000
0100
1000
0000
0100
1000
0000
0100
0001
0000
0100
,  // measure 91
0001
1100
0000
0110
0000
0011
0000
0101
,  // measure 92
0000
0000
0100
1000
0000
0000
0100
0000
0010
1000
0000
0100
,  // measure 93
0001
0000
0100
1000
0000
0000
0001
0000
0100
0010
0000
1000
,  // measure 94
0001
0000
0010
0001
0000
0010
0001
0000
0010
1000
0000
0010
,  // measure 95
1000
0000
0001
0100
0000
1000
0010
0000
0000
0101
0000
0000
,  // measure 96
1001
0000
0000
1000
0000
0000
1000
0100
0010
0001
0000
0000
,  // measure 97
1000
0000
0000
0000
0010
0000
0100
0000
0000
1000
0000
0000
0000
0000
0000
0000
0100
0000
0001
0000
0000
0000
0000
0000
,  // measure 98
1000
0000
0100
1000
0000
0000
0001
0000
1000
0001
0000
0000
,  // measure 99
0100
0000
0000
0000
0001
0000
0100
0000
0000
0000
0010
0000
0000
0000
0000
0000
0000
0000
1000
0000
0000
0001
0000
0000
,  // measure 100
0000
0000
0000
0001
0000
0000
0001
0100
0010
1000
0000
0000
,  // measure 101
0000
0000
0000
0001
0010
0001
0010
0000
0000
0100
0000
0000
,  // measure 102
1000
0000
1000
0100
0000
0000
0010
0000
0010
0100
0000
0000
,  // measure 103
0001
0000
0000
0000
0001
0000
0100
0000
0000
0000
0000
0000
0010
0000
0000
0000
0001
0000
1000
0000
0000
1001
0000
0000
,  // measure 104
0000
0000
0000
1000
0000
0000
0000
0000
0000
0000
0100
0000
0001
0000
0000
0000
0100
0000
1000
0000
0000
0000
0000
0000
,  // measure 105
1000
0000
0000
0000
0100
0000
0010
0000
0000
0001
0000
0000
0000
0000
0000
0000
0000
0000
4004
0000
0000
0000
0000
0000
,  // measure 106
0000
0000
0000
0000
,  // measure 107
0000
0000
0000
3003
,  // measure 108
MMMM
0000
0000
0000
;
