#TITLE:過食性アイドル症候群;
#SUBTITLE:;
#ARTIST:スズム feat.GUMI&MAYU;
#TITLETRANSLIT:Kashokusei: Idol Shoukougun;
#SUBTITLETRANSLIT:Suzumu feat.GUMI&MAYU;
#ARTISTTRANSLIT:;
#GENRE:;
#CREDIT:;
#MUSIC:Kashokusei idol shoukougun.ogg;
#BANNER:Kashokusei idol shoukougun.png;
#BACKGROUND:Kashokusei idol shoukougun-bg.png;
#CDTITLE:;
#SAMPLESTART:37.934;
#SAMPLELENGTH:15.000;
#SELECTABLE:YES;
#OFFSET:1.197;
#BPMS:0.000=200.000;
#STOPS:324.000=1.200;
#BGCHANGES:-0.300=Kashokusei idol shoukougun.avi=1.000=1=0=0=StretchNoLoop====,
99999.000=-nosongbg-=1.000=0=0=0=StretchNoLoop====;
#FGCHANGES:;

//--------------- dance-single - chrononical ----------------
#NOTES:
     dance-single:
     chrononical:
     Beginner:
     4:
     0,0,0,0,0:
0000
0000
0000
0000
,
0000
0000
0000
0000
,
0000
0000
0000
0000
,
0000
0000
0000
0000
,
0000
0000
0000
0000
,
0001
0000
0010
0000
,
0100
0000
0100
0000
,
1000
0000
0010
0000
,
0001
0000
0010
0000
,
1000
0000
0000
0000
,
1000
0000
0000
0000
,
0001
0000
0000
0000
,
1000
0000
0000
0000
,
0100
0000
0000
0000
,
0010
0000
0000
0000
,
0100
0000
0000
0000
,
0010
0000
0001
0000
,
1000
0000
0010
0000
,
0100
0001
0100
0000
,
0001
0000
0010
0000
,
0100
1000
0100
0000
,
1000
0000
0010
0000
,
0100
0001
0100
0000
,
0001
0001
0001
0000
,
1000
1000
1000
0000
,
0001
0000
0000
0000
,
0010
0000
0000
0000
,
0100
0000
0000
0000
,
1000
0000
0000
0000
,
0001
0000
0000
0000
,
0100
0000
0000
0000
,
0010
1000
0000
1000
,
0001
0000
0000
0000
,
0001
0010
0001
0000
,
1000
0010
1000
0000
,
0001
0100
0001
0000
,
1000
0100
1000
0000
,
1000
0100
1000
0000
,
0001
0100
0001
0000
,
1000
0001
0000
0001
,
1000
1000
1000
0000
,
0001
0100
0001
0000
,
1000
0100
1000
0000
,
0001
0010
0001
0000
,
1000
0010
1000
0000
,
0001
0001
0001
0000
,
1000
1000
1000
0000
,
0010
0010
0010
0000
,
1001
0000
0000
0000
,
0001
0000
0010
0100
,
1000
0000
0010
0100
,
0001
0000
0010
0100
,
1000
0000
0001
1000
,
1000
0000
0100
0010
,
0001
0000
0100
0010
,
1000
0000
0100
0010
,
0001
0000
1000
0001
,
0001
0010
0100
0000
,
1000
0010
0100
0000
,
0001
0010
0100
0000
,
1000
0000
0001
1000
,
1000
0010
0100
0000
,
0001
0010
0100
0000
,
1000
0010
0100
0000
,
0001
1000
0001
0000
,
1000
0010
1000
0000
,
0001
0010
0001
0000
,
1000
0100
1000
0000
,
0001
0100
0001
0000
,
0001
0100
0001
0000
,
1000
0100
1000
0000
,
0001
1000
0000
1000
,
0001
0001
0001
0000
,
1000
0100
1000
0000
,
0001
0100
0001
0000
,
1000
0010
1000
0000
,
0001
0010
0001
0000
,
1000
1000
1000
0000
,
0001
0001
0001
0000
,
0100
0100
0100
0000
,
0001
0000
0000
0000
,
0000
0000
0000
0000
,
1000
0000
0010
0000
,
0100
0000
0100
0000
,
0001
0000
0010
0000
,
0100
0000
0100
0000
,
1000
0000
0010
0000
,
0100
0000
0100
0000
,
0001
0000
0010
0000
,
1000
0000
0010
0000
,
0001
0000
0000
0000
,
0001
0000
0000
0000
,
1000
0000
0000
0000
,
0001
0000
0000
0000
,
0100
0000
0000
0000
,
0010
0000
0000
0000
,
0100
0000
0000
0000
,
0010
0000
1000
0000
,
0002
0000
0000
0000
,
0000
0000
0003
0000
;

//--------------- dance-single - chrononical ----------------
#NOTES:
     dance-single:
     chrononical:
     Easy:
     8:
     0,0,0,0,0:
0000
0000
0000
0000
,
0000
0000
0000
0000
,
0000
0000
0000
0000
,
0000
0000
0000
0000
,
0000
0000
0000
0000
,
1000
0100
0010
0010
,
0100
0010
1000
0010
,
0001
0100
0010
0010
,
0100
0000
0010
0000
1000
0001
1000
0000
,
0001
0000
0010
0000
,
0100
0000
1000
0000
,
0001
0000
0100
0000
,
0010
0000
1000
0001
,
1000
0000
0100
0000
,
0010
0000
0001
0000
,
1000
0000
0010
0000
,
0100
0000
0001
0000
1000
0001
1000
0000
,
0001
0000
0010
0100
0000
0100
0010
0000
,
0001
1000
0001
0010
,
0001
0000
0100
0010
0000
0010
0100
0000
,
0001
0010
1000
0010
,
0001
0000
1000
0100
0000
0100
1000
0000
,
0001
0100
0010
1000
,
0001
0010
0001
0000
1000
0010
1000
0000
,
0001
0010
0100
0010
,
0001
0000
0100
0000
,
0010
0000
0010
0000
,
1000
0000
0100
0000
,
0010
0000
0010
0001
,
1000
0000
0010
0000
,
0100
0000
0100
0000
,
0001
0000
1000
0100
0000
1000
0000
0001
,
0100
0002
0000
1003
,
0001
0010
0100
0010
,
0001
0100
0010
0100
,
0001
1000
0100
1000
,
1000
0100
0001
0100
,
1000
0010
0100
0010
,
1000
0100
0010
0100
,
1000
1000
0000
0000
0001
0001
0000
0000
,
0100
0010
0100
0000
0001
0000
1000
0000
,
1000
0100
0010
0100
,
1000
0010
0100
0010
,
1000
0001
0010
0001
,
0001
0100
1000
0100
,
0001
0010
0100
0100
,
1000
0010
0100
0100
,
0001
0010
1000
0010
,
0001
0001
0000
0000
0000
0000
0000
0000
,
1000
0001
1000
0000
0100
0000
0100
0000
,
1000
0001
1000
0000
0010
0000
0010
0000
,
1000
0001
1000
0000
0100
0000
0100
0000
,
1000
0001
1000
0000
1000
0010
1000
0000
,
0001
1000
0001
0000
0010
0000
0010
0000
,
0001
1000
0001
0000
0100
0000
0100
0000
,
0001
1000
0001
0000
0010
0000
0010
0000
,
2001
3100
2001
3010
,
1000
0100
0010
0000
0001
0000
0001
0000
,
1000
0010
0100
0000
0001
0000
0001
0000
,
1000
0100
0010
0000
0100
0000
0100
0000
,
1002
0103
1002
0013
,
0001
0100
0010
0000
1000
0000
1000
0000
,
0001
0010
0100
0000
1000
0000
1000
0000
,
0001
0100
0010
0000
1000
0010
0100
0000
,
0001
0010
0100
1001
,
1000
0010
0100
0001
,
1000
0100
0010
1000
,
0010
0001
0100
1000
,
0001
0010
1000
0001
,
1000
0100
0010
0010
,
0001
0100
0010
0010
,
1000
1000
0000
0000
0001
0001
0000
0000
,
0010
0100
0010
0000
1000
0000
0010
0000
,
0001
0100
0010
1000
,
0001
0010
0100
0001
,
0100
1000
0010
0001
,
1000
0100
0001
1000
,
0001
0010
0100
0100
,
1000
0010
0100
0100
,
0001
0010
1000
0010
,
0001
0001
0000
0000
0000
0000
0000
0000
,
0000
0000
0000
0000
,
0001
0010
0100
0100
,
0010
0100
0001
0100
,
1000
0010
0100
0100
,
0010
0100
1000
0001
,
0010
1000
0001
0001
,
0010
0100
0001
0100
,
0010
0001
1000
1000
,
0010
0000
0100
0000
0001
1000
0001
0000
,
1000
0000
0100
0000
,
0010
0000
0001
0000
,
1000
0000
0010
0000
,
0100
0000
0001
1000
,
0001
0000
0010
0000
,
0100
0000
1000
0000
,
0001
0000
0100
0000
,
0010
0000
1000
0000
0001
1000
0001
0000
,
2000
0000
0000
0000
,
0000
0000
3000
0000
;

//--------------- dance-single - chrononical ----------------
#NOTES:
     dance-single:
     chrononical:
     Medium:
     13:
     0,0,0,0,0:
0000
0000
0000
0000
,
0000
0000
0000
0000
,
0000
0000
0000
0000
,
0000
0000
0000
0000
,
0000
0000
0000
0000
,
0001
0100
0010
0000
0010
0100
0001
0000
,
1000
0100
0010
0100
1000
0000
0001
0000
,
1000
0010
0100
0000
0100
0010
1000
0000
,
0001
0010
0100
0010
0001
1000
0001
0100
,
0001
0001
1000
1000
,
0100
0100
0010
0010
,
0001
0001
1000
1000
,
0010
0000
0010
0000
0100
0001
1000
0001
,
1000
1000
0001
0001
,
0010
0010
0100
0100
,
1000
1000
0001
0001
,
0100
0010
1000
0001
0010
0200
0000
0000
,
1300
0010
0100
0010
0000
0010
0001
0010
,
0000
0010
1000
0001
0100
0100
0010
1000
,
0001
0010
0100
0010
0000
0010
1000
0010
,
0000
0010
0001
1000
0100
0001
0100
1000
,
0001
0100
0010
0100
0000
0100
1000
0100
,
0000
0100
0001
1000
0010
0010
0100
0001
,
1000
0100
0010
0000
0010
0100
1000
0000
,
1000
0001
1000
0010
1000
0100
1000
0001
,
1000
0100
0010
0100
,
1000
0001
1000
0000
0010
0000
0010
0000
,
1000
0000
0010
0000
0100
0001
1000
0000
,
0001
0000
0010
0100
0000
0100
0010
0000
,
0001
0100
0010
0100
,
0001
1000
0001
0000
0100
0000
1001
0000
,
0001
0010
0100
0010
0000
0100
0010
0100
,
1000
0002
0000
1003
,
1000
0010
0100
0010
0000
0010
1000
0001
,
1000
0100
0010
0100
0000
0100
1000
0001
,
0100
0010
0001
0010
0000
0010
1000
0001
,
0000
0001
1000
0100
0110
0000
0011
0000
,
0001
0100
0010
0100
0000
0100
0001
1000
,
0100
0001
0100
1000
0000
1000
0001
0100
,
0010
0110
0000
0100
0001
1001
0000
1000
,
0001
0010
1000
0001
0100
1000
0001
1000
,
0001
0010
0100
0010
0000
0010
0001
1000
,
0001
0100
0010
0100
0000
0100
0001
1000
,
0100
0010
1000
0010
0000
0010
0100
1000
,
0000
1000
0001
0100
0110
0000
1010
0000
,
1000
0001
0010
0110
0000
1100
0000
1000
,
0001
0100
0010
0110
0000
0101
0001
1000
,
0001
0010
0100
1000
0100
0010
0001
1000
,
1001
0001
0000
0000
0000
2000
0000
0000
,
3001
0010
0100
0100
1000
0001
1000
0000
,
0001
0100
0010
0010
1000
0001
1000
0000
,
0001
0010
0100
0100
1000
0001
1000
0000
,
1000
0001
1000
0100
1000
0010
1000
0001
,
1000
0100
0010
0010
0001
1000
0001
0000
,
1000
0010
0100
0100
0001
1000
0001
0000
,
1000
0100
0010
0010
0001
1000
0001
0000
,
0101
1100
0101
1001
,
0001
0010
0100
0000
0100
0010
0001
0000
,
1000
0010
0100
0010
0100
0010
1000
0000
,
0001
0010
0100
0000
0100
0010
0001
0000
,
0011
1010
0011
0101
,
0100
0001
0010
0000
0010
0001
0100
0000
,
0010
1000
0100
0010
0100
1000
0010
0000
,
0100
0001
0010
0000
0010
0001
0100
0010
,
1000
0001
1000
0000
1001
0000
0101
0000
,
0001
0010
0001
0100
0000
0100
0010
1000
,
0001
0100
0001
0010
0000
0010
0100
1000
,
0010
0100
1000
0100
0000
0100
0001
0100
,
0000
0100
0010
0100
0110
0000
1001
0000
,
0001
1000
0001
0010
0000
0010
0001
1000
,
0001
1000
0001
0100
0000
0100
0010
1000
,
0010
0110
0000
0010
1000
1001
0000
0001
,
1000
0010
0001
1000
0100
0001
1000
0001
,
1000
0010
1000
0100
0000
0100
0010
0001
,
1000
0100
1000
0010
0000
0010
0100
0001
,
0010
0100
0001
0100
0000
0100
1000
0100
,
0000
0100
0010
0100
0110
0000
1001
0000
,
0001
0100
0010
0110
0000
1010
0000
1000
,
0100
0010
0100
0110
0000
0011
0001
0100
,
0010
0100
1000
0100
0010
1000
0001
1000
,
1001
0001
0000
0000
0000
2000
0000
0000
,
3000
0000
0002
1003
,
1000
0100
0010
0000
0010
0100
1000
0000
,
0001
0100
0010
0100
0001
0000
1000
0000
,
0001
0010
0100
0000
0100
0010
0001
0000
,
1000
0100
0010
0100
1000
0001
1000
0000
,
0100
1000
0010
0000
0100
0001
0010
0000
,
0010
0001
0100
0010
1000
0100
1000
0000
,
0010
1000
0100
0000
0010
0001
0100
0000
,
0100
0001
0010
0100
1000
0010
1000
0001
,
1000
1000
0001
0001
,
0010
0010
0100
0100
,
1000
1000
0001
0001
,
0100
0000
0100
0000
0010
1000
0001
1000
,
0001
0001
1000
1000
,
0100
0100
0010
0010
,
0001
0001
1000
1000
,
0010
0100
0001
1000
0100
0020
0000
0000
,
0032
0000
0000
0203
0000
0000
0320
0000
,
0000
2030
0000
0000
3000
0000
0000
0000
;

//--------------- dance-single - chrononical ----------------
#NOTES:
     dance-single:
     chrononical:
     Hard:
     16:
     0,0,0,0,0:
0000
0000
0000
0000
,
0000
0000
0000
0000
,
0000
0000
0000
0000
,
0000
0000
0000
0000
,
0000
0000
0000
0000
,
1000
0000
0100
0000
0010
0000
0001
0000
1000
0000
0100
0010
0100
0000
1000
0000
,
0001
0100
0010
1000
0010
0100
1000
0100
,
0001
0000
0010
0000
0100
0000
1000
0000
0001
0000
0010
0100
0010
0000
0001
0000
,
1000
0010
0100
0010
1000
0100
0001
0100
,
1000
0100
0100
0010
,
0001
0100
0100
0010
,
1000
0001
0001
0100
,
0001
0000
0000
0000
1000
0000
0000
0000
1000
0000
0100
1000
0001
0000
0100
0001
,
1000
0010
0100
0001
,
1000
0100
0010
0001
,
1000
0010
0100
0001
,
1000
0000
1000
0000
0100
0000
0100
0000
0010
0000
0010
0001
1000
0001
1000
0001
,
1000
0010
0100
0010
1000
0100
0010
0100
,
1000
0001
1000
0010
1000
0100
0010
0001
,
1000
0100
0010
0100
1000
0010
0100
0010
,
1000
0001
1000
0100
1000
0010
1000
1000
,
0001
0100
0010
0100
0001
0010
0100
0010
,
0001
1000
0001
0100
0001
0010
0100
1000
,
0001
1000
0010
1000
0001
1000
0100
1000
,
0001
0000
0010
0000
0100
0000
1000
0001
0100
0000
0001
1000
0010
0000
1000
0000
,
0001
0100
0100
0010
,
1000
0000
0100
0000
0010
0000
0000
0000
0100
0000
0000
0000
0010
0000
0001
0010
,
0001
0000
1000
0000
1000
0010
0100
0010
,
1000
0000
0000
0000
0010
0000
1000
0000
0010
0000
0100
0000
0001
0000
1000
0001
,
1000
0010
0010
0100
,
0001
0000
0010
0000
0100
0000
0000
0000
0100
0000
0100
1000
0002
0000
0000
0000
,
1003
1000
0010
0010
0000
0100
0100
0001
,
0001
2000
0000
3001
,
0001
1000
0100
0010
0100
1000
0100
0010
,
0001
1000
0010
0100
0010
1000
0010
0100
,
0001
1000
0100
0010
0100
1000
1000
0001
,
0100
0000
1000
0000
0001
0000
0010
0100
0010
0000
1000
0001
1000
0000
0100
0010
,
0001
1000
0010
0100
0010
1000
0010
0100
,
0001
1000
0100
0010
0100
1000
0100
0010
,
0100
0010
0100
0010
0002
0000
0000
0000
1003
0001
1000
0001
0100
0000
0010
0000
,
0001
0000
1000
0000
0100
0000
0001
0000
1000
0000
0100
0010
0100
0000
1000
0001
,
1000
0001
0010
0100
0010
0001
0010
0100
,
1000
0001
0100
0010
0100
0001
0100
0010
,
1000
0001
0010
0100
0010
0001
0001
1000
,
0010
0000
0001
0000
1000
0000
0100
0010
0100
0000
0001
1000
0001
0000
0010
0100
,
1000
0001
0010
0100
0010
0001
0001
1000
,
1000
0001
0100
0010
0100
0001
0001
1000
,
1000
0100
0001
1000
0010
0001
1000
0001
,
1001
0000
1001
0000
0000
0000
0000
0000
0000
0000
1000
0100
0010
0001
1000
0001
,
1000
0000
0010
0000
0100
0000
0010
0000
1000
0010
1000
0000
0001
0000
0001
0000
,
1000
0000
0100
0000
0010
0000
0100
0000
1000
0100
1000
0000
0001
0000
0001
0000
,
1000
0000
0010
0000
0100
0000
0010
0000
1000
0010
1000
0000
0001
0000
0001
0000
,
0100
0000
0001
0100
0000
0001
1000
0000
0001
0010
0000
0001
1000
0000
0001
1000
,
0001
0000
0010
0000
0100
0000
0010
0000
0001
0010
0001
0000
1000
0000
1000
0000
,
0001
0000
0100
0000
0010
0000
0100
0000
0001
0100
0001
0000
1000
0000
1000
0000
,
0001
0000
0010
0000
0100
0000
0010
0000
0001
1000
0001
0000
0100
0000
1000
0000
,
1100
0110
0101
1001
,
1000
0000
0100
0010
0100
0000
1000
0000
0001
0000
0100
0010
0100
0000
0001
0000
,
1000
0000
0100
0010
0100
0000
0010
0000
1000
0000
0010
0001
1000
0000
1000
0000
,
0001
0000
0100
0010
0100
0000
0001
0000
1000
0000
0100
0010
0100
0000
0001
0000
,
0101
0110
1100
1001
,
1000
0000
0010
0100
0001
0000
1000
0000
0001
0000
0010
0100
1000
0000
0001
0000
,
1000
0000
0010
0100
0001
0000
0100
0000
1000
0000
0100
0010
1000
0000
1000
0000
,
0001
0000
0010
0000
0100
0000
1000
0000
0001
0000
0100
0010
1000
0001
1000
0000
,
0001
0010
0110
0000
1100
0000
1001
0000
,
1000
0001
0100
0010
0100
1000
0100
0010
,
1000
0001
0010
0100
0010
1000
0010
0001
,
1000
0001
0100
0010
0100
0001
0001
1000
,
0100
0000
0001
0000
1000
0000
0010
0100
0010
0000
0001
1000
0001
0000
0100
0010
,
0100
0001
1000
0001
0010
1000
0010
0001
,
0100
0001
1000
0001
0100
1000
0100
0010
,
0100
0010
0100
0010
2000
0000
0000
0000
3001
1000
0001
1000
0100
0000
0010
0000
,
1000
0000
0001
0000
0100
0000
1000
0000
0001
0000
0100
0010
1000
0000
0001
1000
,
0001
1000
0010
0100
0010
0001
0010
1000
,
0001
1000
0100
0010
0100
0001
0100
1000
,
0001
1000
0010
0100
0010
1000
1000
0001
,
0010
0000
1000
0000
0001
0000
0100
0010
0100
0000
1000
0001
1000
0000
0010
0100
,
0010
0010
1000
0100
0001
0100
1000
0010
,
0100
0100
0001
0100
1000
0100
0001
1000
,
0001
0010
1000
0001
0100
1000
0001
0100
,
0110
0000
0110
0000
0000
0000
0000
0000
0000
0000
0100
0010
1000
0001
1000
0100
,
0010
0000
0000
0000
0000
0000
0000
0000
0100
1000
0001
0100
0020
0000
0000
0000
,
1030
0000
0010
0000
0100
0000
0001
0000
0100
0000
0010
0100
0001
0000
1000
0000
,
0001
0010
0100
0010
1000
0010
0100
1000
,
0001
0000
0100
0000
0010
0000
1000
0000
0010
0000
0100
0001
1000
0000
0001
0000
,
1000
0000
0100
0000
0010
0000
0100
0000
1000
0100
0010
0000
1000
0000
0010
0000
,
0001
0000
0100
0000
0010
0000
0100
0000
0001
0000
0100
0010
1000
0000
0001
0000
,
1000
0100
0010
0100
0001
0100
1000
0001
,
1000
0000
0010
0000
0100
0000
0010
0000
1000
0000
0010
0100
0001
0000
1000
0000
,
0001
0010
0100
0010
0001
0100
1000
0100
,
0001
0100
0100
0010
,
1000
0100
0100
0010
,
0001
1000
1000
0100
,
1000
0000
0000
0000
0001
0000
0000
0000
0001
0000
0100
0001
1000
0000
0100
1000
,
0001
0010
0100
1000
,
0001
0100
0010
1000
,
0001
0010
0100
1000
,
0001
0000
0001
0000
0100
0000
0100
0000
0010
0000
0010
1000
0001
0000
0100
0001
,
2000
0000
3100
0020
0000
0031
2000
0000
,
3010
0200
0000
0000
0300
0000
0000
0000
;
