#VERSION:0.83;
#TITLE:KILL ME One More Time?;
#SUBTITLE:;
#ARTIST:亜咲花;
#TITLETRANSLIT:;
#SUBTITLETRANSLIT:;
#ARTISTTRANSLIT:Asaka;
#GENRE:;
#ORIGIN:;
#CREDIT:;
#BANNER:;
#BACKGROUND:;
#PREVIEWVID:;
#JACKET:;
#CDIMAGE:;
#DISCIMAGE:;
#LYRICSPATH:;
#CDTITLE:;
#MUSIC:KILL ME One More Time.ogg;
#OFFSET:-0.261000;
#SAMPLESTART:52.200001;
#SAMPLELENGTH:15.000000;
#SELECTABLE:YES;
#BPMS:0.000=205.000;
#STOPS:;
#DELAYS:;
#WARPS:;
#TIMESIGNATURES:0.000=4=4;
#TICKCOUNTS:0.000=4;
#COMBOS:0.000=1;
#SPEEDS:0.000=1.000=0.000=0;
#SCROLLS:0.000=1.000;
#FAKES:;
#LABELS:0.000=Song Start;
#BGCHANGES:;
#KEYSOUNDS:;
#ATTACKS:
;

//---------------dance-single - ----------------
#NOTEDATA:;
#CHARTNAME:;
#STEPSTYPE:dance-single;
#DESCRIPTION:;
#CHARTSTYLE:;
#DIFFICULTY:Hard;
#METER:13;
#RADARVALUES:0.616961,0.840628,0.315235,0.598947,0.845881,411.000000,381.000000,30.000000,57.000000,0.000000,0.000000,0.000000,0.000000,0.000000,0.616961,0.840628,0.315235,0.598947,0.845881,411.000000,381.000000,30.000000,57.000000,0.000000,0.000000,0.000000,0.000000,0.000000;
#CREDIT:;
#NOTES:
0000
0000
0000
0000
,
0000
0000
0000
0000
,
0000
0000
0000
0000
,
0000
0000
0000
0000
,
0000
0000
0000
0000
,
0000
0000
0000
0000
,
1000
0000
0000
0101
0000
0000
0010
0000
0000
1000
0000
0001
,
0000
0000
0001
0010
0000
0000
0100
0000
0000
0110
0000
0000
,
0010
0000
0001
0010
0000
0100
0010
0000
0001
0010
0000
0100
,
0010
0000
0001
0000
1000
0000
0020
0000
0000
0130
0000
0000
,
0220
0000
0000
0000
,
0330
0000
0000
0000
0000
2002
0000
0000
0000
3003
0000
0000
,
1000
0000
1000
0000
,
0010
0000
0010
0000
,
0100
0000
0100
0000
,
0001
0000
0001
0000
,
0010
0000
0010
0000
,
0100
0000
0100
0000
,
1000
0000
1000
0000
,
0002
0000
0000
1000
0000
0000
0203
0000
0310
1000
0001
0100
,
0000
0000
0000
0110
0000
0000
1000
0000
0001
1000
0000
0200
,
0000
0000
0310
0001
0000
0000
1000
0000
0001
0100
0000
0000
,
0010
0000
1000
0100
0000
0000
1000
0000
0001
0010
0000
0200
,
0000
0000
0310
0001
0000
0000
1000
0000
0010
0100
0000
0000
,
0010
0000
1000
0001
0000
0020
0000
0000
0130
0000
0000
0120
,
0000
0000
0031
0100
0000
0000
0020
0000
1030
0001
0000
0020
,
0000
0000
0130
0010
0000
0000
0001
0000
0100
0010
0000
1000
,
0000
0000
0001
0000
1000
0000
2002
0000
0000
3003
0000
0000
,
0001
0000
0010
0100
0000
0000
1000
0000
0001
0100
0000
0020
,
1000
0000
0000
0230
0000
0000
0001
0000
0000
0310
0000
1000
,
0001
0000
0010
0100
0000
0000
0010
0000
0001
1000
0000
0020
,
0100
0000
0000
2030
0000
0000
3100
0000
1000
0001
0000
0000
,
2002
0000
0000
3003
0000
0000
1000
0000
0000
0001
0000
0200
,
0000
0000
0310
1000
0000
0000
0100
0000
0100
0010
0000
0000
,
0002
0000
0000
1003
0000
0020
0000
0000
0130
0010
0000
0000
,
1000
0000
0000
0000
0001
0000
1000
0000
0000
0000
0100
0000
0000
0000
0000
0000
0220
0000
0000
0000
0000
0330
0000
0000
,
1000
0000
0100
1000
0000
0000
0001
0000
0100
0010
0000
2000
,
0100
0000
0000
3002
0000
0000
0010
0000
0000
1003
0000
0001
,
0100
0000
0010
0100
0000
0000
1000
0000
0100
0010
0000
0200
,
0001
0320
0100
1030
,
2001
0000
0000
3100
0000
0000
0010
0000
0001
1000
0000
0020
,
0000
0000
0130
0001
0000
0000
0010
0000
0000
0110
0000
0000
,
1000
0000
0100
0000
0110
0000
0001
0000
0100
0000
0010
0000
,
2002
0000
0000
3003
,
0000
0000
0000
0000
0110
0000
0000
0000
0000
0000
0220
0000
0000
0000
0000
0330
0000
0000
1000
0000
0000
0000
0000
0000
,
1001
0000
0000
1000
0000
0100
0010
0000
0001
0100
0000
0000
,
0010
0000
1000
0001
0000
0200
0000
0000
0310
1000
0000
0000
,
0001
0000
0000
1000
0000
0001
0010
0000
0100
1000
0000
0000
,
0010
0000
1000
0001
0000
0200
0000
0000
0310
1000
0000
0000
,
0200
0000
0000
1300
0000
0001
0010
0000
0100
0010
0000
0000
,
0001
0000
1000
0010
0000
0200
0000
0000
0310
1000
0000
0000
,
0001
0000
0010
0000
0110
0000
1000
0000
0010
0000
0100
0000
,
0102
0000
0000
1003
0000
0000
0001
0010
0001
1000
0100
1000
,
0001
0000
0000
1000
0000
0001
0100
0000
0010
1000
0000
0000
,
0100
0000
0010
0001
0000
0200
0000
0000
1300
0100
0000
0000
,
0010
0000
0000
1000
0000
0001
0010
0000
0100
0010
0000
0000
,
2000
0000
0000
3010
0000
0002
0000
0000
1003
0010
0000
0000
,
0002
0000
0000
0013
0000
0200
0000
0000
0302
0000
0000
0013
,
0100
0000
0000
0110
0000
0000
1000
0000
0100
0000
0000
0020
,
0000
0000
0031
0000
1000
0000
1001
0000
0000
0110
0000
0000
,
1002
0000
0100
0003
0000
0100
0001
0000
0001
0010
0000
0200
,
1000
0000
0000
0010
0000
0000
1000
0000
0000
0310
0000
0001
,
0000
0000
0001
1000
0000
0000
0010
0000
0000
0100
0000
0000
,
0010
0000
0001
0010
0000
1000
0010
0000
0001
0010
0000
1000
,
0020
0000
0000
1030
0000
0100
0000
0000
2002
0000
3003
0000
,
0010
0000
0000
0101
0000
0000
1000
0000
0000
0010
0000
0001
,
0000
0000
0001
0010
0000
0000
0100
0000
0000
0001
0000
0000
,
1000
0000
0010
0100
0000
0010
1000
0000
0010
0100
0000
0010
,
1000
0000
0100
0000
0010
0000
0001
0010
0100
1000
0001
0100
,
0010
0000
0000
1001
0000
1000
0010
0000
0010
1000
0000
1000
,
0001
0000
0001
0010
0000
0010
0001
0000
0001
0010
0000
0010
,
0100
0000
0001
0100
0000
1000
0100
0000
0001
0100
0000
1000
,
0100
0000
0000
0000
0100
0000
0010
0000
0000
0000
0001
0000
0000
0000
0000
0000
0202
0000
0000
0000
0000
0303
0000
0000
,
1000
0000
0000
0101
0000
0000
0010
0000
0000
1000
0000
0001
,
0000
0000
0001
0010
0000
0000
0100
0000
0000
1100
0000
0000
,
0001
0000
0100
1000
0000
0100
0001
0000
0100
1000
0000
0100
,
0001
0000
0010
0000
0100
0000
1000
0001
1000
0001
1000
0001
,
0100
0000
0100
0010
0000
0010
1000
0100
0010
0001
0000
1000
,
0010
0000
1001
0000
0000
2002
0000
0000
0000
0000
0000
0000
,
0000
0000
0000
0000
,
3003
0000
0000
0000
;

//---------------dance-single - ----------------
#NOTEDATA:;
#CHARTNAME:;
#STEPSTYPE:dance-single;
#DESCRIPTION:;
#CHARTSTYLE:;
#DIFFICULTY:Medium;
#METER:10;
#RADARVALUES:0.457842,0.588439,0.252188,0.672502,0.530646,305.000000,281.000000,24.000000,64.000000,0.000000,0.000000,0.000000,0.000000,0.000000,0.457842,0.588439,0.252188,0.672502,0.530646,305.000000,281.000000,24.000000,64.000000,0.000000,0.000000,0.000000,0.000000,0.000000;
#CREDIT:;
#NOTES:
0000
0000
0000
0000
,
0000
0000
0000
0000
,
0000
0000
0000
0000
,
0000
0000
0000
0000
,
0000
0000
0000
0000
,
0000
0000
0000
0000
,
1000
0000
0000
0001
0000
0000
0100
0000
0000
0010
0000
1000
,
0000
0000
1000
0001
0000
0000
0010
0000
0000
0100
0000
0000
,
0010
0000
0001
0010
0000
0000
0100
0000
1000
0100
0000
0000
,
0010
0000
0001
0000
0200
0000
0020
0000
0000
0330
0000
0000
,
0220
0000
0000
0000
,
0330
0000
0000
0000
0000
2002
0000
0000
0000
3003
0000
0000
,
1000
0000
0000
0100
0000
0000
1000
0000
0001
0000
0000
0200
,
0000
0310
1000
0100
,
0010
0000
0000
0100
0000
0000
1000
0000
0001
0000
0000
0020
,
0000
0000
0100
0130
,
0010
0000
0000
0100
0000
0000
1000
0000
0001
0000
0000
0200
,
0000
0000
0310
1000
,
0100
0000
0000
0100
0000
0000
1000
0000
0100
0010
0000
0002
,
0000
0000
2000
0000
,
3003
0000
0000
1001
0000
0000
1000
0000
0001
0000
0000
0200
,
0000
0310
1000
0100
,
0010
0000
0000
0100
0000
0000
1000
0000
0001
0000
0000
0200
,
0000
0000
0310
1000
,
0100
0000
0000
0100
0000
0010
0000
0000
0001
0000
0000
2000
,
0000
0000
0000
3010
0000
0000
0100
0000
0000
0001
0000
0020
,
0000
1000
0000
0031
,
0000
0000
1000
0000
0001
0000
2002
0000
0000
3003
0000
0000
,
0002
0010
2003
0010
,
3200
0000
0000
0010
0000
0000
0310
0000
0001
1000
0000
0000
,
2000
0010
3002
0010
,
0203
0000
0000
0010
0000
0000
0310
0000
1000
0001
0000
0000
,
2002
0000
0000
3003
0000
0000
1000
0000
0000
0100
0000
0020
,
0000
0030
0000
0010
0000
0000
0100
0000
0000
1000
0000
0000
,
0010
0000
0000
0100
0000
0002
0000
0000
0000
0000
0000
0000
,
0013
0000
0100
0010
0000
0001
0000
0000
2000
0000
0000
0000
,
3020
0000
0000
0000
0000
0100
0000
0000
0100
0030
0000
0100
,
0002
0000
0000
0000
0000
0010
0000
0000
0010
0003
0000
0010
,
0200
0000
0000
0000
0000
1000
0000
0000
1000
0300
0000
1000
,
0002
0000
0000
0000
0000
0100
0003
0000
0100
0010
0000
0000
,
2000
0000
0000
0000
0000
0000
3001
0000
0000
0010
0000
0200
,
0000
1300
0001
0100
,
0010
0000
0010
0000
0010
0000
1000
0000
0001
0000
0010
0000
,
0220
0000
0000
0330
,
0000
0000
0010
0000
0000
0020
0000
0000
0000
0030
0000
0000
,
1001
0000
0000
0001
0000
0100
0000
0000
0010
0100
0000
0000
,
0010
0000
0000
0000
0000
2002
0000
0000
0000
3003
0000
0000
,
1000
0000
0000
0001
0000
1000
0000
0000
0100
0010
0000
0000
,
0100
0000
0000
0000
0000
0022
0000
0000
0000
0033
0000
0000
,
1000
0000
0000
0001
0000
0100
0000
0000
0010
1000
0000
0000
,
0100
0000
0000
0000
0000
0220
0000
0000
0000
0330
0000
0000
,
0010
0000
0010
0000
0100
0000
0010
0000
0001
0000
0100
0000
,
0220
0330
1000
0100
,
0210
0000
0000
0000
0000
1300
0000
0000
0001
0000
0000
0000
,
0100
0000
0000
0000
0000
2020
0000
0000
0000
3030
0000
0000
,
0001
0000
0000
1000
0000
0100
0000
0000
0010
0001
0000
0000
,
0100
0000
0000
0000
0000
0220
0000
0000
0000
0330
0000
0000
,
0002
0000
0000
0000
0000
0023
0000
0000
0230
0000
0000
0000
,
1300
0000
0000
0001
0000
0000
0100
0000
0010
0000
0000
2000
,
0000
0000
3001
0000
1000
0000
1001
0000
0000
1001
0000
0000
,
0220
0000
0000
0000
,
0330
0000
0000
1001
0000
0000
0001
0000
0000
0100
0000
0010
,
0000
0000
0010
1000
0000
0000
0100
0000
0000
0100
0000
0000
,
1000
0000
0010
1000
0000
0000
0001
0000
0100
0001
0000
0000
,
1000
0000
0000
0100
0000
0010
0000
0000
0002
0000
0000
0000
,
1003
0000
0000
0001
0000
0000
0100
0000
0000
0010
0000
1000
,
0000
0000
1000
0001
0000
0000
0010
0000
0000
0100
0000
0000
,
0010
0000
0001
0010
0000
0000
0100
0000
1000
0100
0000
0000
,
0010
0000
0001
0000
0200
0000
0020
0000
0000
0330
0000
0000
,
0100
0101
0001
0011
,
0010
0110
0100
1100
,
1000
0000
0100
1000
0000
0000
0100
0000
1000
0100
0000
0000
,
0010
0000
0000
0001
0000
0100
0000
0000
0020
0000
0000
0000
,
1030
0000
0000
0001
0000
0000
0010
0000
0000
0100
0000
0010
,
0000
0000
0010
0001
0000
0000
1000
0000
0000
0001
0000
0000
,
0100
0000
0010
0100
0000
0000
0001
0000
1000
0001
0000
0000
,
1000
0000
0100
0000
0010
0000
0002
0000
0000
1003
0000
0000
,
0001
0000
0000
0100
0000
0000
0010
0100
0010
0200
0000
0000
,
0300
0000
1001
0000
0000
2002
0000
0000
0000
0000
0000
0000
,
0000
0000
0000
0000
,
3003
0000
0000
0000
;

//---------------dance-double - ----------------
#NOTEDATA:;
#CHARTNAME:;
#STEPSTYPE:dance-double;
#DESCRIPTION:;
#CHARTSTYLE:;
#DIFFICULTY:Hard;
#METER:13;
#RADARVALUES:0.597446,0.840628,0.220665,0.683010,0.845881,398.000000,377.000000,21.000000,65.000000,0.000000,0.000000,0.000000,0.000000,0.000000,0.597446,0.840628,0.220665,0.683010,0.845881,398.000000,377.000000,21.000000,65.000000,0.000000,0.000000,0.000000,0.000000,0.000000;
#CREDIT:;
#NOTES:
// measure 0
00000000
00000000
00000000
00000000
,  // measure 1
00000000
00000000
00000000
00000000
,  // measure 2
00000000
00000000
00000000
00000000
,  // measure 3
00000000
00000000
00000000
00000000
,  // measure 4
00000000
00000000
00000000
00000000
,  // measure 5
00000000
00000000
00000000
00000000
,  // measure 6
00001000
00000000
00000000
00010000
00000000
00000000
00000100
00000000
00000000
00000010
00000000
00000001
,  // measure 7
00000000
00000000
00000001
00000100
00000000
00000000
00001000
00000000
00000000
00011000
00000000
00000000
,  // measure 8
00010000
00000000
00000100
00010000
00000000
00001000
00010000
00000000
00000100
00010000
00000000
00001000
,  // measure 9
00010000
00000000
00000100
00000000
00000010
00000000
00000002
00000000
00000000
00001003
00000000
00000000
,  // measure 10
00000220
00000000
00000000
00000000
,  // measure 11
00000330
00000000
00000000
00000000
00000000
00002002
00000000
00000000
00000000
00003003
00000000
00000000
,  // measure 12
00000001
00000000
00000000
00000100
00000000
00000000
00001000
00000000
00010000
00000000
00000000
00002000
,  // measure 13
00000000
00013000
01000000
10000000
,  // measure 14
00100000
00000000
00000000
10000000
00000000
00000000
00010000
00000000
01000000
00000000
00000000
00002000
,  // measure 15
00000000
00000000
00010000
00013000
,  // measure 16
00001000
00000000
00000000
00010000
00000000
00000000
00000100
00000000
00000010
00000000
00000000
00000002
,  // measure 17
00000000
00000000
00000103
00001000
,  // measure 18
00010000
00000000
00000000
00100000
00000000
00000000
10000000
00000000
01000000
00100000
00000000
00002000
,  // measure 19
00000000
00000000
00020000
00000000
,  // measure 20
00033000
00000000
00000000
00011000
00000000
00000000
00010000
00000000
00000100
00000010
00000000
00000002
,  // measure 21
00000000
00000000
00001003
00000010
00000000
00000000
00000100
00000000
00001000
00010000
00000000
00000000
,  // measure 22
00001000
00000000
01000000
00100000
00000000
00000000
10000000
00000000
00010000
00100000
00000000
02000000
,  // measure 23
00000000
00000000
03100000
00001000
00000000
00000000
00010000
00000000
00010000
00001000
00000000
00000000
,  // measure 24
00000100
00000000
00000010
00001000
00000000
00000001
00000000
00000000
00000010
00000000
00000000
00000210
,  // measure 25
00000000
00000000
00001300
00000001
00000000
00000000
00000100
00000000
00001000
00010000
00000000
00002000
,  // measure 26
00000000
00000000
00013000
00000100
00000000
00000000
00010000
00000000
00001000
01000000
00000000
00100000
,  // measure 27
00000000
00000000
10000000
00000000
00010000
00000000
20020000
00000000
00000000
30030000
00000000
00000000
,  // measure 28
20000000
00010000
32000000
00100000
,  // measure 29
03020000
00000000
00000000
01000000
00000000
00000000
00032000
00000000
00000000
00013000
00000000
00001000
,  // measure 30
00020000
00000010
00032000
00010000
,  // measure 31
00003200
00000000
00000000
00000010
00000000
00000000
00000301
00000000
00000010
00000100
00000000
00000000
,  // measure 32
00002002
00000000
00000000
00003003
00000000
00000000
00001000
00000000
00000000
00000001
00000000
00000200
,  // measure 33
00000000
00000000
00000310
00001000
00000000
00000000
00000100
00000000
00010000
00001000
00000000
00000000
,  // measure 34
01000000
00000000
00000000
00100000
00000000
20000000
00000000
00000000
30010000
00100000
00000000
00000000
,  // measure 35
01000000
00000000
00100000
00001000
00000000
00010000
00000000
00000000
00022000
00000000
00033000
00000000
,  // measure 36
00002000
00000000
00000000
00023000
00000000
00000100
00000000
00000000
00000100
00030000
00000000
00000100
,  // measure 37
00000020
00000000
00000000
00000032
00000000
00000100
00000000
00000000
00000100
00000003
00000000
00001000
,  // measure 38
00020000
00000000
00000000
02030000
00000000
00100000
00000000
00000000
00100000
03000000
00000000
00100000
,  // measure 39
00002000
00000000
00000000
00023000
00000000
00000100
00000000
00000000
00030100
00000010
00000000
00000000
,  // measure 40
00001002
00000000
00000000
00000103
00000000
00000000
00000020
00000000
00000000
00010030
00000000
00002000
,  // measure 41
00000000
00000000
00103000
00010000
00000000
00000000
10000000
00000000
00000000
00100000
00000000
00000000
,  // measure 42
00010000
00000000
00001000
00000000
00000100
00000000
00000001
00000000
00000010
00000000
00001000
00000000
,  // measure 43
00022000
00000000
00000000
00000000
,  // measure 44
00033000
00000000
00001000
00000000
00000000
00002000
00000000
00000000
00000000
00013000
00000000
00000000
,  // measure 45
00021000
00000000
00000000
00030100
00000000
00000010
00000001
00000000
00000100
00000010
00000000
00000000
,  // measure 46
00000100
00000000
00001000
00010000
00000000
00002000
00000000
00000000
00103000
00010000
00000000
00000000
,  // measure 47
10000000
00000000
00000000
00010000
00000000
01000000
00100000
00000000
10000000
01000000
00000000
00000000
,  // measure 48
00100000
00000000
00001000
00010000
00000000
00000200
00000000
00000000
00010300
00001000
00000000
00000000
,  // measure 49
00010000
00000000
00000000
00000100
00000000
00000010
00001000
00000000
00010000
01000000
00000000
00000000
,  // measure 50
00100000
00000000
00000000
00010000
00000000
20000000
00000000
00000000
30100000
01000000
00000000
00000000
,  // measure 51
00100000
00000000
00010000
00000000
00001000
00000000
00010000
00000000
01000000
00000000
00010000
00000000
,  // measure 52
00002000
00000000
00000000
00013000
00000000
00000000
00001000
00010000
00000100
00000010
00000001
00001000
,  // measure 53
00000001
00000000
00000000
00000100
00000000
00001000
00010000
00000000
00001000
01000000
00000000
00000000
,  // measure 54
00200000
00000000
00000000
10300000
00000000
00020000
00000000
00000000
10030000
01000000
00000000
00000000
,  // measure 55
00200000
00000000
00000000
00301000
00000000
00010000
00001000
00000000
00000100
00000010
00000000
00000000
,  // measure 56
00000002
00000000
00000000
00000013
00000000
00002000
00000000
00000000
00003100
00000010
00000000
00000000
,  // measure 57
00000002
00000000
00000000
00000013
00000000
00002000
00000000
00000000
00023000
00000000
00000000
01030000
,  // measure 58
10000000
00000000
00000000
10010000
00000000
00000000
10000000
00000000
00100000
00000000
00000000
02000000
,  // measure 59
00000000
00000000
00001000
00000000
03001000
00000000
01001000
00000000
00000000
00011000
00000000
00000000
,  // measure 60
00010200
00000000
00001000
00000000
00000000
00001300
00000001
00000000
00000001
00000010
00000000
00000200
,  // measure 61
00001000
00000000
00000000
00000010
00000000
00000000
00001000
00000000
00000000
00000310
00000000
00000001
,  // measure 62
00000000
00000000
00000001
00000100
00000000
00000000
00001000
00000000
00000000
00010000
00000000
00000000
,  // measure 63
00001000
00000000
00000100
00001000
00000000
00010000
00001000
00000000
00000100
00001000
00000000
00010000
,  // measure 64
00100000
00000000
00000000
10000000
00000000
01000000
00000000
00000000
20020000
00000000
00000000
30030000
,  // measure 65
00010000
00000000
00000000
10000000
00000000
00000000
00100000
00000000
00000000
01000000
00000000
00010000
,  // measure 66
00000000
00000000
00010000
00100000
00000000
00000000
01000000
00000000
00000000
00010000
00000000
00000000
,  // measure 67
00001000
00000000
00000010
00001000
00000000
00010000
00001000
00000000
00000010
00001000
00000000
00010000
,  // measure 68
00001000
00000000
00000010
00000000
00000001
00000000
00000100
00000010
00001000
00000100
00010000
00001000
,  // measure 69
00010000
00000000
00000000
00011000
00000000
00001000
01000000
00000000
01000000
00001000
00000000
00001000
,  // measure 70
00010000
00000000
00010000
00000100
00000000
00000100
00010000
00000000
00010000
00000100
00000000
00000100
,  // measure 71
00000010
00000000
00000001
00000010
00000000
00001000
00000010
00000000
00000001
00000010
00000000
00001000
,  // measure 72
00010000
00000000
00010000
01000000
00000000
00100000
00000000
00000000
20020000
00000000
30030000
00000000
,  // measure 73
10000000
00000000
00000000
00010000
00000000
00000000
01000000
00000000
00000000
00100000
00000000
00010000
,  // measure 74
00000000
00000000
00010000
00001000
00000000
00000000
00000010
00000000
00000000
00000110
00000000
00000000
,  // measure 75
00000100
00000000
00000001
00000100
00000000
00001000
00000100
00000000
00000001
00000100
00001000
00000000
,  // measure 76
00000010
00000000
00000100
00000000
00000001
00000000
00000010
00000100
00000010
00000001
00001000
00000010
,  // measure 77
00000100
00000000
00000100
00001000
00000000
00001000
00010000
00100000
10000000
00010000
00000000
10000000
,  // measure 78
01000000
00000000
00110000
00000000
00000000
00022000
00000000
00000000
00000000
00000000
00000000
00000000
,  // measure 79
00000000
00000000
00000000
00000000
,  // measure 80
00033000
00000000
00000000
00000000
;
