#TITLE:KIKO;
#SUBTITLE:;
#ARTIST:Panda Eyes;
#TITLETRANSLIT:;
#SUBTITLETRANSLIT:;
#ARTISTTRANSLIT:;
#GENRE:;
#CREDIT:;
#BANNER:KIKO.png;
#BACKGROUND:KIKO-bg.png;
#LYRICSPATH:;
#CDTITLE:;
#MUSIC:KIKO.ogg;
#OFFSET:0.000000;
#SAMPLESTART:17.462999;
#SAMPLELENGTH:17.454000;
#SELECTABLE:YES;
#BPMS:0.000000=110.000000
,94.000000=55.000000
,96.000000=110.000000
,136.000000=111.500000
,140.000000=110.624001
,140.500000=111.874001
,141.000000=113.124001
,141.500000=114.374001
,142.000000=115.624001
,142.500000=116.874001
,143.000000=118.124001
,143.500000=119.374001
,144.000000=120.624001
,144.500000=121.874001
,145.000000=123.123993
,145.500000=124.374001
,146.000000=125.624001
,146.500000=126.873993
,147.000000=128.123993
,147.500000=129.373993
,148.000000=130.623993
,148.500000=131.873993
,149.000000=133.123993
,149.500000=134.373993
,150.000000=135.623993
,150.500000=136.873993
,151.000000=138.123993
,151.500000=139.373993
,152.000000=141.069000
,152.500000=143.212006
,153.000000=145.354996
,153.500000=147.496994
,154.000000=149.639999
,154.500000=151.783005
,155.000000=153.925995
,155.500000=156.069000
,156.000000=158.212006
,156.500000=160.354996
,157.000000=162.498001
,157.500000=164.641006
,158.000000=166.783005
,158.500000=168.925995
,159.000000=170.000000
,168.000000=85.000000
,169.000000=170.000000
,202.000000=85.000000
,204.000000=170.000000
,232.000000=85.000000
,233.500000=170.000000
,262.000000=85.000000
,263.500000=170.000000
,290.000000=85.000000
;
#STOPS:31.000000=-0.477273,
31.875000=0.477000,
63.000000=-0.477273,
63.875000=0.477000,
92.000000=0.273000,
93.000000=0.273000,
94.000000=0.545000,
168.979172=0.184000,
169.000000=-0.308824,
169.875000=0.485000,
233.500000=0.176000,
263.500000=0.176000,
291.000000=-3.529412
;
#BGCHANGES:;
#KEYSOUNDS:;
#ATTACKS:;

//---------------dance-single - ----------------
#NOTES:
     dance-single:
     :
     Hard:
     13:
     0.446219,0.621905,0.252124,0.406199,0.381687,446.000000,410.000000,36.000000,58.000000,0.000000,0.000000,0.446219,0.621905,0.252124,0.406199,0.381687,446.000000,410.000000,36.000000,58.000000,0.000000,0.000000:
0000
0000
0000
0000
,
0000
0000
0000
0000
,
0000
0000
0000
0000
,
0000
0000
0000
0000
,
0002
0000
0000
0000
,
0203
0000
0000
0000
,
0320
0000
0000
0000
,
2030
0000
0000
3000
,
1001
0000
0000
0000
0001
1000
0010
0100
0000
0001
0010
0100
0000
1000
0010
0100
,
0002
0000
0000
0000
1003
0001
0010
0100
0000
1000
0010
0100
0000
0001
0010
0100
,
2000
0000
0000
0000
3001
0100
0010
1000
0000
0100
0010
0001
0000
0100
0010
1000
,
0200
0000
0000
0000
1300
0001
0100
0001
0000
1000
0100
1000
0000
0001
0100
0001
,
0020
0000
0000
0000
0031
1000
0001
0010
0000
0001
1000
0010
0000
1000
0001
0010
,
0002
0000
0000
0000
1003
0001
1000
0100
0000
1000
0001
0100
0000
0001
1000
0100
,
2000
0000
0000
0000
3001
0100
0001
0010
0000
0100
1000
0010
0000
0100
0001
0010
,
0200
0000
0000
0000
1300
0010
1000
0100
0000
0010
0001
0100
0000
0000
0000
0000
,
0201
0000
0000
0000
0320
0000
0000
0000
1030
0010
0100
0001
0000
0010
0100
1000
,
0002
0000
0103
0200
2300
0000
3200
0310
,
0220
0000
0300
0000
2030
0000
0000
0000
3001
0100
0010
1000
0000
0100
0010
0001
,
0200
0000
0000
0000
0302
0000
0000
0000
0013
0100
1000
0010
0000
0100
0001
0010
,
0200
0000
0300
0000
2002
0000
0003
0000
3001
0010
0100
1000
0000
0010
0100
0001
,
2000
0000
3100
0200
0302
0000
0203
0310
,
0220
0000
0300
0000
0002
0000
0003
0000
0031
0100
0010
1000
0000
0100
0010
0001
,
2000
3000
0000
0000
1000
0000
0000
0000
0020
0030
0000
0000
0010
0000
0000
0000
0200
0300
0000
0000
0000
0000
0000
0000
0000
0000
0000
0000
0000
0000
0000
0000
,
0022
0000
0003
0000
0130
0010
0001
0010
0000
0010
1000
0010
0000
0010
0001
0010
,
0200
0000
0000
0000
0310
0100
1000
0100
0000
0100
0001
0100
0000
0100
1000
0100
,
2000
0000
0000
0000
3010
0100
0001
0100
0000
0100
1000
0100
0000
0100
0001
0100
,
0002
0000
0000
0000
1003
0010
1000
0100
0000
0100
1000
0010
0000
0010
1000
0100
,
0020
0000
0000
0000
0031
0010
0001
0100
0000
0100
0001
0010
0000
0010
0001
0100
,
0002
0000
0000
0000
1003
0001
0100
1000
0000
1000
0100
0001
0000
0001
0100
0010
,
2000
0000
0000
0000
3001
1000
0100
0001
0000
0001
0100
1000
0000
1000
0100
0010
,
0002
0000
0000
0000
,
0203
0000
0000
0000
,
0320
0000
0000
0000
,
2030
0000
0000
0000
,
3002
0000
0000
0000
,
0203
0000
0000
0000
,
0320
0000
0000
0000
,
2030
0000
0000
0000
,
3002
0000
0000
0000
,
0203
0000
0000
0000
,
0320
0000
0000
0030
,
0000
0000
1000
0100
0000
0000
0000
0000
0011
0000
0000
0000
0001
0000
0100
0000
,
0010
0100
0001
0000
1010
0000
1000
0100
,
0010
0100
1000
0000
0011
0000
1000
0100
,
0001
0100
0010
0000
1001
0000
0001
0100
,
1000
0100
0010
0000
1001
0000
0001
0010
,
1000
0010
0001
0000
1001
0000
1000
0010
,
0001
0010
1000
0000
0110
0000
0001
0100
,
0010
1000
0100
0000
0110
0000
1000
0100
,
0010
0001
0100
0000
0000
0000
0000
0000
,
1010
0000
1100
0000
1000
0100
0001
0000
,
0101
0000
1100
0000
0100
1000
0010
0000
,
1010
0000
0011
0000
0001
0010
1000
0000
,
0101
0000
0011
0000
0001
0010
1000
0000
,
1010
0000
0011
0000
0010
0001
0100
0000
,
0101
0000
1100
0000
1000
0100
0001
0000
,
0011
0000
1010
0000
0010
0001
0100
0000
,
0000
0000
0000
0000
0001
0100
0010
0100
,
1000
0100
0001
0000
1000
0100
0010
0100
,
0001
0100
1000
0000
0001
0100
1000
0100
,
0002
1003
0001
0011
,
1000
0000
1010
0000
0001
0010
0100
0010
,
1000
0010
0001
0000
1000
0010
0100
0010
,
0001
0010
1000
0000
0001
0010
1000
0010
,
0200
1300
0002
0003
,
0001
0010
0100
1000
0010
0000
0110
0000
,
1000
0010
0100
0001
0010
0000
0110
0000
,
0001
0010
1000
0010
0100
0000
1100
0000
,
1000
1010
0001
0011
,
1000
0010
0100
1000
0100
0000
0101
0000
,
0001
0100
0010
0010
1000
0100
0010
0010
,
0001
0001
1000
1000
0200
0000
0000
0000
,
0000
0000
0000
0000
,
0300
0000
0000
0000
;

//---------------dance-single - ----------------
#NOTES:
     dance-single:
     :
     Challenge:
     15:
     0.509250,0.725556,0.280138,0.462227,0.378186,509.000000,469.000000,40.000000,66.000000,2.000000,0.000000,0.509250,0.725556,0.280138,0.462227,0.378186,509.000000,469.000000,40.000000,66.000000,2.000000,0.000000:
// measure 0
0000
0000
0000
0000
,  // measure 1
0000
0000
0000
0000
,  // measure 2
0000
0000
0000
0000
,  // measure 3
0000
0000
0000
0000
,  // measure 4
2000
0000
0000
0000
,  // measure 5
3200
0000
0000
0000
,  // measure 6
0320
0000
0000
0000
,  // measure 7
0032
0000
0000
0003
,  // measure 8
1001
0000
0000
0000
1000
0010
0100
0100
1000
0010
0100
0100
1000
0010
0100
0100
,  // measure 9
2000
0000
0000
0000
3001
0010
0100
0100
0001
0010
0100
0100
0001
0010
0100
0100
,  // measure 10
0002
0000
0000
0000
0103
0010
1000
1000
0100
0010
1000
1000
0100
0010
1000
1000
,  // measure 11
0200
0000
0000
0000
0301
0100
0010
0010
0001
0100
0010
0010
0001
0100
0010
0010
,  // measure 12
0002
0000
0000
0000
1003
0001
0010
0010
1000
0001
0010
0010
1000
0001
0010
0010
,  // measure 13
2000
0000
0000
0000
3001
1000
0100
0100
0001
1000
0100
0100
0001
1000
0100
0100
,  // measure 14
0002
0000
0000
0000
0013
0100
0001
0001
0010
0100
0001
0001
0010
0100
0001
0001
,  // measure 15
2000
0000
0000
0000
3010
1000
0100
0100
0010
1000
0100
0100
0000
0000
0000
0000
,  // measure 16
0022
0000
0003
0000
2000
0000
3000
0000
0031
0010
0100
1000
0001
0010
0100
1000
,  // measure 17
0002
0000
0103
020M
2300
0000
3200
0310
,  // measure 18
0220
0000
0300
0000
2000
0000
3000
0000
0130
1000
0001
0100
0010
1000
0001
0010
,  // measure 19
0200
0000
0000
0000
0002
0000
0003
0000
0310
0001
1000
0010
0100
0001
1000
0100
,  // measure 20
0020
0000
0030
0000
2002
0000
3000
0000
1003
0010
0100
0001
1000
0010
0100
0001
,  // measure 21
2000
0000
3100
M200
0302
0000
0203
0310
,  // measure 22
0220
0000
0330
0000
2020
0000
3030
0000
1000
0100
0010
0001
0100
0010
1000
0000
,  // measure 23
0022
0033
0000
0000
0100
0000
0000
0000
0220
0330
0000
0000
1000
0000
0000
0000
2200
3300
0000
0000
0000
0000
0000
0000
0000
0000
0000
0000
0000
0000
0000
0000
,  // measure 24
2020
0000
3000
0000
1030
0010
0001
0001
1000
0010
0001
0001
1000
0010
0001
0001
,  // measure 25
2000
0000
0000
0000
3001
0100
1000
1000
0001
0100
1000
1000
0001
0100
1000
1000
,  // measure 26
0002
0000
0000
0000
1003
0100
0001
0001
1000
0100
0001
0001
1000
0100
0001
0001
,  // measure 27
2000
0000
0000
0000
3001
0010
0100
0100
0001
0010
0100
0100
0001
0010
0100
0100
,  // measure 28
0020
0000
0000
0000
1030
0010
0100
0100
1000
0010
0100
0100
1000
0010
0100
0100
,  // measure 29
2000
0000
0000
0000
3001
1000
0100
0100
0001
1000
0100
0100
0001
1000
0100
0100
,  // measure 30
0002
0000
0000
0000
1003
0001
0100
0100
1000
0001
0100
0100
1000
0001
0100
0100
,  // measure 31
2000
0000
0000
0000
,  // measure 32
3200
0000
0000
0000
,  // measure 33
0320
0000
0000
0000
,  // measure 34
0032
0000
0000
0000
,  // measure 35
2003
0000
0000
0000
,  // measure 36
3200
0000
0000
0000
,  // measure 37
0320
0000
0000
0000
,  // measure 38
0032
0000
0000
0000
,  // measure 39
2003
0000
0000
0000
,  // measure 40
3200
0000
0000
0000
,  // measure 41
0320
0000
0000
0030
,  // measure 42
0000
0000
0001
0100
0000
0000
0000
0000
1010
0000
0000
0000
1000
0000
0100
0000
,  // measure 43
0001
0100
1000
0001
0011
0000
0001
0100
,  // measure 44
1000
0100
0001
1000
1010
0000
0001
0010
,  // measure 45
1000
0010
0100
1000
1001
0000
1000
0010
,  // measure 46
0001
0010
0100
0001
1001
0000
1000
0010
,  // measure 47
0001
0010
1000
0100
0110
0000
0001
0010
,  // measure 48
1000
0010
0001
0100
0110
0000
1000
0100
,  // measure 49
0001
0010
1000
0000
0110
0000
0001
0100
,  // measure 50
1000
0010
0001
0000
0000
0000
0000
0000
,  // measure 51
0011
0000
1010
0000
0001
0100
1000
0100
,  // measure 52
0101
0000
1100
0000
1000
0010
0001
0010
,  // measure 53
1010
0000
0011
0000
1000
0100
0001
0100
,  // measure 54
1100
0000
0101
0000
0100
0001
0010
0001
,  // measure 55
0101
0000
1100
0000
0100
1000
0001
1000
,  // measure 56
1010
0000
0011
0000
0010
0001
0100
0001
,  // measure 57
0011
0000
1010
0000
0010
1000
0100
0000
,  // measure 58
0000
0000
0000
0000
1000
0010
0100
0010
,  // measure 59
0001
0010
1000
0100
0001
0100
0010
0100
,  // measure 60
1000
0001
1000
1000
0001
0010
1000
0010
,  // measure 61
0001
0100
0010
0100
0002
0000
0103
0000
,  // measure 62
2000
0000
3100
1000
0001
0010
0100
0010
,  // measure 63
1000
0010
0001
0001
1000
0010
0001
0010
,  // measure 64
1000
0001
1000
1000
0001
0100
1000
0100
,  // measure 65
0001
0010
0100
0100
2000
0000
3000
0000
,  // measure 66
1000
0010
0100
0001
0010
0100
0110
0000
,  // measure 67
0001
0010
0100
1000
0010
0100
0101
0001
,  // measure 68
1000
0010
0001
0010
0100
0000
0110
0000
,  // measure 69
0002
0000
0013
0000
2000
0000
3010
0010
,  // measure 70
0100
0001
0010
1000
0010
0100
0100
0000
,  // measure 71
1000
0010
1010
1000
0001
0010
0011
0001
,  // measure 72
1001
0010
0110
1000
2002
0000
0000
0000
,  // measure 73
0000
0000
0000
0000
,  // measure 74
3003
0000
0000
0000
;
