#TITLE:Jurassic Park;
#SUBTITLE:;
#ARTIST:Stand Atlantic;
#TITLETRANSLIT:;
#SUBTITLETRANSLIT:;
#ARTISTTRANSLIT:;
#GENRE:;
#CREDIT:;
#BANNER:Jurassic Park.png;
#BACKGROUND:Jurassic Park-bg.png;
#LYRICSPATH:;
#CDTITLE:;
#MUSIC:Jurassic Park.ogg;
#OFFSET:1.690419;
#SAMPLESTART:49.192188;
#SAMPLELENGTH:19.793819;
#LASTBEATHINT:1.065581;
#SELECTABLE:YES;
#DISPLAYBPM:97.000000;
#BPMS:0.000000=97.000000
,144.000000=48.500000
,145.500000=194.000000
,146.000000=97.000000
;
#STOPS:145.500000=0.464000
;
#BGCHANGES:;
#KEYSOUNDS:;
#ATTACKS:;

//---------------dance-single - ----------------
#NOTES:
     dance-single:
     :
     Hard:
     13:
     0.567938,0.535123,0.392880,0.177731,0.785759,425.000000,383.000000,42.000000,19.000000,0.000000,0.000000,0.567938,0.535123,0.392880,0.177731,0.785759,425.000000,383.000000,42.000000,19.000000,0.000000,0.000000:
0000
0000
0000
0000
,
0000
0000
0000
0000
,
0000
0000
0000
0000
,
0000
0000
0000
0000
,
0000
0000
0000
0000
0000
0000
0000
0000
0000
0000
0001
1000
1100
0000
0100
0010
,
0011
0000
0000
0001
1000
0010
0000
0110
0000
0000
0101
0000
0001
0010
0000
1000
,
0010
0000
0100
0010
0100
1000
0000
1010
0000
0000
0110
0000
0100
0001
0010
0001
,
1000
0000
0000
1000
0001
0010
0000
0110
0000
0000
1100
0000
1000
0010
0000
0001
,
0010
0000
0100
0010
0100
0001
0000
0011
0000
0000
1010
0000
2001
0000
0000
0000
,
3100
0000
0100
0000
1000
0000
0010
1000
0010
0000
0010
0100
0010
0000
0100
0000
,
0001
0000
0001
0000
0010
0000
0100
0010
0100
0000
0100
1000
0100
0000
0010
0000
,
0001
0000
1000
0001
1000
0100
0020
0001
0000
0000
0001
0000
0100
0000
0130
0000
,
1000
0000
0001
1000
0001
0100
0020
1000
0000
0000
1030
0100
0110
0000
0010
0001
,
1001
0000
1000
0001
0100
0001
0000
0010
0100
0000
0012
0000
0103
0000
0010
1000
,
0001
0000
0001
1000
0100
1000
0000
1000
0010
0000
0100
0010
0100
0000
0001
1000
,
0100
0000
0010
0100
0010
0001
1000
0010
0000
0010
0200
0000
0301
0000
1000
0001
,
0010
0001
1000
0001
1000
0010
0100
0010
0000
0010
1000
0000
0101
0000
0001
1000
,
0100
0000
0000
0100
0020
0001
0000
0031
1000
0000
0020
0000
0130
0000
0010
0000
,
1000
0000
0001
1000
0001
0010
0000
0001
0000
1000
0100
1000
0001
0100
0000
0010
,
0100
0000
0000
0100
0020
1000
0000
1030
0001
0000
0010
0000
0220
0000
0000
0000
,
0000
0000
0000
0000
0000
0000
0000
0000
0330
0000
1000
0001
0110
0000
0010
0100
,
1001
0000
0000
1000
0010
0100
0000
0101
0000
0000
0011
0000
0010
0100
0000
0010
,
0001
0000
1000
0010
1000
0001
0000
0011
0000
0000
0110
0000
0100
0001
0100
1000
,
0001
0000
0000
0001
0010
0100
0000
1100
0000
0000
1010
0000
0010
0100
0000
0010
,
1000
0000
0001
0010
0001
1000
0000
1010
0000
0010
0100
0001
0010
1000
0010
0001
,
1000
0000
0001
0100
0001
0010
0000
0010
0002
0000
0100
0000
2003
0000
0010
0000
,
3001
0000
1000
0100
1000
0010
0000
0010
0100
0001
0000
0001
0100
1000
0000
1000
,
0100
0000
0010
0100
0001
0100
0000
0011
0000
0000
1100
0000
2000
0000
0000
0000
,
3001
0000
0100
0000
0100
0010
0000
0100
0000
0100
0010
0100
0010
0000
1000
0000
,
0100
0000
0010
0001
0010
0100
0000
0010
0000
0010
0001
0010
0001
0100
0000
0000
,
0000
0000
0010
1000
0010
0100
0000
0010
0000
0010
1000
0100
0110
0000
0010
0001
,
1001
0000
0000
1000
0010
1000
0000
0120
0000
0000
1030
0000
0001
1000
0100
0000
,
0110
0000
0000
0010
0001
0010
0000
0120
0000
0000
0031
0000
1000
0001
0100
0001
,
1000
0000
0000
1000
0100
1000
0000
1020
0000
0000
0130
0000
0001
0000
0001
1000
,
0100
0000
0000
0010
0001
0010
0000
0010
0100
0000
1000
0000
0010
0000
0100
0000
,
1001
0000
0000
0000
0000
0000
0000
0000
0000
0001
0000
0000
0010
0000
0000
0000
0000
0000
0010
0000
0000
0100
0000
0000
0000
0000
0000
0001
0000
0000
0100
0000
0000
0000
0000
0000
1000
0000
0000
0000
0000
0000
0001
0000
0100
0000
0010
0000
,
1000
0000
0000
0000
0000
0000
0110
0000
1001
0000
0000
1000
0100
0010
0000
0011
,
0000
0000
1100
0000
1000
0010
0000
0001
0010
0000
0100
0010
0100
0001
0000
0101
,
0000
0100
0010
1000
0100
0001
0100
1000
0001
0000
0100
0001
0100
0010
0000
0010
,
2000
0000
0100
0000
3002
0000
0010
0000
1003
0000
0001
0010
0100
1000
0000
1000
,
0010
0001
0000
0001
0010
1000
0000
1000
0100
0000
1000
0010
1000
0001
0000
0011
,
0000
0000
0110
0000
1001
0000
0001
0000
0020
0000
0100
0000
0100
0000
0000
0031
,
0000
1000
0010
1000
0001
0010
0100
0000
0000
0000
0000
0000
0000
0000
0000
0000
;

//---------------dance-single - ----------------
#NOTES:
     dance-single:
     :
     Beginner:
     1:
     0.106906,0.137508,0.056126,0.000000,0.000000,80.000000,74.000000,6.000000,0.000000,0.000000,0.000000,0.106906,0.137508,0.056126,0.000000,0.000000,80.000000,74.000000,6.000000,0.000000,0.000000,0.000000:
0000
0000
0000
0000
,
0000
0000
0000
0000
,
0000
0000
0000
0000
,
0000
0000
0000
0000
,
0000
0000
0000
0000
,
1001
0000
0010
0000
,
1000
0000
0001
0000
,
0100
0000
0010
0000
,
1000
0000
0001
0000
,
1000
0000
0000
0000
,
0010
0000
0000
0000
,
0100
0000
0000
0000
,
0001
0000
0000
1001
,
1000
0000
0010
0000
,
0100
0000
0010
0010
,
0010
0000
1000
0000
,
0001
0000
0100
0100
,
0100
0000
0100
0000
,
0100
0000
0000
0000
,
0010
0000
0010
0000
,
0010
0000
0000
0000
,
1001
0000
1000
0000
,
0010
0000
0001
0000
,
0100
0000
0010
0000
,
1000
1000
1000
0000
,
1001
0000
0001
0000
,
0010
0000
0001
0000
,
1000
0000
0100
0000
,
0100
0000
0000
0000
,
1000
0000
0000
0000
,
0001
0000
0000
1001
,
0001
0000
1000
0000
,
0010
0000
0000
0000
,
0010
0000
1000
0000
,
0001
0001
0001
0000
,
1000
0000
0001
0000
,
0100
0000
1001
0000
,
0001
0000
1000
1000
,
1000
0000
0010
0000
,
0100
0000
0010
0010
,
0010
0000
1000
0000
,
0100
0100
0100
0000
,
0010
0000
0000
0000
;

//---------------dance-single - ----------------
#NOTES:
     dance-single:
     :
     Easy:
     5:
     0.197776,0.237131,0.037417,0.046771,0.000000,148.000000,144.000000,4.000000,5.000000,0.000000,0.000000,0.197776,0.237131,0.037417,0.046771,0.000000,148.000000,144.000000,4.000000,5.000000,0.000000,0.000000:
// measure 0
0000
0000
0000
0000
,  // measure 1
0000
0000
0000
0000
,  // measure 2
0000
0000
0000
0000
,  // measure 3
0000
0000
0000
0000
,  // measure 4
0000
0000
0000
0000
,  // measure 5
1000
0010
1000
1000
,  // measure 6
0001
0010
0001
0001
,  // measure 7
0100
0001
1000
0001
,  // measure 8
0010
0000
0100
0000
0100
0100
0100
0000
,  // measure 9
0010
0000
0001
0010
,  // measure 10
0100
0000
1000
0010
,  // measure 11
0100
0000
0010
0100
,  // measure 12
0010
0000
1000
1001
,  // measure 13
0001
1000
0010
0010
,  // measure 14
0100
0001
1000
1000
,  // measure 15
0100
0010
0001
1000
,  // measure 16
0010
0000
0100
0000
0010
0010
0010
0000
,  // measure 17
2000
0010
0010
0001
,  // measure 18
3002
0000
0100
0000
,  // measure 19
0023
0100
0230
1000
,  // measure 20
1300
0000
0000
1001
,  // measure 21
0001
0010
0001
0001
,  // measure 22
0000
1000
1000
0000
0001
0001
0001
0000
,  // measure 23
0010
0100
1000
0001
,  // measure 24
0000
0001
0001
0000
1000
1000
1000
0000
,  // measure 25
0010
0100
0010
0010
,  // measure 26
2000
0000
0100
3001
,  // measure 27
0100
0010
1000
0001
,  // measure 28
1000
0000
0000
0000
,  // measure 29
0000
1000
0001
0000
1000
0001
1000
0000
,  // measure 30
0000
0001
1000
0000
0001
1000
0001
0000
,  // measure 31
0110
0000
0100
0001
,  // measure 32
0010
0000
0010
0000
0100
0010
0100
0000
,  // measure 33
1000
0000
0001
0001
,  // measure 34
1000
0010
0100
0001
,  // measure 35
0001
0000
0010
0010
0000
0000
0010
0000
,  // measure 36
0100
0000
1001
0001
,  // measure 37
1000
0010
0000
0010
,  // measure 38
1000
0001
1000
0000
0100
0000
0010
0000
,  // measure 39
0100
0010
0001
0010
,  // measure 40
0100
0010
0100
0000
1000
0000
0010
0000
,  // measure 41
0010
0100
0100
0001
,  // measure 42
1000
0001
1000
0000
0000
0000
0000
0000
;

//---------------dance-single - ----------------
#NOTES:
     dance-single:
     :
     Medium:
     9:
     0.347444,0.356749,0.084188,0.046771,0.135637,260.000000,251.000000,9.000000,5.000000,0.000000,0.000000,0.347444,0.356749,0.084188,0.046771,0.135637,260.000000,251.000000,9.000000,5.000000,0.000000,0.000000:
0000
0000
0000
0000
,
0000
0000
0000
0000
,
0000
0000
0000
0000
,
0000
0000
0000
0000
,
0000
0000
0000
0000
0000
0001
1000
0001
,
1001
0000
0000
1000
0010
0000
0100
0000
0010
0000
1000
0000
0100
0000
0010
0000
,
0001
0000
0000
0001
0010
0000
0100
0000
0010
0000
0001
0000
1000
0000
0010
0000
,
0100
0000
0000
0100
0001
0000
1000
0000
0100
0000
1000
0000
0001
0000
0100
0000
,
0010
0000
0000
0010
1000
0000
0001
0000
0010
0000
0001
0000
0200
0000
0000
0000
,
0301
0000
1000
0000
0100
1000
0100
0000
,
1000
0000
0001
0000
0100
0001
0100
0000
,
0010
0000
1000
0000
1000
0001
0010
0001
,
1000
0000
0001
0000
0001
0100
0010
0100
,
0001
0000
1000
0000
0100
0000
0000
0000
0010
0000
0000
0010
0000
0000
0010
0000
,
0100
0000
1000
0000
0001
0000
0000
0000
0100
0000
0000
0100
0000
0000
0100
0000
,
0010
0100
0001
0001
0000
1000
1000
0100
,
0000
0100
1000
0001
0000
0100
0010
1000
,
0001
0021
0130
2010
,
0001
0000
0010
0000
0100
0100
3100
0000
,
0010
0102
1003
2100
,
3001
0000
0000
0000
0000
1000
1000
0010
,
0110
0000
0000
0100
0001
0000
1000
0000
0001
0000
0010
0000
0100
0000
0000
0000
,
0010
0000
0100
0000
0100
0000
0000
0010
0000
0000
0010
0000
0001
0000
1000
0000
,
0001
0000
0000
0001
0010
0000
0001
0000
1000
0000
0010
0000
0100
0000
0000
0000
,
0010
0000
1000
0000
1000
0000
0000
0001
0000
0000
0001
0000
0010
0000
0100
0000
,
1000
0000
0000
1000
0010
0000
1000
0000
0100
0000
0001
0000
0100
0000
0000
0000
,
0010
0000
0001
0000
1000
0000
0000
0000
0001
0000
0000
1000
0000
0000
0010
0000
,
0100
0000
0000
0100
0001
0000
1000
0000
0100
0000
1000
0000
0001
0000
0000
0000
,
0010
0000
0100
0000
0010
0010
0001
1000
,
0000
0000
0010
0000
1000
0000
0000
0010
0000
0000
0010
0000
1000
0000
0000
0000
,
0000
0000
0001
0000
0010
0000
0000
0001
0000
0000
0001
0000
0010
0000
0100
0000
,
1001
0000
0000
1000
0010
0000
1000
0000
0001
0000
1000
0000
0100
0000
0010
0000
,
0001
0000
0000
0001
1000
0000
0001
0000
0010
0000
0100
0000
0010
0000
0001
0000
,
0100
0000
0000
0100
0001
0000
1000
0000
0010
0000
1000
0000
0001
0000
0010
0000
,
0100
0000
0000
0100
1000
0000
0001
0000
1000
0000
0010
0000
0010
0000
0100
0000
,
0001
0000
0000
0001
1000
0000
1000
0000
0000
1000
0001
0000
1000
0000
0100
0010
,
0100
0000
0000
0000
0000
0000
0110
0000
1001
0000
0000
0001
0010
0000
0100
0000
,
0010
0000
0100
0000
1000
0000
0001
0000
1000
0000
0001
0000
0001
0000
0000
0010
,
0000
0000
0010
0000
0001
0000
1000
0000
0100
0000
0000
0100
1000
0000
0001
0000
,
1000
0000
0010
0000
0100
0000
0001
0000
0100
0000
0000
0100
0001
0000
1000
0000
,
0010
0000
0000
1000
0000
0000
0001
0000
0010
0000
0000
0010
0001
0000
1000
0000
,
0001
0000
0100
0000
0010
0000
1000
0000
0001
0000
0010
0000
0010
0000
0000
0100
,
0000
0100
0010
0001
0000
0000
0000
0000
;
