#TITLE:情操ディストピア;
#SUBTITLE:;
#ARTIST:mami;
#TITLETRANSLIT:Jousou dystopia;
#SUBTITLETRANSLIT:;
#ARTISTTRANSLIT:;
#GENRE:;
#CREDIT:;
#MUSIC:Jousou dystopia.ogg;
#BANNER:Jousou dystopia.png;
#BACKGROUND:Jousou dystopia-bg.png;
#CDTITLE:;
#SAMPLESTART:54.138;
#SAMPLELENGTH:15.000;
#SELECTABLE:YES;
#OFFSET:0.599;
#BPMS:0.000=228.000;
#STOPS:;
#BGCHANGES:;
#FGCHANGES:;

//--------------- dance-single - chrononical ----------------
#NOTES:
     dance-single:
     chrononical:
     Beginner:
     3:
     0,0,0,0,0:
0000
0000
0000
0000
,
0000
0000
0000
0000
,
0000
0000
0000
0000
,
0000
0000
0000
0000
,
0000
0000
0000
0000
,
0000
0000
0000
0000
,
1000
0000
1000
0000
,
0100
0000
0100
0000
,
1000
0000
1000
0000
,
0002
0000
0000
0000
,
1003
0000
0010
0000
,
0010
0000
0100
0000
,
0100
0000
0001
0000
,
1000
0000
0000
0000
,
0001
0000
0010
0000
,
0010
0000
0100
0000
,
0100
0000
0010
0000
,
0200
0000
0000
0300
,
2000
0000
3001
0000
,
2000
0000
0000
0000
,
3020
0000
0000
0000
,
0230
0000
0000
0000
,
0302
0000
0000
0000
,
2003
0000
0000
0000
,
3200
0000
0000
0000
,
0320
0000
0000
0000
,
0032
0000
0000
0000
,
1003
0000
0010
0000
,
0010
0000
0010
0000
,
1000
0000
0100
0000
,
0100
0000
0100
0000
,
0010
0000
0001
0000
,
0001
0000
0001
0000
,
0100
0000
0001
0000
,
2000
0000
0000
0000
,
3001
0000
0100
0000
,
0010
0000
0010
0000
,
1000
0000
0100
0000
,
0010
0000
0010
0000
,
0002
0000
0203
0000
,
0320
0000
2030
0000
,
3001
0000
0010
0000
,
0100
0000
0100
0000
,
1000
0000
0010
0000
,
0100
0000
0100
0000
,
0001
0000
0010
0000
,
0100
0000
0100
0000
,
1000
0000
0010
0000
,
0010
0000
0100
0000
,
0001
0000
0001
0000
,
1000
0000
1000
0000
,
0100
0000
0010
0000
,
0001
0000
0100
0000
,
0010
0000
0001
0000
,
0010
0000
1000
0000
,
0001
0000
0001
0000
,
1000
0000
0100
0000
,
0010
0000
0100
0000
,
0110
0000
1001
0000
,
0110
0000
0010
0000
,
1000
0000
0100
0000
,
0010
0000
1000
0000
,
0010
0000
0001
0000
,
1000
0000
1000
0000
,
0001
0000
0100
0000
,
0010
0000
0010
0000
,
1000
0000
0100
0000
,
0010
0000
0001
0000
,
1000
0000
0000
0000
,
1000
0000
0000
0000
,
0001
0000
0000
0000
,
0001
0000
0000
0000
,
0100
0000
0100
0000
,
0010
0000
0010
0000
,
1000
0000
1000
0000
,
0001
0000
0001
0000
,
1000
0000
0100
0000
,
0010
0000
0001
0000
,
1000
0000
0010
0000
,
0100
0000
0001
0000
,
0001
0000
0100
0000
,
0010
0000
1000
0000
,
0001
0000
0010
0000
,
0100
0000
1000
0000
,
0002
0000
0000
0000
,
0203
0000
0000
0000
,
0320
0000
0000
0000
,
2030
0000
0000
0000
,
3002
0000
0000
0000
,
0023
0000
0000
0030
,
0110
0000
1001
0000
,
1001
0000
0001
0000
,
1000
0000
0010
0000
,
0100
0000
1000
0000
,
0100
0000
0001
0000
,
1000
0000
1000
0000
,
0001
0000
0010
0000
,
0100
0000
0100
0000
,
1000
0000
0001
0000
,
0100
0000
0000
0100
;

//--------------- dance-single - chrononical ----------------
#NOTES:
     dance-single:
     chrononical:
     Easy:
     7:
     0,0,0,0,0:
0000
0000
0000
0000
,
0000
0000
0000
0000
,
0000
0000
0000
0000
,
0000
0000
0000
0000
,
0000
0000
0000
0000
,
0000
0000
0000
0000
,
1000
1000
0001
0000
,
1000
1000
0010
0000
,
1000
1000
0100
0000
,
2000
0000
0000
0000
,
3001
0000
0100
0000
,
0010
1000
0010
0000
,
1000
0000
0100
0000
,
0010
0001
0010
0000
,
0001
0000
0100
0000
,
0010
1000
0001
0000
,
1000
0000
0100
0000
,
0010
0010
0001
2000
,
3001
1000
1000
1000
,
0001
0000
0100
0000
,
0010
0000
1000
0000
,
0001
0000
0010
0000
,
0100
0000
1000
0000
,
1000
0000
0010
0000
,
0100
0000
0001
0000
,
1000
0000
0100
0000
,
0010
0000
0001
0000
,
0001
0001
1000
0000
,
0001
0001
0100
0000
,
0001
0001
0010
0000
,
0001
0000
1000
0000
,
1000
1000
0001
0000
,
1000
1000
0010
0000
,
1000
1000
0100
0000
,
2000
0000
0000
0000
,
3001
0000
1000
0000
,
0100
0010
0100
0000
,
1000
0000
0001
0000
,
0100
0010
0100
0000
,
0001
0000
0100
0000
,
0001
0000
0010
0000
,
0001
0000
1000
0000
,
0020
0000
0000
0000
,
1030
0000
0001
0000
,
0010
0100
0010
0000
,
0001
0000
1000
0000
,
0010
0100
0010
0000
,
1000
0100
1000
0000
,
0001
0100
0001
0000
,
1000
0010
1000
0000
,
0001
0010
0001
0000
,
1000
0010
0100
0001
,
1000
0100
0010
0000
,
0010
0100
1000
0000
,
0001
0100
0010
0000
,
0010
0100
0001
0000
,
1000
1000
0100
0000
,
0001
0001
0100
0000
,
0110
0000
1100
0000
,
1001
0000
1000
0000
,
0001
0100
0010
0000
,
0010
0100
0001
0000
,
1000
0100
0010
0000
,
0010
0100
1000
0000
,
0001
0001
0100
0000
,
1000
1000
0100
0000
,
0001
0000
0010
0000
,
0100
0100
0100
1000
,
0001
0000
0001
0000
,
0100
0000
0100
0000
,
0010
0000
0010
0000
,
1000
0000
1000
0000
,
0001
0000
0001
0000
,
0010
0000
0010
0000
,
0100
1000
0100
0000
,
1000
0001
1000
0001
,
1000
0010
0010
0000
,
1000
0100
0100
0000
,
1000
0000
0001
0000
,
0100
0010
0200
0000
,
0301
1000
0100
0000
,
1000
0001
0100
0000
,
0010
0000
1000
0000
,
0001
0100
0001
1000
,
0001
0000
0010
0000
,
0100
0000
0100
0000
,
1000
0000
0010
0000
,
0100
0000
0100
0000
,
0001
0000
0010
0000
,
0100
0000
0100
0000
,
1100
0000
1001
0000
,
0101
0000
0001
1000
,
0010
1000
0100
0000
,
0100
1000
0010
0000
,
0100
0001
0010
0000
,
0010
0001
0100
0000
,
0001
0001
0010
0000
,
1000
1000
0010
0000
,
0001
0000
0100
0000
,
0010
0010
0010
1000
;

//--------------- dance-single - chrononical ----------------
#NOTES:
     dance-single:
     chrononical:
     Medium:
     11:
     0,0,0,0,0:
0000
0000
0000
0000
,
0000
0000
0000
0000
,
0000
0000
0000
0000
,
0000
0000
0000
0000
,
0000
0000
0000
0000
,
0000
0000
0000
0000
,
1001
1001
1000
0100
,
0110
0110
0010
0001
,
1001
1001
0001
0100
,
0220
0000
0000
0330
,
2001
3100
0001
0100
,
1000
0001
0100
0010
,
1000
0010
0001
0010
,
1000
0001
0001
1000
,
0001
0100
1000
0100
,
0001
1000
0100
0010
,
0001
1000
0001
0000
0100
0010
0100
0000
,
0001
1000
0001
2001
,
3200
0010
0010
0310
,
0001
0100
0010
0000
,
0010
0100
0001
0000
,
1000
0100
0010
0000
,
1000
0010
0001
0000
,
1000
0010
0100
0000
,
0100
0010
1000
0000
,
0001
0010
0100
0000
,
0001
0100
1000
0000
,
1100
1100
0100
0010
,
0011
0011
0001
0100
,
0101
0101
0100
0010
,
1010
1010
1000
0100
,
0110
0110
0010
0001
,
1001
1001
1000
0010
,
0110
0110
0100
0001
,
2000
0000
0000
0000
,
3001
0000
0010
0000
0100
0000
0000
0002
,
0000
0103
1000
0001
,
1000
0000
0010
0000
0100
0000
0000
2000
,
0000
3100
0010
0100
,
0002
0000
0023
0000
,
0230
0000
2300
0000
,
3001
0100
0010
0110
,
0100
0001
0000
1000
0000
0001
0000
1000
,
0001
0000
0100
0000
0010
0000
0000
0002
,
0000
0013
1000
0001
,
1000
0000
0100
0000
0010
0000
0000
2000
,
0000
3010
0100
0010
,
0001
0100
0101
0000
,
1000
0100
1100
0000
,
0001
0100
0010
0100
,
0001
0010
0100
0010
,
0001
0001
0100
0100
,
0001
0010
1000
0001
,
0100
1000
0001
0001
,
1000
0010
0100
0010
,
1000
0100
0010
0001
,
1000
0010
0110
0100
,
0001
0010
0110
0100
,
1000
0100
0001
1000
,
0001
0100
1000
0001
,
1000
0010
0001
1000
,
0100
0001
1000
1000
,
0001
0010
0100
1000
,
0010
0001
0010
1000
,
0001
0010
0110
0100
,
1000
0010
0110
0100
,
0001
0010
1000
0010
,
0001
0100
0100
0020
,
1030
0000
1000
0000
,
0100
0000
0100
0000
,
0010
0000
0010
0000
,
0001
0000
0001
0000
,
1000
0100
1000
0000
,
0001
0100
0001
0000
,
1000
0100
0010
0000
,
0010
0100
1000
0002
,
1003
0010
0001
0010
,
1000
0100
0020
0000
,
0031
0100
0010
1000
,
0100
0010
0200
0010
,
1300
0010
0001
0010
,
1000
0100
0001
0100
,
1000
0100
0010
0100
,
1000
1000
0002
1003
,
0001
0000
0100
0000
,
0010
0000
0010
0000
,
1000
0000
0100
0000
,
0010
0000
0010
0000
,
0001
0000
0001
0000
,
1000
0000
1000
0000
,
1100
0000
0110
0000
,
0011
0001
1000
1000
,
0001
0100
1000
0001
,
0010
1000
0001
0001
,
1000
0100
0010
0001
,
0100
1000
0100
0001
,
1000
0100
0110
0010
,
0001
0100
0110
0010
,
1000
0010
0001
0010
,
1000
0100
0100
0110
;

//--------------- dance-single - chrononical ----------------
#NOTES:
     dance-single:
     chrononical:
     Hard:
     15:
     0,0,0,0,0:
0000
0000
0000
0000
,
0000
0000
0000
0000
,
0000
0000
0000
0000
,
0000
0000
0000
0000
,
0000
0000
0000
0000
,
0000
0000
0000
0000
,
1001
0000
1100
0000
0100
1000
0001
0000
,
0100
0001
1000
0000
0010
1000
0001
0000
,
1001
0000
0011
0000
0010
0001
1000
0000
,
0020
0000
0000
0000
0000
0000
0000
0000
0130
0010
0100
0000
0001
0000
1000
0000
,
0002
0010
2003
0010
,
3001
0000
0100
0010
0000
1000
0100
0000
,
2000
0100
3002
0100
,
1003
0010
0100
1000
0000
1000
0100
0000
,
0002
0100
2003
0100
,
3001
0000
0010
0100
0000
1000
0010
0000
,
1000
1000
0010
0000
0100
0100
0001
1000
,
1100
0110
0011
1001
,
2000
0010
0010
0010
,
3001
0010
0100
0100
,
1000
0001
2000
0000
,
3001
0100
0010
0010
,
1000
0001
2000
0000
,
3001
0010
0100
0100
,
0010
0001
2000
0000
,
3001
0100
0010
0010
,
0100
0000
0001
0000
2000
0000
0000
3000
,
1001
0000
1010
0000
0010
0100
0001
0000
,
1001
0000
0011
0010
0100
1000
0001
0000
,
1001
0000
1100
0000
0100
0010
0001
0000
,
1001
0000
0000
0000
0101
0000
0000
0000
0100
0010
0100
0000
0001
0000
0100
0000
,
0101
0000
1010
0000
1000
0100
0010
0000
,
0011
0000
1100
1000
0010
0100
0001
0000
,
0101
0000
1010
0000
1000
0100
0010
0000
,
0002
0000
0000
0000
,
0203
0000
0320
0000
1030
0100
0000
0002
,
0000
0103
0010
0001
1000
0000
1002
0000
,
0023
0000
0230
0000
1300
0010
0000
0002
,
0000
0000
0000
0013
0000
0000
0100
0000
0000
0001
0000
0000
0010
0000
0100
0000
1000
0000
0001
0000
0000
0100
0000
0000
,
0020
0000
2030
0000
,
3200
0000
0320
0000
,
0031
1000
0100
2100
,
3001
0101
0000
1010
0000
0101
0001
1000
,
0020
0000
0230
0000
0301
0010
0000
2000
,
0000
3010
0100
1000
0001
0000
2001
0000
,
3200
0000
0320
0000
0031
0100
0000
2000
,
0000
3100
0010
1000
0100
0010
0001
1000
,
0001
0110
1000
0110
,
0001
0110
1000
0110
,
1002
0000
0103
0000
2001
0000
3010
0100
,
0010
0110
0000
1010
0000
1001
1000
0001
,
1000
0100
0010
0001
0100
0010
1000
0001
,
1000
0011
1000
0012
,
0103
0001
1000
0010
0100
0000
1001
0000
,
0001
0000
1200
0000
1300
0100
0010
0001
,
0011
1001
1010
1001
,
0001
0201
1300
0201
,
0301
0010
0000
0110
0000
0100
1000
0000
,
1001
0001
0100
0000
1001
1000
0010
0000
,
1001
0001
0010
1000
0000
1000
0010
0001
,
1000
0101
1000
0102
,
0013
0001
1000
0100
0010
0000
1001
0000
,
0001
0000
1020
0000
1030
0010
0100
0000
,
0110
0011
0110
1001
,
0001
0021
1030
0021
,
0031
0000
0100
0010
0000
1000
0001
0000
,
0010
0100
1000
0010
0200
0000
0302
0000
,
0203
0001
0010
1000
,
0301
0001
0010
0010
,
0100
0000
0100
0000
1000
0001
1000
0000
,
0001
0001
0100
0100
,
0010
0000
0010
0000
1000
0001
1000
0000
,
0001
0200
0000
0320
0000
2030
0000
3002
,
1003
0200
0000
0320
0000
0032
0000
2003
,
3001
0000
0101
0000
0100
0100
0001
0000
,
0001
0001
0010
0000
0110
0000
2001
0000
,
3001
0012
0103
2010
,
3100
0010
0001
1000
0010
0000
1001
0000
,
1000
0001
0100
0010
1000
0001
0010
0100
,
1000
0001
0100
0000
0010
0000
1001
0000
,
1000
0000
0010
0000
0100
0000
0010
0000
0001
0000
0000
0010
0000
0000
0100
0000
,
0001
0010
0100
0010
2000
0000
3020
0000
,
0130
0010
0001
0100
0010
0100
0001
0010
,
0100
1200
0310
2001
,
3002
1000
0203
0010
,
0301
0010
0100
1000
,
2000
0001
3020
0100
,
1030
0100
0020
0000
,
0032
0100
2003
0100
,
3001
0000
0100
0010
0000
1000
0001
0000
,
0010
0010
0100
1000
0010
0010
0100
0001
,
1000
0100
0010
0200
0000
0310
0001
1000
,
0001
0000
1100
0000
0001
0000
1100
1000
,
0010
1000
0001
0100
0010
0000
1001
0000
,
1000
0000
0021
0000
0031
0010
0100
0010
,
0110
1010
0110
1001
,
1000
1020
0031
1020
,
1030
0000
0010
0100
0000
0001
1000
0000
,
0100
0010
0001
0100
0020
0000
2030
0000
,
3100
0100
0100
1001
;
