#VERSION:0.83;
#TITLE:Jogging;
#SUBTITLE:;
#ARTIST:Yelle;
#TITLETRANSLIT:;
#SUBTITLETRANSLIT:;
#ARTISTTRANSLIT:;
#GENRE:FRENCH ELECTROPOP;
#ORIGIN:;
#CREDIT:;
#BANNER:Jogging.png;
#BACKGROUND:Jogging-bg.png;
#PREVIEWVID:;
#JACKET:Jogging-jacket.png;
#CDIMAGE:;
#DISCIMAGE:;
#LYRICSPATH:;
#CDTITLE:cdtitle.png;
#MUSIC:Jogging.ogg;
#OFFSET:-0.013000;
#SAMPLESTART:72.011215;
#SAMPLELENGTH:15.000000;
#SELECTABLE:YES;
#BPMS:0.000=120.000;
#STOPS:;
#DELAYS:;
#WARPS:;
#TIMESIGNATURES:0.000=4=4;
#TICKCOUNTS:0.000=4;
#COMBOS:0.000=1;
#SPEEDS:0.000=1.000=0.000=0;
#SCROLLS:0.000=1.000;
#FAKES:;
#LABELS:0.000=Song Start;
#BGCHANGES:;
#KEYSOUNDS:;
#ATTACKS:
;

//---------------dance-single - Daff_4K----------------
#NOTEDATA:;
#CHARTNAME:Daff_4K;
#STEPSTYPE:dance-single;
#DESCRIPTION:Daff_4K;
#CHARTSTYLE:;
#DIFFICULTY:Beginner;
#METER:1;
#RADARVALUES:0.076024,0.121372,0.000000,0.000000,0.000000,57.000000,57.000000,0.000000,0.000000,0.000000,0.000000,0.000000,0.000000,0.000000,0.076024,0.121372,0.000000,0.000000,0.000000,57.000000,57.000000,0.000000,0.000000,0.000000,0.000000,0.000000,0.000000,0.000000;
#CREDIT:Daff_4K;
#NOTES:
0000
0000
0000
0000
,
0000
0000
0000
0000
,
0000
0000
0000
0000
,
0000
0000
0000
0000
,
1000
0000
0000
0000
,
1000
0000
0000
0000
,
0001
0000
0000
0000
,
0001
0000
0000
0000
,
0010
0000
0000
0000
,
0010
0000
0000
0000
,
0100
0000
0100
0000
,
0100
0000
0100
0000
,
0100
0000
0000
0000
,
1000
0000
0000
0000
,
0001
0000
0000
0000
,
0100
0000
0000
0000
,
0100
0000
0000
0000
,
0001
0000
0000
0000
,
1000
0000
0000
0000
,
0100
0000
0000
0000
,
1000
0000
1000
0000
,
1000
0000
0000
0000
,
0010
0000
0000
0000
,
0100
0000
0000
0000
,
0001
0000
0001
0000
,
0001
0000
0000
0000
,
0010
0000
0000
0000
,
0100
0000
0000
0000
,
0010
0000
0010
0000
,
0010
0000
0000
0000
,
0100
0000
0000
0000
,
1000
0000
0000
0000
,
0010
0000
0010
0000
,
0010
0000
0000
0000
,
0100
0000
0000
0000
,
0001
0000
0000
0000
,
0010
0000
0000
0000
,
0010
0000
0000
0000
,
0100
0000
0000
0000
,
0100
0000
0000
0000
,
1000
0000
0000
0000
,
0001
0000
0000
0000
,
0100
0000
0100
0000
,
0100
0000
0100
0000
,
0100
0000
0000
0000
,
0001
0000
0000
0000
,
1000
0000
0000
0000
,
0100
0000
0000
0000
,
0100
0000
0000
0000
,
1000
0000
0000
0000
,
0001
0000
0000
0000
,
0100
0000
0000
0000
,
0100
0000
0000
0000
;

//---------------dance-single - Daff_4K----------------
#NOTEDATA:;
#CHARTNAME:Daff_4K;
#STEPSTYPE:dance-single;
#DESCRIPTION:Daff_4K;
#CHARTSTYLE:;
#DIFFICULTY:Easy;
#METER:3;
#RADARVALUES:0.170721,0.194195,0.000000,0.149381,0.000000,128.000000,128.000000,0.000000,16.000000,0.000000,0.000000,0.000000,0.000000,0.000000,0.170721,0.194195,0.000000,0.149381,0.000000,128.000000,128.000000,0.000000,16.000000,0.000000,0.000000,0.000000,0.000000,0.000000;
#CREDIT:Daff_4K;
#NOTES:
0000
0000
0000
0000
,
0000
0000
0000
0000
,
0000
0000
0000
0000
,
0000
0000
0000
0000
,
2000
0000
3100
0000
,
0002
0000
0103
0000
,
2000
0000
3010
0000
,
0002
0000
0013
0000
,
2000
0000
3100
0000
,
0020
0000
0031
0000
,
1000
0010
0100
0001
,
0010
0100
1000
0000
,
0020
0000
0130
0000
,
0001
1000
0001
0000
,
0010
0100
1000
0000
,
1000
0000
0001
0000
,
0020
0000
0130
0000
,
1000
0001
1000
0000
,
0010
0100
0001
0000
,
0001
0000
1000
0000
,
0100
1000
0100
0000
,
0010
0000
0001
0000
,
0100
0001
0100
0000
,
0010
0000
1000
0000
,
0002
0000
0013
0000
,
0100
1000
0100
0000
,
2000
0000
3010
0000
,
0100
0001
0100
0000
,
0001
0010
1000
0000
,
1000
0010
0001
0000
,
1000
0010
0001
0000
,
0001
0010
1000
0000
,
0100
0100
0010
0000
,
0001
1000
0001
0000
,
0100
0100
0010
0000
,
1000
0001
1000
0000
,
0002
0000
0103
0000
,
2000
0000
3100
0000
,
0002
0000
0013
0000
,
2000
0000
3010
0000
,
0002
0000
0103
0000
,
0020
0000
1030
0000
,
0001
0010
0100
1000
,
0010
0100
0001
0000
,
1000
0010
0001
0000
,
0001
0010
1000
0000
,
0100
0010
0001
0000
,
0100
0010
1000
0000
,
0001
0010
1000
0000
,
1000
0010
0001
0000
,
0100
0010
1000
0000
,
0100
0010
0001
1000
,
0001
0000
0000
0000
;

//---------------dance-single - Daff_4K----------------
#NOTEDATA:;
#CHARTNAME:Daff_4K;
#STEPSTYPE:dance-single;
#DESCRIPTION:Daff_4K;
#CHARTSTYLE:;
#DIFFICULTY:Medium;
#METER:6;
#RADARVALUES:0.241410,0.266376,0.130708,0.224071,0.000000,181.000000,167.000000,14.000000,24.000000,0.000000,0.000000,0.000000,0.000000,0.000000,0.241410,0.266376,0.130708,0.224071,0.000000,181.000000,167.000000,14.000000,24.000000,0.000000,0.000000,0.000000,0.000000,0.000000;
#CREDIT:Daff_4K;
#NOTES:
0000
0000
0000
0000
,
0000
0000
0000
0000
,
0000
0000
0000
0000
,
0000
0000
0000
0000
,
2010
0000
3100
0000
,
0012
0000
0103
0000
,
2100
0000
3010
0000
,
0102
0000
0013
0000
,
2001
0000
3010
0000
,
1002
0000
0013
0000
,
0001
0000
1000
0000
0010
0000
0100
0010
,
0100
0001
1001
0000
,
2000
0100
3001
0000
,
1000
0100
0010
0001
,
0200
0010
0301
0000
,
0001
0100
0010
1000
,
0002
0100
1003
0000
,
0001
0100
0010
1000
,
0200
0010
1300
0000
,
1000
0100
0010
0001
,
2000
0010
3100
0000
,
1000
0010
0100
0100
,
0002
0010
0103
0000
,
0001
0010
0100
0100
,
2000
0001
3010
1000
,
1000
0001
0010
0000
,
0002
1000
0013
0001
,
0001
1000
0010
0000
,
2000
0100
0001
3010
,
1000
0100
0010
0000
,
0002
0100
1000
0013
,
0001
0100
0010
0000
,
0200
0010
0301
1000
,
0001
0010
0001
0010
,
0200
0010
1300
0001
,
1000
0010
1000
0001
,
2001
0000
3010
0100
,
0102
0000
1003
0000
,
1200
0000
0301
0100
,
2100
0000
3010
0000
,
1002
0000
0013
0100
,
2100
0000
3001
0000
,
1000
0000
0001
0000
0100
0000
0010
0100
,
0010
1000
1001
0000
,
0001
0010
0001
1000
,
0001
0000
0100
0000
0010
1000
0010
0000
,
1000
0100
0010
0100
,
0001
0000
0100
0000
1000
1000
0001
0001
,
1000
0010
1000
0001
,
1000
0000
0100
0000
0010
0001
0010
0000
,
0001
0100
0010
0100
,
1000
0000
0100
0000
0001
0001
1000
1000
;

//---------------dance-single - Daff_4K----------------
#NOTEDATA:;
#CHARTNAME:Daff_4K;
#STEPSTYPE:dance-single;
#DESCRIPTION:Daff_4K;
#CHARTSTYLE:;
#DIFFICULTY:Hard;
#METER:10;
#RADARVALUES:0.400126,0.411672,0.336106,0.308097,0.000000,300.000000,264.000000,36.000000,33.000000,0.000000,0.000000,0.000000,0.000000,0.000000,0.400126,0.411672,0.336106,0.308097,0.000000,300.000000,264.000000,36.000000,33.000000,0.000000,0.000000,0.000000,0.000000,0.000000;
#CREDIT:Daff_4K;
#NOTES:
// measure 0
0000
0000
0000
0000
,  // measure 1
0000
0000
0000
0000
,  // measure 2
0000
0000
0000
0000
,  // measure 3
0000
0000
0000
0000
,  // measure 4
1002
0000
0103
0010
2000
0000
3001
0000
,  // measure 5
0021
0000
0130
1000
0001
0000
1001
0000
,  // measure 6
1020
0000
0130
0001
2000
0000
3100
0000
,  // measure 7
0120
0000
0031
1000
0010
0000
0110
0000
,  // measure 8
2001
0000
3100
0010
0002
0000
1003
0000
,  // measure 9
1020
0000
0130
0001
1000
0000
1001
0000
,  // measure 10
0011
1010
1100
0101
,  // measure 11
1001
0110
2002
3003
,  // measure 12
2000
0100
3001
1000
,  // measure 13
0010
0000
0100
0001
2000
0000
3100
0100
,  // measure 14
0020
0001
0130
0010
,  // measure 15
0001
0000
1000
0000
0001
0100
0010
1000
,  // measure 16
0002
0100
1003
0001
,  // measure 17
0010
0000
0100
1000
0002
0000
0103
0100
,  // measure 18
0020
1000
0130
0010
,  // measure 19
1000
0000
0001
0000
1000
0100
0010
0001
,  // measure 20
1000
0010
1000
0000
0001
0001
1000
0000
,  // measure 21
0100
0010
0100
0000
1000
1000
0010
0100
,  // measure 22
0001
0010
0001
0000
1000
1000
0001
0000
,  // measure 23
0100
0010
0100
0000
0001
0001
0010
0100
,  // measure 24
1000
0010
1000
0000
0001
0010
0001
0000
,  // measure 25
1000
1000
0001
0000
0100
0010
1000
0000
,  // measure 26
0001
0100
0001
0000
1000
0100
1000
0000
,  // measure 27
0010
0100
0001
0000
1000
0000
1001
0000
,  // measure 28
0002
0010
1003
0101
,  // measure 29
0200
1000
0310
1001
,  // measure 30
2000
0010
3001
1100
,  // measure 31
0200
0001
0310
1001
,  // measure 32
0001
0100
0010
0000
1000
0001
0010
0000
,  // measure 33
0100
1000
0001
0000
0200
0000
0310
0000
,  // measure 34
1000
0100
0010
0000
0001
1000
0010
0000
,  // measure 35
0100
0001
1000
0000
0110
0000
1001
0000
,  // measure 36
0201
0000
0310
1000
0002
0000
0013
0100
,  // measure 37
2100
0000
3010
0001
0010
1000
0001
0000
,  // measure 38
0021
0000
0130
1000
0002
0000
0103
0010
,  // measure 39
2010
0000
3100
0010
0001
0100
0010
1000
,  // measure 40
1200
0000
0310
0001
2000
0000
3010
0100
,  // measure 41
0102
0000
0013
1000
0010
0001
1000
0000
,  // measure 42
1010
0011
0101
1100
,  // measure 43
1001
0110
2002
3003
,  // measure 44
0001
0100
0010
0000
0001
0100
0010
0000
,  // measure 45
0001
0100
0010
0100
0001
1000
0100
0100
,  // measure 46
1000
0010
0001
0000
1000
0010
0001
0000
,  // measure 47
1000
0010
0001
0010
1000
0100
0010
0001
,  // measure 48
1000
0100
0010
0000
1000
0100
0010
0000
,  // measure 49
1000
0100
0010
0100
1000
0001
0100
0100
,  // measure 50
0001
0010
1000
0000
0001
0010
1000
0000
,  // measure 51
0001
0010
1000
0010
0001
1000
0010
0100
;
