#TITLE:Je ne sais quoi;
#SUBTITLE:;
#ARTIST:Urias;
#TITLETRANSLIT:;
#SUBTITLETRANSLIT:;
#ARTISTTRANSLIT:;
#GENRE:;
#CREDIT:;
#MUSIC:Je ne sais quoi.ogg;
#BANNER:Je ne sais quoi.png;
#BACKGROUND:Je ne sais quoi-bg.png;
#CDTITLE:;
#SAMPLESTART:49.050;
#SAMPLELENGTH:15.000;
#SELECTABLE:YES;
#OFFSET:0.180;
#BPMS:0.000=156.000;
#STOPS:;
#BGCHANGES:;
#FGCHANGES:;

//--------------- dance-single - mikeswrld ----------------
#NOTES:
     dance-single:
     mikeswrld:
     Beginner:
     4:
     0,0,0,0,0:
0000
0000
0000
0000
,
0000
0000
0000
0000
,
0000
0000
0000
0000
,
0000
0000
0000
0000
,
0001
0000
0000
0000
,
1000
0000
0000
0000
,
0001
0000
0000
0000
,
1000
0000
0000
0000
,
0100
0000
0010
0000
,
0001
0000
0001
0000
,
0010
0000
0100
0000
,
1000
0000
1000
0000
,
1000
0000
0100
0000
,
1000
0000
0100
0000
,
0010
0000
0001
0000
,
0010
0000
0000
0001
,
0002
0000
0000
0000
,
0003
0000
0000
0000
,
0020
0000
0000
0000
,
0030
0000
0000
0000
,
0200
0000
0000
0000
,
0300
0000
0000
0000
,
2000
0000
0000
0000
,
3000
0000
0000
0000
,
0001
0001
0001
0000
,
1000
1000
1000
0000
,
0010
0010
0010
0000
,
0100
0100
0100
0000
,
0001
1000
0001
0000
,
1000
0001
1000
0000
,
0001
0000
1000
0000
,
0001
0000
0000
0000
,
0001
0000
0010
0000
,
0010
0010
0010
0000
,
0100
0000
1000
0000
,
1000
1000
1000
0000
,
0001
0000
1000
0000
,
1000
1000
1000
0000
,
1000
0000
0001
0000
,
1001
0000
1001
0000
,
0001
0000
1000
1000
,
1000
0000
0010
1000
,
0010
0000
0010
0010
,
0010
0000
0010
0100
,
0010
0000
0100
0100
,
0100
0000
1000
0001
,
1000
0000
0001
0001
,
0001
0000
1000
0000
,
0010
0000
0100
0000
,
0010
0000
0100
0000
,
0001
0000
1000
0000
,
0100
0000
0010
0000
,
0000
0000
0001
0000
,
0000
0000
0001
0000
,
0000
0000
1000
0000
,
0000
0000
0000
0000
,
0002
0000
0000
0000
,
0003
0000
0000
0000
,
0200
0000
0000
0000
,
0300
0000
0000
0000
,
0020
0000
0000
0000
,
0030
0000
0000
0000
,
0200
0000
0000
0000
,
0300
0000
0000
0000
,
0001
0100
0001
0000
,
0010
0100
0010
0000
,
0010
1000
0010
0000
,
1000
0100
1000
0000
,
1000
0010
1000
0000
,
1000
0001
1000
0000
,
1000
1000
0001
0001
,
0000
0000
0000
0000
,
0001
0010
0100
1000
,
0100
0010
0001
0000
,
0001
1000
0001
1000
,
0010
0100
0010
0000
,
0001
0001
1000
1000
,
0100
0100
0010
0000
,
0001
0010
0100
1000
,
1000
1000
0001
0001
,
0010
0001
0010
0001
,
0010
0001
0010
0100
,
1000
0100
1000
0100
,
1000
0100
1000
0100
,
1000
0001
1000
0001
,
1000
0001
1000
0001
,
0100
0010
0100
0010
,
0000
0000
0000
0001
;

//--------------- dance-single - mikeswrld ----------------
#NOTES:
     dance-single:
     mikeswrld:
     Easy:
     7:
     0,0,0,0,0:
0000
0000
0000
0000
,
0000
0000
0000
0000
,
0000
0000
0000
0000
,
0000
0000
0000
0000
,
0000
0001
0000
0001
0000
0000
0000
0000
,
0000
1000
0000
1000
0001
1000
0001
0000
,
0000
0100
0000
0100
0000
0000
0000
0000
,
0000
0010
0000
0010
0100
0100
0100
0000
,
0001
0000
1000
0000
0001
0000
0010
0010
,
0010
0000
0100
0000
0010
0000
0100
0100
,
0100
1000
0100
0010
,
0001
1000
0000
1000
0000
0000
0010
0000
,
0100
0000
0010
0010
0010
0000
1000
0000
,
0001
0000
0100
0100
0100
0000
0100
0001
,
0000
0000
0001
1000
0100
0000
1000
0000
,
0000
0001
0001
1000
,
2000
0000
0000
3010
,
0010
1000
0010
0000
1000
0000
0000
0000
,
0002
0000
0000
0013
,
0010
0001
0010
0000
0100
0000
0000
0000
,
2000
0000
0000
3100
,
0100
1000
0100
0000
1000
0000
0000
0000
,
0002
0000
0000
0103
,
0100
0001
0100
0000
0001
0000
0000
0000
,
2000
0000
0000
3001
,
1000
0001
1000
0000
0100
0000
0000
0000
,
0020
0000
0000
0031
,
0010
0001
0010
0000
0100
0000
0000
0000
,
2000
0000
0000
3010
,
0100
0010
0100
0000
0100
0000
0000
0000
,
0002
0000
0000
1003
,
0001
1000
0001
0000
1000
0000
0000
0000
,
0001
0001
0010
0100
,
1000
0001
1001
0000
,
1000
0100
1000
0100
,
0010
0100
0110
0000
,
0010
0001
0010
0100
,
1000
0100
1100
0000
,
0001
0001
1000
1000
,
1001
0001
1001
1000
,
0100
0000
0010
0100
0010
0000
1000
0000
,
0001
0000
0001
0010
0100
0000
1000
0000
,
0100
0000
0010
0001
0010
0000
0100
0000
,
1000
0000
0010
0100
0010
0000
0100
0000
,
0001
0000
0010
0001
0010
0000
0100
0000
,
0010
0000
0001
0010
0001
0000
0010
0000
,
0100
0000
1000
0100
0010
0000
0001
0000
,
1000
0000
0000
0001
0000
0000
1000
0000
,
1001
0000
0110
0000
,
0101
0000
0011
0010
,
0110
0000
1100
0000
,
1001
0000
0101
0002
,
0000
0000
0203
0000
,
0000
0000
0000
0000
0320
0000
0000
2030
,
0000
0000
3100
0000
,
0000
0010
0000
0010
0000
0000
0000
0000
,
0002
0000
0000
1003
,
0100
0010
0001
0000
0100
0000
0000
0000
,
0020
0000
0000
0130
,
0010
0100
0010
0000
1000
0000
0000
0000
,
0200
0000
0000
1300
,
1000
0100
1000
0000
0100
0000
0000
0000
,
2000
0000
0000
3100
,
0010
0001
0010
0000
1000
0000
0000
0000
,
0001
0010
0100
1000
,
0001
1000
0100
0010
,
0001
0010
0001
0010
,
0100
1000
0100
0010
,
0001
1000
0010
0100
,
0010
0010
0100
0100
,
1000
0001
1000
0001
,
0001
0010
0001
0000
0100
0000
0000
0000
,
0001
0000
0100
0000
0010
1000
0010
1000
,
0100
0100
0100
0000
,
0010
0000
0100
0000
0100
1000
0100
1000
,
0100
0010
0001
0000
,
1000
0000
0001
0000
1000
0001
1000
0001
,
0010
0010
0010
0000
,
0001
0000
0010
0000
0001
0010
0100
1000
,
1100
1001
1010
0110
,
0001
0000
0001
0010
0001
0000
0100
0000
,
0010
0000
1000
0100
1000
0000
0100
0000
,
0010
0000
0100
0010
0100
0000
0010
0000
,
0100
1000
0100
0010
,
0001
0000
0010
0100
0010
0000
1000
0000
,
0001
0100
1000
0100
,
0001
0000
0001
0010
0001
0000
2000
0000
,
0000
0000
0000
0002
,
3003
0000
0000
0000
;

//--------------- dance-single - mikeswrld ----------------
#NOTES:
     dance-single:
     mikeswrld:
     Medium:
     11:
     0,0,0,0,0:
0000
0000
0000
0000
,
0000
0000
0000
0000
,
0000
0000
0000
0000
,
0000
0000
0000
0000
,
0000
0000
0001
1000
0001
0001
1000
1000
,
0100
0010
0100
1000
0100
0010
0100
0000
,
0000
0000
0010
0001
0100
0100
0010
0010
,
1000
0100
0001
0100
1000
1000
1000
0000
,
0001
0000
0001
0100
0001
0000
0001
0010
,
0100
0000
0100
0010
0100
0000
0100
1000
,
0001
0000
1000
0010
0100
0010
0001
0000
,
0010
0100
0000
0100
0001
0000
1001
0000
,
1000
0000
0100
0010
0001
0000
0001
0010
,
0100
0000
1000
0010
0100
0000
0100
0010
,
1000
0000
0001
1000
0100
0000
1000
0000
,
0001
0100
0010
1000
0010
0000
1000
0000
,
0002
0000
0000
1003
,
0001
1000
0001
0000
1000
0000
0000
0000
,
0200
0000
0000
0310
,
0010
0100
0010
0000
0001
0000
0000
0000
,
2000
0000
0000
3001
,
1000
0001
1000
0000
0001
0000
0000
0000
,
0020
0000
0000
0130
,
0010
0100
0010
0000
0100
0000
0000
0000
,
2000
0000
0000
3001
,
0001
0010
0100
0010
0001
0010
0100
0000
,
2000
0000
0000
3001
,
0001
0100
1000
0100
0001
1000
0100
0000
,
0020
0000
0000
0130
,
0010
0100
1000
0100
0010
0100
1000
0000
,
1000
0100
1000
0000
0001
0000
0100
0000
0100
0010
0100
0000
0001
0000
0010
0100
,
0000
0000
0000
1000
0001
1000
0001
0000
,
0001
0000
0100
0000
0010
0100
0010
0100
,
0010
1000
1020
0000
,
0130
0000
0001
0000
0010
0001
0010
0001
,
0010
0100
0120
0000
,
0031
0000
1000
0000
0010
0100
0001
1000
,
0001
1000
1002
0000
,
0103
0000
0010
0000
0100
0010
1000
0001
,
1000
0000
1000
0000
1000
0000
0001
0000
0001
0000
0001
1000
,
0001
0000
0001
0010
0001
0000
0010
0000
0100
0000
0000
0000
0100
0000
0000
0000
,
1000
0000
0000
0100
0000
0000
1000
0000
0010
0000
0000
0000
1000
0000
0000
0000
,
0001
0000
0001
0100
0001
0000
0100
0000
0010
0000
0000
0000
1000
0000
0000
0000
,
0001
0000
0000
0100
0000
0000
0010
0000
1000
0000
0000
0000
0100
0000
0000
0000
,
1000
0000
1000
0100
1000
0000
0010
0000
0100
0000
0000
0000
0100
0000
0000
0000
,
0010
0000
0000
1000
0000
0000
0100
0000
0010
0000
0001
0000
0100
0000
0010
0000
,
1000
0000
0000
1000
0001
0000
0001
0000
0010
0000
0000
0010
0100
0000
1000
0000
,
1000
0000
0000
1000
0000
0000
0010
0000
0100
0000
0000
0100
0000
0000
0100
0000
,
0001
0000
0001
0010
0100
0000
1000
0000
,
0100
0000
0010
0001
0100
0000
0001
0000
,
1000
0000
0001
0010
0001
0000
1000
0000
,
0100
1000
0000
1000
0010
0000
0100
0002
,
0000
0000
1003
0001
2002
0000
0000
0000
,
0000
3003
0001
1000
0220
0000
0330
2002
,
0000
3003
0001
0100
0010
0000
0010
0000
,
0000
0000
0100
0010
0000
0000
1000
0000
,
0002
0000
0000
0013
,
0100
0010
0010
0000
1000
0000
0000
0000
,
0020
0000
0000
0130
,
0001
1000
1000
0000
0100
0000
0000
0000
,
2000
0000
0000
3100
,
0010
0001
0001
0000
1000
0000
0000
0000
,
0200
0000
0000
0310
,
0010
0100
1000
0000
2000
0000
0000
0000
,
3001
0010
0001
0010
0100
1000
0100
1000
,
0001
0010
0100
1000
0001
1000
0100
0010
,
0001
1000
0010
0100
0010
0100
0001
1000
,
0100
0010
0100
0010
0001
1000
0001
0000
,
0001
0001
0010
0100
1000
1000
0010
0010
,
0100
0010
0001
0010
0100
0010
1000
0000
,
0010
1000
0010
0000
0010
0000
0010
0000
0100
0010
0100
0000
0001
0000
0010
0100
,
0010
0100
0200
0000
0020
0000
0000
0330
,
1000
0000
0001
0000
1000
1000
0001
0001
,
1001
0000
0000
0000
0110
0000
0000
0000
1001
0000
0000
0001
0010
0000
0100
0000
,
0010
0000
0100
0000
0010
0010
0100
0100
,
0110
0000
0000
0010
0001
0000
0001
0000
0100
0000
0000
0000
0110
0000
0000
0000
,
0001
0000
0000
0010
0001
0000
0010
0000
0100
0000
0010
0000
0100
0000
1000
0000
,
0100
0000
0000
0100
0010
0000
0001
0000
0010
0000
0000
0000
1000
0000
0000
0000
,
0001
0000
0000
0100
0010
0000
0100
0000
0010
0000
0100
0000
0001
0000
1000
0000
,
0001
0000
0001
0000
0001
0010
0100
0000
0100
0000
0100
1000
,
0001
0100
0010
1000
0010
0000
1000
0000
,
0100
0000
0010
0000
0001
0000
0010
0000
0100
0000
1000
0100
1000
0000
0001
0000
,
1000
0001
0010
0100
0010
0000
0110
0000
,
1000
0000
0100
0000
0010
0000
0100
0000
0010
0000
0010
0100
0010
0000
0100
0000
,
1000
0001
0100
0010
0100
0000
0101
0000
,
0001
0000
0100
0000
1000
0000
0100
0000
0010
0000
0010
1000
0010
0000
0100
0000
,
0010
0000
1000
0000
0001
0000
0010
0000
0100
0000
0100
0010
0100
0000
2000
0000
,
0000
0000
0000
0002
,
3003
0000
0000
0000
;

//--------------- dance-single - mikeswrld ----------------
#NOTES:
     dance-single:
     mikeswrld:
     Hard:
     14:
     0,0,0,0,0:
0000
0000
0000
0000
,
0000
0000
0000
0000
,
0000
0000
0000
0000
,
0000
0000
0000
0000
,
0000
0000
0001
0100
1000
0100
0001
0010
,
1000
0010
0001
0010
0100
1000
1000
0000
,
0000
0000
1000
0100
0001
0100
1000
0010
,
0001
0010
1000
0010
0100
0001
0001
0000
,
1001
0000
0110
0100
0100
0000
0120
0000
,
0130
0000
0000
0000
1000
0000
1000
0100
1000
0000
0001
0010
0001
0000
0000
0000
,
0100
0000
0101
0001
0001
0000
2001
0001
,
3001
1001
0000
0001
0201
0000
0000
0310
,
0100
0000
1000
0010
0100
0000
0100
0001
,
0010
0000
0001
0010
1000
0001
0100
1000
,
0010
0000
0100
0100
0100
0020
1030
0000
,
2000
0010
0000
3010
0000
0000
0100
0000
,
1020
0000
0000
1030
,
0010
0100
0001
0000
1000
0000
0000
0000
,
2001
0000
0000
3001
,
1000
0001
0010
0000
0001
0000
0000
0000
,
0021
0000
0000
0031
,
0001
0010
0100
0000
0100
0000
0000
0000
,
0210
0000
0000
1300
,
0001
0100
0010
0000
0100
0000
0000
0000
,
0001
0000
1000
0100
1000
0000
0001
0010
0001
0000
1000
0010
1000
0000
0001
0100
,
0001
0100
1000
0100
0001
0001
0001
0000
,
1000
0000
1000
0001
0010
0000
0001
1000
0010
0000
1000
0001
0100
0000
0001
1000
,
0100
0001
0100
1000
0001
0100
0001
0000
,
0001
0000
0010
0001
0100
0000
0010
0100
0001
0000
0010
0100
1000
0000
0100
1000
,
0010
0100
0001
1000
0100
0001
0100
0000
,
1000
0100
1000
0000
0001
0000
1000
0000
0001
0010
0100
1000
0001
0010
0100
2000
,
0000
0000
0000
0001
0001
0001
3001
0000
,
0100
0000
0010
0000
1000
0100
0001
0100
,
1100
0000
0000
0000
0110
0000
0000
0000
0011
0000
0000
0001
0010
0000
0001
0000
,
0001
0000
1000
0000
0001
0100
1000
0100
,
0101
0000
0000
0000
0110
0000
0000
0000
1010
0000
0000
1000
0010
0000
0010
0000
,
0100
0000
0010
0000
1000
0001
0010
0001
,
1001
0000
0000
0000
0110
0000
0000
0000
1001
0000
0000
1000
0001
0000
1000
0000
,
1000
0000
1001
0000
0001
0001
1000
1000
,
0001
0100
0001
0100
0001
0100
0010
0100
0010
1000
0010
1000
,
0001
0000
0100
0001
0010
0000
0100
0000
2000
0000
0000
0000
3001
0000
1000
0000
,
1000
0000
0000
0000
0000
0000
1000
0000
0000
0100
0000
0000
0010
0000
0000
0000
0000
0000
0100
0000
0000
0000
0000
0000
1000
0000
0000
0000
0100
0000
0000
0000
1000
0000
0000
0000
0001
0000
0000
0000
0000
0000
0100
0000
0000
0000
0000
0000
,
0010
0000
0100
0010
0100
0000
0001
0000
1000
0000
0000
1000
0100
0000
0100
0000
,
0010
0000
0010
0100
0010
0000
0001
0000
0100
0000
0010
0100
0010
0000
1000
0000
,
0001
0000
1000
0001
0010
0000
0001
0000
0200
0000
0000
0000
0310
0000
0100
0000
,
0010
0000
0000
0000
0000
0000
0100
0000
0000
0001
0000
0000
0010
0000
0000
0000
0000
0000
0001
0000
0000
0000
0000
0000
0010
0000
0000
0000
0001
0000
0000
0000
0010
0000
0000
0000
0001
0000
0000
0000
0000
0000
1000
0000
0000
0000
0000
0000
,
0100
0000
1000
0100
0001
0000
0100
0000
1000
0000
0000
1000
0010
0000
0100
0000
,
0001
0000
0000
0100
0010
0000
1000
0000
0100
0000
0010
0000
0100
0000
1000
0000
,
1100
0100
1000
0001
0120
0000
1030
0000
,
1010
0000
0000
0000
1000
0000
1000
0100
1000
0000
0001
0100
0001
0000
0000
0000
,
0101
0000
0010
0010
0110
0100
0100
0000
,
1100
0000
0100
0000
0001
0000
0100
0010
0100
0000
0100
1000
0100
0000
0002
0000
,
0000
0000
1003
0001
2001
0000
0000
0000
,
0000
3010
1000
0000
0120
0000
0130
2010
,
0000
0000
3010
0100
0102
0000
0013
0000
,
0000
0010
0000
0010
0100
0000
1000
0000
,
1002
0000
0000
1003
,
0010
0100
0010
0000
0100
0000
0000
0000
,
0120
0000
0000
1030
,
0100
1000
0100
0000
1000
0000
0000
0000
,
1200
0000
0000
0310
,
1000
0001
1000
0000
0001
0000
0000
0000
,
2001
0000
0000
3100
,
0010
0100
0001
0000
1000
0000
0000
0000
,
0001
0000
0001
0100
1000
0000
1000
0100
0001
0000
0001
0010
1000
0000
1000
0010
,
0001
0010
0100
1000
0100
0100
0100
0000
,
0010
0000
0100
0010
0001
0000
0100
0010
1000
0000
0100
0010
0001
0000
0100
0010
,
1000
0000
0001
0000
0100
0000
0010
0000
1000
0000
0001
1000
0001
0000
0000
0000
,
1000
0000
1000
0010
0001
0000
0001
0010
1000
0000
1000
0100
0001
0000
0001
0100
,
1000
0100
1000
0100
0010
0001
1000
0000
,
0001
1000
0001
0000
0100
0000
0100
0000
0010
0100
0001
1000
0100
0010
0001
0010
,
0100
0100
1000
0000
2000
0000
0000
0000
,
3001
0000
0000
0010
0001
0000
0010
0000
0100
0000
0000
0100
1000
0000
0100
0000
,
0011
0000
0000
0000
0101
0000
0000
0000
1001
0000
0001
1000
0001
0000
1000
0000
,
1000
0000
0000
1000
0010
0000
0010
0100
0010
0000
0001
0000
0010
0000
0100
0000
,
0101
0000
0000
0000
1001
0000
0001
0000
1001
0000
1000
0001
1000
0000
0001
0000
,
1000
0000
0000
0001
1000
0000
0010
0100
0010
0000
0010
0000
0100
0000
0100
0000
,
0110
0000
0000
0000
1001
0000
0000
0000
0110
0000
0000
0010
0100
0000
0001
0000
,
1000
0000
0000
0100
0001
0000
0001
0100
1000
0000
0100
0000
0010
0000
0001
0000
,
1000
0001
1000
0001
1000
0001
0010
0100
0010
0100
1000
0100
,
0010
0000
0000
0010
0100
0000
1000
0000
0010
0000
0000
0010
0100
0000
0001
0000
,
0010
0000
0001
0010
0001
0000
0010
0000
0100
0000
0010
0100
0010
0000
1000
0000
,
0001
0000
0000
1000
0001
0000
0100
0000
0010
0000
0000
1000
0001
0000
0010
0000
,
0100
0000
0000
0000
0000
0000
0000
0000
0000
0100
0000
0000
1000
0000
0000
0000
0000
0000
0010
0000
0000
0000
0000
0000
0100
0000
0000
0000
0010
0000
0000
0000
0100
0000
0000
0000
0010
0000
0000
0000
0000
0000
1000
0000
0000
0000
0000
0000
,
0001
0000
0001
0100
0010
0000
1000
0000
0100
0000
0000
0100
0010
0000
0100
0000
,
1000
0000
0100
0010
0001
0000
1000
0000
0010
0000
0010
0100
0010
0000
1000
0000
,
0001
0000
0001
0010
1000
0000
0010
0000
0001
0000
0000
0001
1000
0000
2000
0000
,
0000
0000
0000
0002
,
3003
0000
0000
0000
;

//--------------- dance-single - mikeswrld ----------------
#NOTES:
     dance-single:
     mikeswrld:
     Challenge:
     16:
     0.754055,0.91387,0.307966,0.680389,0.522825,737,694,43,95,0,0,0.754055,0.91387,0.307966,0.680389,0.522825,737,694,43,95,0,0:
0000
0000
0000
0000
,
0000
0000
0000
0000
,
0000
0000
0000
0000
,
0000
0000
0000
0000
,
0000
0000
1000
0001
0100
0010
1000
0010
,
0100
0010
1000
0010
0100
0100
0200
0000
,
0000
0000
0301
0010
0100
0100
0010
0010
,
0100
0010
0100
1000
0001
0001
0002
0000
,
0103
0000
0010
0100
0010
0000
1000
0000
,
1002
0000
0000
0000
0013
0000
0010
0100
1000
0000
1000
0100
0010
0000
0000
0000
,
0110
0000
0001
1000
0010
0200
0310
1000
,
1001
0000
0001
0000
0010
0000
0001
0010
0100
0000
0100
0010
0002
0000
0000
0000
,
1003
0000
0000
0000
0000
0000
1000
0000
0000
0100
0000
0000
1000
0000
0010
0000
1000
0000
0001
0000
0000
0000
0000
0000
,
1001
1000
0200
0000
1300
0100
0020
0001
,
0031
0000
0001
0100
0010
1000
0001
1000
,
0001
0002
0103
0002
1003
0000
2000
0000
,
3002
0000
0000
0100
0000
0000
1003
0010
,
0100
0010
0200
0310
0020
0100
0100
0000
,
2030
0000
0000
0010
0000
0000
3001
0010
,
0100
0010
0200
0310
0020
0130
0200
0000
,
2300
0000
0000
0100
0000
0000
3001
1000
,
0001
1000
2000
3001
0002
0010
0200
0003
,
0320
0000
0000
0100
0000
0030
0010
0100
,
0001
1000
0020
0130
0200
0310
2000
3100
,
0010
0000
0100
1000
0010
0000
0100
0010
0100
0000
0001
0010
0100
0000
0010
0100
,
1000
0020
0130
0020
0031
0020
0130
0020
,
1030
0000
0100
1000
0001
0000
0010
0100
0010
0000
0100
1000
0001
0000
0100
0010
,
0100
0020
0130
0020
0031
0020
0130
0020
,
1030
0000
0001
0010
0100
0000
0010
0100
0010
0000
0100
1000
0010
0000
0100
0010
,
0100
0020
0130
0002
1003
0200
0310
0002
,
1003
0001
0100
0000
0010
0000
0100
0000
0010
0100
0001
1000
0100
0010
0100
2000
,
0000
0000
0000
0001
0001
0001
3200
0000
,
0310
0000
0000
0010
0001
0000
0010
0000
0100
0000
1000
0010
0100
0000
0001
0000
,
0101
0000
0000
0001
0010
0000
0100
0000
0110
0000
0000
0100
1000
0000
1000
0000
,
0001
0000
0000
0010
0001
0000
0001
0000
0100
0000
0010
0100
0010
0000
0100
0000
,
0110
0000
0000
0100
0010
0000
0010
0000
1010
0000
0000
0010
1000
0000
1000
0000
,
0001
0000
0000
0001
1000
0000
0010
0000
1000
0000
0000
0100
0010
0000
0001
0000
,
0011
0000
0000
0001
0010
0000
0100
0000
0110
0000
0000
0010
0100
0000
1000
0000
,
0001
0000
0000
1000
0100
0000
1000
0100
0010
0000
0001
0000
0001
0000
1000
0000
,
0001
0000
0100
0000
1000
0000
0001
0000
0010
0000
1000
0000
0100
0000
0010
0100
0010
0000
0001
0000
0100
0010
0100
0000
,
0010
0000
2000
3001
0010
0000
0002
1003
0010
0000
0100
0010
0200
0000
0310
0100
,
0001
0000
0000
0000
0000
0000
0020
0000
0000
0031
0000
0000
0100
0000
0000
0000
0000
0000
0002
0000
0000
0003
0000
0000
0010
0000
0000
0000
0010
0000
0000
0000
0100
0000
0000
0000
2000
0000
0000
0000
0000
0000
3001
0000
0000
0010
0000
0000
,
0100
0000
0020
0031
1000
0000
0002
1003
0010
0000
0100
0010
0200
0000
0310
1000
,
0100
0000
0000
0000
0000
0000
2000
0000
0000
3010
0000
0000
0100
0000
0000
0000
0000
0000
0010
0000
0000
0000
0000
0000
0100
0000
0000
0000
0001
0000
0000
0000
1000
0000
0000
0000
0002
0000
0000
0000
0000
0000
1003
0000
0000
0000
0000
0000
,
0100
0000
0010
0001
0100
0000
0100
0001
0010
0000
0001
0010
0100
0000
0100
0000
,
0010
0000
0000
0100
0000
0000
1000
0000
0000
0001
0000
0000
0100
0000
0000
0000
0000
0000
0100
0000
0000
0000
0000
0000
0010
0000
0000
0000
0010
0000
0000
0000
1000
0000
0000
0000
0001
0000
0000
0000
0000
0000
1000
0000
0000
0000
0000
0000
,
0001
0010
0001
0100
0010
0000
1000
0010
0100
0000
0010
0100
0001
0000
1000
0000
,
2001
0000
0000
0010
0000
0000
3100
0000
0010
0000
0001
0010
0100
0000
1000
0000
,
1010
0010
0100
0100
0110
0100
0101
0000
,
1001
0000
0000
0000
0001
0000
0100
010M
1000
0000
0010
M010
0002
0000
0000
0000
,
1003
0100
1000
1000
1010
0020
0230
0000
,
0310
0000
0200
0000
0301
0000
0010
001M
1000
0000
0100
M100
0001
0000
0020
0000
,
0000
0000
0000
0000
0001
0000
0031
0000
0010
0001
0010
0200
0000
0000
0000
0000
,
0000
1300
0002
0003
1001
0001
0100
0120
,
0000
0130
0100
0010
1010
2000
3200
0000
,
0000
0320
0031
0002
0000
0000
2003
0000
,
3002
0000
0000
0010
0000
0000
0013
0010
,
0001
0010
0200
1300
2000
0010
0020
3000
,
0230
0000
0000
0001
0000
0000
0001
0310
,
0100
0010
2000
3100
0010
0001
0002
0000
,
2003
0000
0000
0001
0000
0000
0010
3010
,
1000
0100
0020
0130
2000
0010
0100
3000
,
0020
0000
0000
1000
0000
0000
0130
0010
,
1000
0000
0100
0000
2000
0000
0100
0000
0002
0000
0000
0000
0000
0000
0000
3003
,
1000
0000
1000
0001
0010
0000
0010
0001
1000
0000
0001
1000
0100
0000
0100
1000
,
0001
0000
0001
0100
1000
0000
0001
0010
1000
0000
0010
0000
1000
0000
0100
0010
,
0001
0000
1000
0100
0010
0000
0001
0100
0010
0000
0100
0010
1000
0000
0100
1000
,
0100
0200
0310
0200
0301
0200
0310
0100
,
0110
0000
0001
1000
0010
0000
M010
0001
1000
0000
0001
0010
0100
0000
01M0
0010
,
1000
0020
0130
0020
0031
0020
0130
0020
,
1030
0010
0100
0000
0100
0000
0001
0000
0010
0001
0010
0100
1000
0100
0010
0001
,
1000
0010
0200
1300
0200
0010
0001
0300
,
1000
0000
0000
0001
1000
0000
0100
0010
0100
0000
1000
0000
1001
0000
1010
0000
,
1002
0000
0003
0000
2001
0000
3000
0000
1002
0000
0003
1000
0001
0000
1000
0000
,
0001
0000
0000
0010
0100
0000
1000
0100
1000
0000
0001
0000
0101
0000
1001
0000
,
0201
0000
0300
0000
0120
0000
0030
0000
2010
0000
3000
1000
0010
0000
0010
0000
,
1000
0000
0100
1000
0100
0000
1000
0010
0100
0000
0010
0100
0010
0000
0101
0000
,
1001
0000
0000
1000
0001
0000
0001
0000
0012
0000
0003
0010
0100
0000
0100
0000
,
0010
0000
0000
0010
0100
0000
1000
0100
0010
0000
0001
0000
1000
0000
0001
0000
,
1000
1000
1000
0001
0001
0001
0011
0010
0100
0110
0010
0001
,
1001
0000
0001
1000
0100
0000
0100
0000
1100
0000
0000
1000
0010
0000
0100
0000
,
0110
0000
0000
0000
0000
0000
0100
0000
0000
0010
0000
0000
1000
0000
0000
0000
0000
0000
0100
0000
0000
0000
0000
0000
0010
0000
0000
0000
0010
0000
0100
0000
0010
0000
0000
0000
0001
0000
0000
0000
0000
0000
1000
0000
0000
0000
0000
0000
,
1001
0000
0000
1000
0001
0000
0001
0000
0011
0000
0000
0010
0100
0000
1000
0000
,
1010
0000
0000
0000
0000
0000
0010
0000
0000
0100
0000
0000
0010
0000
0000
0000
0000
0000
1000
0000
0000
0000
0000
0000
0100
0000
0000
0000
0100
0000
1000
0000
0100
0000
0000
0000
0010
0000
0000
0000
0000
0000
0001
0000
0000
1000
0000
0000
,
0010
0100
0010
1000
0100
0000
0110
0000
0001
0010
0100
1000
0100
0000
0110
0000
,
0001
0000
0000
0000
0000
0000
0100
0000
0000
0010
0000
0000
1000
0000
0000
0000
0000
0000
0100
0000
0000
0010
0000
0000
0001
0000
0000
0000
0100
0000
0000
0000
1000
0000
0000
0000
0001
0000
0000
0000
0010
0000
0000
0000
1000
0000
0000
0000
,
0100
0000
0010
0001
1000
0000
0100
0000
0010
0100
0010
0001
1000
0001
2000
0000
,
0000
0000
0000
0002
,
3003
0000
0000
0000
;
