#TITLE:JULIA;
#SUBTITLE:(short edit);
#ARTIST:cranky;
#TITLETRANSLIT:;
#SUBTITLETRANSLIT:;
#ARTISTTRANSLIT:;
#GENRE:RAVE;
#CREDIT:;
#BANNER:julia.png;
#BACKGROUND:julia-bg.png;
#LYRICSPATH:;
#CDTITLE:;
#MUSIC:julia.ogg;
#OFFSET:-1.126920;
#SAMPLESTART:38.287998;
#SAMPLELENGTH:12.387000;
#SELECTABLE:YES;
#BPMS:0.000000=77.500000
,32.000000=155.000000
;
#STOPS:
;
#BGCHANGES:;
#KEYSOUNDS:;
#ATTACKS:;

//---------------dance-single - ----------------
#NOTES:
     dance-single:
     :
     Hard:
     15:
     0.711896,0.789400,0.175253,0.236210,0.701011,654.000000,631.000000,23.000000,31.000000,0.000000,0.000000,0.711896,0.789400,0.175253,0.236210,0.701011,654.000000,631.000000,23.000000,31.000000,0.000000,0.000000:
0000
0000
0000
0000
,
0000
0000
0000
0000
,
0000
0000
0000
0000
,
0000
0000
0000
0000
,
1001
0000
0000
0000
1000
0000
0100
0000
0000
0000
0001
0000
0000
0000
0100
0000
0010
0000
0001
0000
0000
0000
1000
0010
1000
0000
0000
0010
0000
0000
0001
0000
,
0010
0000
0100
0000
0000
0000
0001
0100
0001
0000
0000
1000
0000
0000
0100
0000
0001
0000
0100
0000
1000
0000
0000
0000
0001
0000
0100
0000
0010
0000
1000
0000
,
0001
0000
0010
1000
0000
0010
0100
1000
0001
0000
0100
0000
0000
1000
0100
0010
,
1000
0000
0000
0000
0000
0000
0100
0010
0100
0000
0000
0000
0000
0000
0000
0000
1100
0000
0000
0101
0000
0000
1100
0000
0000
0000
1001
0000
0000
0000
0000
0000
,
1000
0100
0010
0001
1000
0010
0001
0010
,
1000
0010
0000
0100
0001
0100
0000
0001
0010
0001
0010
0000
1000
0000
0010
0000
,
0001
0010
0100
1000
0001
0100
1000
0100
,
0001
0100
0000
0010
1000
0010
0000
0100
0001
0010
0001
0010
0100
1000
0100
0010
,
0001
0100
0010
1000
0001
0010
1000
0010
,
0001
0010
0000
0100
1000
0100
0000
1000
0010
1000
0010
0000
0001
0000
0010
0000
,
1000
0010
0100
0001
1000
0100
0001
0100
,
1000
0100
1000
0100
0010
0001
0010
0001
0010
0100
1000
0001
0100
0010
1000
0010
,
2000
0010
3010
1000
0010
1000
0001
0100
,
1000
0000
0100
0000
0001
0000
0100
0010
0100
0000
0010
1000
0001
0000
0010
0000
,
0002
0010
0013
0001
0010
0001
1000
0100
,
0001
0000
0100
0000
1000
0000
0100
0010
0100
0010
0001
1000
0001
0000
0001
0000
,
2000
0100
3100
1000
0100
1000
0001
0010
,
1000
0000
0010
0000
0001
0000
1000
0010
1000
0010
0000
0100
0001
0010
0001
0010
,
0200
0000
0000
0301
0100
0000
1000
0000
0002
0000
0000
0103
0010
0000
1000
0000
,
0001
0010
0001
0000
1000
0100
1000
0000
0001
1000
0001
1000
0010
0000
0000
0000
,
1010
0000
1000
0100
1000
0000
1000
0010
0100
0000
0001
0000
0010
0000
0001
0000
,
0011
0000
0001
0100
0001
0000
0001
0010
0100
0000
1000
0000
0001
0100
0010
1000
,
0010
0000
0001
0000
0010
0000
1000
0000
0100
0010
0000
0001
0010
0000
0001
0000
,
1000
0010
1000
0010
0100
0000
1000
0000
0100
0001
0000
0010
0001
0000
0000
0000
,
0011
0000
1000
0001
1000
0000
0001
1000
0010
0000
0001
0000
0010
0000
1000
0000
,
1010
0000
0001
1000
0001
0000
1000
0001
0010
0000
1000
0000
0010
0001
0010
0100
,
1000
0000
0100
0000
0001
0000
0100
0000
1000
0100
1000
0100
0010
0001
0010
0001
,
1000
0000
0001
0100
0001
0000
0100
0010
2000
0000
0001
0000
3001
0000
0000
0000
,
2000
0000
0020
0030
,
0002
0000
0003
0000
0200
3300
1100
0000
,
1002
0000
0020
0030
,
2000
0000
3000
0000
0200
0303
0101
0000
,
0210
0000
0002
0003
,
0020
0000
0000
0000
0000
0000
0030
0000
0000
0000
0000
0000
2000
0000
0000
3300
0000
0000
0100
0000
0010
0000
0100
0000
,
0020
0000
0002
0003
,
0200
0000
0300
0030
1010
0000
0000
0000
,
2000
0000
0000
0010
0000
0000
3010
0000
0100
0000
0001
0100
0000
0010
0100
0000
,
0001
0000
0010
1000
0000
0010
0100
0000
1000
0000
0001
0100
0000
0001
0010
0000
,
0002
0000
0000
0010
0000
0000
0013
0000
0100
0000
1000
0100
0000
0010
0100
0000
,
1000
0000
0010
0001
0000
0010
0100
0000
0001
0000
1000
0100
0000
1000
0010
0000
,
2000
0000
0000
0001
0000
0000
3001
0000
1000
0000
0010
0001
0000
0010
1000
0000
,
0010
0000
0100
0001
0000
0100
0010
0000
0100
0000
0001
1000
0001
0000
0000
0000
,
0002
0000
0000
0010
0000
0000
0013
0000
0001
1000
0010
0100
0001
0000
0000
0000
,
1000
0000
0100
0000
0001
0000
0100
0000
1000
0000
0001
0100
0010
0000
0000
0000
,
1000
0000
0010
0000
0001
0000
0010
0000
0100
0000
0001
0000
0010
0000
0100
1000
,
0100
0000
1000
0001
0100
0000
0001
0100
0001
0000
0100
0010
1000
0000
0010
0100
,
0010
0000
0100
0001
0010
0000
0001
0010
0002
0000
0000
0010
0000
0000
0013
0000
,
0100
0000
1000
0100
0000
0001
0100
0000
1000
0000
0001
0100
0000
1000
0100
0000
,
0010
0001
0010
1000
0001
0010
0100
1000
,
0001
0000
0100
0000
1000
0000
0100
0000
0010
0000
1000
0000
0100
0000
0010
0001
,
1000
0010
1000
0010
0100
0000
0000
0000
1000
0000
0100
0000
0001
0000
1000
0000
,
1100
0000
1000
0001
1000
0000
0000
0000
0101
0000
0001
1000
0001
0000
0000
0000
,
1000
0100
0010
0001
1000
0010
0001
0010
,
1000
0000
0010
0000
0100
0000
0010
0000
1000
0010
1000
0000
0001
0100
0001
0000
,
0001
0100
0010
1000
0001
0010
1000
0010
,
0001
0000
0010
0000
0100
0000
0010
0001
0010
0001
1000
0010
0100
0001
0100
0001
,
1000
0100
0010
0001
1000
0010
0001
0010
,
1000
0000
0010
0000
0100
0000
0001
0010
0001
0010
0000
0100
1000
0010
1000
0010
,
0200
0000
0000
1300
0100
0000
0001
0000
2000
0000
0000
3100
0010
0000
0001
0000
,
1000
0010
1000
0000
0001
0100
0001
0000
1000
0001
1000
0001
0010
0000
0000
0000
,
0011
0000
0001
0100
0001
0000
0001
0010
0100
0000
1000
0000
0010
0000
1000
0000
,
1010
0000
1000
0100
1000
0000
1000
0010
0100
0000
0001
0000
1000
0100
0010
0001
,
0010
0000
1000
0000
0010
0000
0001
0000
0100
0010
0000
1000
0010
0000
1000
0000
,
0001
0010
0001
0010
0100
0000
0001
0000
0100
1000
0000
0010
1000
0000
0000
0000
,
1010
0000
0001
1000
0001
0000
1000
0001
0010
0000
1000
0000
0010
0000
0001
0000
,
0011
0000
1000
0001
1000
0000
0001
1000
0010
0000
0001
0000
0010
1000
0010
0100
,
0001
0000
0100
0000
1000
0000
0100
0000
0001
0100
0001
0100
0010
1000
0010
1000
,
0001
0000
1000
0100
1000
0000
0100
0010
0002
0000
1000
0000
1003
0000
0000
0000
,
1000
0010
0000
1000
0100
0000
0010
0001
0000
0100
0001
0000
1000
0010
0100
0001
,
1000
0000
0000
1100
0000
0000
0101
0000
0000
0000
2002
0000
0000
0000
0000
0000
,
3003
0000
0000
0000
;

//---------------dance-single - ----------------
#NOTES:
     dance-single:
     :
     Medium:
     12:
     0.484394,0.592050,0.297168,0.182872,0.190492,445.000000,406.000000,39.000000,24.000000,0.000000,0.000000,0.484394,0.592050,0.297168,0.182872,0.190492,445.000000,406.000000,39.000000,24.000000,0.000000,0.000000:
0000
0000
0000
0000
,
0000
0000
0000
0000
,
0000
0000
0000
0000
,
0000
0000
0000
0000
,
1001
0000
1000
0100
0010
0000
0001
1000
,
0010
0000
0000
0000
0001
0000
0010
0000
0100
0000
0001
0000
0000
1000
0100
0010
,
0001
0000
0000
0000
1000
0000
0010
0000
1000
0000
0001
0000
0000
0100
1000
0100
,
0010
0000
0000
0000
0000
0000
0000
0000
1000
0000
0000
0000
0000
0000
0000
0000
1010
0000
0000
1010
0000
0000
1010
0000
0000
0000
1001
0000
0000
0000
0000
0000
,
1000
0000
0100
0010
0001
0000
1000
0010
,
0001
0000
0000
0010
1000
0000
0000
0001
1000
0000
0100
0000
0001
0000
0100
0000
,
1000
0000
1000
0100
0010
0000
0001
0010
,
1000
0000
0000
0010
0001
0000
0000
1000
0001
0000
0100
0000
1000
0000
0100
0000
,
0001
0000
0100
0010
1000
0000
0001
0010
,
1000
0000
0000
0010
0001
0000
0000
1000
0001
0000
0100
0000
1000
0000
0100
0000
,
0001
0000
0001
0100
0010
0000
0001
0010
,
1000
0000
0000
0010
1000
0000
0000
0001
1000
0000
0100
0000
0001
0000
0100
0000
,
2000
0000
0100
0100
3100
0010
0001
0010
,
0100
0000
0000
1000
0010
0000
0000
1000
0100
0000
0001
0000
0100
0000
1000
0000
,
0002
0000
0100
0100
0103
0010
1000
0010
,
0100
0000
0000
0001
0010
0000
0000
0001
0100
0000
1000
0000
0100
0000
0001
0000
,
2000
0000
0001
0001
3001
0010
1000
0010
,
0100
0000
0000
1000
0010
0000
0000
1000
0100
0000
0010
0000
0001
0000
0100
0000
,
0101
0000
1000
1000
1100
0000
0001
0001
,
0011
1010
2002
3003
,
0100
1000
0100
1000
0010
0000
0101
0000
,
0100
0001
0100
0001
0010
0000
1100
0000
,
0001
0100
0001
0000
1000
0001
1000
0000
,
0100
1000
0100
0010
0001
0000
1001
0000
,
1000
0010
0001
0010
1000
0000
0101
0000
,
0001
0010
1000
0010
0001
0000
1100
0000
,
1000
0100
1000
0000
0001
1000
0001
0000
,
0100
0001
0100
0010
1000
0000
1001
0000
,
2000
0000
0000
0000
,
0020
0000
3030
1010
,
0002
0000
0000
0000
,
0200
0000
0303
0101
,
0002
0000
0000
0000
,
0020
0000
0000
0000
0000
0000
0033
0000
0000
0001
1000
0001
,
2000
0000
0000
0000
,
0200
0000
3300
0000
,
1100
0000
0000
0000
0000
0000
0000
0000
1000
0000
0000
0010
0000
0000
1000
0000
,
0001
0000
0000
0100
0000
0000
1000
0000
0100
0000
0000
0001
0000
0000
0100
0000
,
0101
0000
0000
0000
0000
0000
0000
0000
0001
0000
0000
0010
0000
0000
0001
0000
,
1000
0000
0000
0100
0000
0000
0001
0000
0100
0000
1000
0000
0010
0000
1000
0000
,
1010
0000
0000
0000
0000
0000
0000
0000
0001
0000
0000
0100
0000
0000
1000
0000
,
0100
0000
0000
0001
0000
0000
0010
0000
0100
0000
1000
0000
0001
0000
0000
0000
,
1001
0000
0000
0000
0000
0000
0000
0000
1000
0000
0000
0100
0000
0000
0001
0000
,
0100
0000
0000
1000
0000
0000
0010
0000
0100
0000
0001
0000
1000
0000
0100
0000
,
0020
0000
0000
0001
0000
0000
0031
0000
1000
0000
0000
0001
0000
0000
1000
0000
,
0001
0100
0010
1000
0001
0010
1000
0010
,
0001
0000
0010
0000
0100
0000
1000
0000
0020
0000
0000
0100
0000
0000
0130
0000
,
0200
0000
0000
0001
0000
0000
0301
0000
1000
0000
0000
0001
0000
0000
1000
0000
,
2000
0000
0000
0100
0000
0000
3100
0000
0001
0000
0000
0100
0000
0000
1000
0000
,
0010
0000
0000
0100
0000
0000
0001
0000
1000
0000
0000
0100
0000
0000
0010
0000
,
0001
0010
0100
1000
0001
0100
1000
0100
,
0001
0001
0101
0000
1000
1000
1100
0000
,
2000
0000
0010
0010
3010
0100
1000
0100
,
0001
0000
0000
0100
0001
0000
0000
0010
0001
0000
0010
0000
0100
0000
1000
0000
,
0002
0000
0010
0010
0013
0100
0001
0100
,
1000
0000
0000
0100
1000
0000
0000
0010
1000
0000
0010
0000
0100
0000
0001
0000
,
2000
0000
0100
0100
3100
0010
1000
0010
,
0001
0000
0000
0100
0001
0000
0000
0010
0001
0000
0010
0000
0100
0000
1000
0000
,
1100
0000
0001
0001
0101
0000
1000
1000
,
1010
0011
2002
3003
,
0100
0001
0100
0001
0010
0000
1100
0000
,
0100
1000
0100
1000
0010
0000
0101
0000
,
0001
0100
0001
0000
1000
0001
1000
0000
,
0100
1000
0100
0010
0001
0000
1001
0000
,
0001
0010
1000
0010
0001
0000
1100
0000
,
1000
0010
0001
0010
1000
0000
0101
0000
,
1000
0100
1000
0000
0001
1000
0001
0000
,
0100
0001
0100
0010
1000
0000
1001
0000
,
0001
0000
0000
0001
0000
0000
1000
0000
0000
1000
0000
0000
0010
0000
0100
0000
,
0101
0000
0000
1001
0000
0000
1100
0000
0000
0000
2002
0000
0000
0000
0000
0000
,
3003
0000
0000
0000
;

//---------------dance-single - ----------------
#NOTES:
     dance-single:
     :
     Easy:
     8:
     0.341797,0.394700,0.167633,0.114295,0.003810,314.000000,292.000000,22.000000,15.000000,0.000000,0.000000,0.341797,0.394700,0.167633,0.114295,0.003810,314.000000,292.000000,22.000000,15.000000,0.000000,0.000000:
// measure 0
0000
0000
0000
0000
,  // measure 1
0000
0000
0000
0000
,  // measure 2
0000
0000
0000
0000
,  // measure 3
0000
0000
0000
0000
,  // measure 4
1001
0000
1000
0001
0010
0000
1000
0000
,  // measure 5
0010
0000
0001
0010
0100
1000
0000
0000
,  // measure 6
1001
0000
0001
1000
0010
0000
0001
0000
,  // measure 7
0010
0000
0000
0000
1000
0000
0000
0000
0200
0000
0000
0000
0000
0300
0000
0000
,  // measure 8
1000
0000
0010
0000
1000
0100
0010
0001
,  // measure 9
0010
0000
1000
0000
0010
0010
0010
0000
,  // measure 10
0001
0000
0010
0000
0001
0100
0010
1000
,  // measure 11
0010
0000
0001
0000
0010
0010
0010
0000
,  // measure 12
1000
0000
0001
0000
1000
0100
0010
0001
,  // measure 13
0100
0000
0001
0000
0010
0010
0010
0000
,  // measure 14
0001
0000
1000
0000
0001
0100
0010
1000
,  // measure 15
0100
0000
1000
0000
0010
0010
0010
0000
,  // measure 16
2000
0000
0010
3010
,  // measure 17
0001
0000
0010
0000
1000
0010
1000
0000
,  // measure 18
0002
0000
0010
0013
,  // measure 19
1000
0000
0010
0000
0001
0010
0001
0000
,  // measure 20
2000
0000
0100
3100
,  // measure 21
0001
0000
0100
0000
1000
0100
1000
0000
,  // measure 22
1100
0001
0101
1000
,  // measure 23
0001
1000
2002
3003
,  // measure 24
1000
0010
1000
0101
,  // measure 25
0001
0010
0001
1100
,  // measure 26
0001
0001
0001
0000
1000
1000
1000
0000
,  // measure 27
0010
0001
0010
1010
,  // measure 28
0001
0010
1000
0011
,  // measure 29
1000
0010
0001
1010
,  // measure 30
0001
0001
0001
0000
1000
1000
1000
0000
,  // measure 31
0100
0010
0001
1001
,  // measure 32
2000
0000
0000
0000
,  // measure 33
0000
3000
0000
0001
,  // measure 34
0002
0000
0000
0000
,  // measure 35
0000
0003
0000
1001
,  // measure 36
0200
0000
0000
0000
,  // measure 37
0000
0300
0000
0010
,  // measure 38
0020
0000
0000
0030
,  // measure 39
1001
0000
0110
0000
,  // measure 40
1000
0100
0010
0001
,  // measure 41
1000
0010
0001
0010
,  // measure 42
1000
0001
0100
0001
,  // measure 43
0010
0000
0100
0000
1000
0001
1000
0000
,  // measure 44
0001
0100
1000
0100
,  // measure 45
0001
0000
0010
0000
0100
1000
0100
0000
,  // measure 46
1000
0100
0001
0100
,  // measure 47
1000
0000
0010
0000
0100
0001
0100
0000
,  // measure 48
0001
0000
0001
0000
,  // measure 49
1000
1000
0100
0100
,  // measure 50
1000
1000
0020
0030
,  // measure 51
0100
0001
0010
0001
,  // measure 52
1000
0100
0010
0001
,  // measure 53
1000
0010
0001
0010
,  // measure 54
1000
0001
0010
0100
,  // measure 55
1000
1000
1000
0000
0001
0001
0001
0000
,  // measure 56
1000
0000
0001
0100
0001
0000
1000
0100
,  // measure 57
0010
0000
1000
0000
0010
0001
0010
0100
,  // measure 58
1000
0000
1000
0100
1000
0000
0001
0100
,  // measure 59
0010
0000
0001
0000
0010
1000
0010
0100
,  // measure 60
0001
0000
0001
0100
1000
0000
0100
0001
,  // measure 61
0100
0000
0010
0000
1000
0100
0010
0001
,  // measure 62
1000
1000
1000
0000
0001
0001
0001
0000
,  // measure 63
0100
0010
0220
0330
,  // measure 64
1000
0010
1000
0101
,  // measure 65
0001
0010
0001
1100
,  // measure 66
0001
0001
0001
0000
1000
1000
1000
0000
,  // measure 67
0010
0001
0010
1010
,  // measure 68
0001
0010
1000
0011
,  // measure 69
1000
0010
0001
1010
,  // measure 70
0001
0001
0001
0000
1000
1000
1000
0000
,  // measure 71
0100
0010
0001
1001
,  // measure 72
1000
0000
0000
0001
0000
0000
0100
0000
,  // measure 73
0010
0000
0000
0010
0000
0000
0010
0000
0000
0000
2002
0000
0000
0000
0000
0000
,  // measure 74
3003
0000
0000
0000
;
