#TITLE:JUDGEMENT ARROWS;
#SUBTITLE:;
#ARTIST:HASEKO feat.setuna;
#TITLETRANSLIT:;
#SUBTITLETRANSLIT:;
#ARTISTTRANSLIT:;
#GENRE:EUROBEAT;
#CREDIT:;
#BANNER:JUDGEMENT ARROWS.png;
#BACKGROUND:JUDGEMENT ARROWS-bg.png;
#LYRICSPATH:;
#CDTITLE:;
#MUSIC:JUDGEMENT ARROWS.ogg;
#OFFSET:1.113704;
#SAMPLESTART:48.382210;
#SAMPLELENGTH:16.219999;
#LASTBEATHINT:0.243861;
#SELECTABLE:YES;
#BPMS:0.000000=160.000000
;
#STOPS:
;
#BGCHANGES:3.000=JUDGEMENT ARROWS.mp4=1.000=1=0=1===CrossFade==,
99999=-nosongbg-=1.000=0=0=0 // don't automatically add -songbackground-
;
#KEYSOUNDS:;
#ATTACKS:;

//---------------dance-single - ----------------
#NOTES:
     dance-single:
     :
     Hard:
     13:
     0.652161,0.772877,0.360676,0.412201,0.360676,443.000000,408.000000,35.000000,40.000000,0.000000,0.000000,0.652161,0.772877,0.360676,0.412201,0.360676,443.000000,408.000000,35.000000,40.000000,0.000000,0.000000:
// measure 0
0000
0000
0000
0000
,  // measure 1
0000
0000
0000
0000
,  // measure 2
0000
0000
0000
0000
,  // measure 3
0000
0000
0000
0000
,  // measure 4
0000
0000
0000
0000
,  // measure 5
1000
0100
1000
0001
1000
0010
1000
0001
,  // measure 6
0100
0001
0010
0001
1000
0001
0100
0001
,  // measure 7
1000
0100
0010
0001
1000
0010
0100
0001
,  // measure 8
2002
3003
0110
1001
,  // measure 9
2000
0000
0010
0000
0010
0000
3010
0000
1000
0001
0100
0000
0010
0000
0100
0000
,  // measure 10
0000
0000
0001
0010
0100
0000
1000
0000
0001
0100
0010
0000
1000
0000
0001
0000
,  // measure 11
1000
0100
1000
0100
1000
0000
0001
0100
0000
0010
0100
0000
0001
0000
1000
0000
,  // measure 12
0001
0010
1000
0010
0011
0000
1001
0000
,  // measure 13
0002
0000
0100
0000
0100
0000
0103
0000
0001
1000
0010
0000
0100
0000
0010
0000
,  // measure 14
0000
0000
1000
0100
0010
0000
0001
0000
1000
0010
0100
0000
0001
0000
1000
0000
,  // measure 15
0001
0010
0001
0010
0001
0000
1000
0010
0000
0100
0010
0000
1000
0000
0001
0000
,  // measure 16
1000
0100
0001
0100
1100
0000
1001
0000
,  // measure 17
0002
0000
0000
0100
0000
0000
1003
0000
0001
0000
0000
0000
1000
0000
0001
0000
,  // measure 18
1000
0010
0100
0001
1000
0001
0010
0000
,  // measure 19
0002
0000
0000
0010
0000
0000
1003
0000
0001
0000
0000
0000
1000
0000
0100
0000
,  // measure 20
0010
0000
0001
0000
0100
0000
0010
0000
1000
0001
0000
0100
0000
0001
1000
0000
,  // measure 21
0002
0000
0000
0010
0000
0000
0100
0000
1003
0000
0000
0000
0001
0000
0100
0000
,  // measure 22
0010
1000
0100
1000
0001
0100
0010
1000
,  // measure 23
0001
0010
0100
0010
2000
0000
3010
0001
,  // measure 24
1000
0000
0001
0000
0100
0010
0100
0000
0001
1000
0001
0000
0010
0100
0010
0000
,  // measure 25
0002
0000
0100
1003
0000
0001
0100
1000
,  // measure 26
0000
1000
0100
0001
1000
0020
0230
0302
,  // measure 27
2003
0000
3001
0011
0000
1100
0000
1002
,  // measure 28
0000
0000
0000
0000
0103
0001
0100
0000
0010
1000
0010
0000
1000
0001
1000
0000
,  // measure 29
0001
0000
0010
0000
0100
1000
0000
1000
0001
0000
0001
0100
0000
0100
0010
0000
,  // measure 30
1000
0000
0100
0000
0010
0001
0000
0001
1000
0000
1000
0010
0000
0010
0100
0000
,  // measure 31
0002
0000
0103
0000
0020
0000
0130
0000
2000
0000
3100
0000
0001
1000
0001
1000
,  // measure 32
0002
0000
0000
0000
0003
0000
2200
0000
0000
0000
3300
0000
1000
0001
1000
0001
,  // measure 33
2000
0000
3100
0001
0100
1000
0000
1100
,  // measure 34
0000
0011
0000
1100
0000
2002
0000
3003
,  // measure 35
0001
0100
0010
0001
1000
0100
0010
1000
,  // measure 36
0001
0010
0001
0010
0001
0000
1000
0010
0000
1000
0001
0000
2000
0000
0000
0000
,  // measure 37
3001
0000
0100
1000
0100
0001
0000
0101
,  // measure 38
0000
1010
0000
0101
0000
2002
0000
3003
,  // measure 39
0001
0010
0100
0001
1000
0010
0100
1000
,  // measure 40
0001
0000
0001
0000
1000
0000
1000
0000
0010
0100
0010
0000
1000
0001
1000
0000
,  // measure 41
1001
0000
0001
0100
1000
0001
0000
1010
,  // measure 42
0000
0101
0000
0011
0000
2200
0000
3300
,  // measure 43
2000
0010
3001
1000
0002
0010
1003
0001
,  // measure 44
1000
0100
0010
0001
1000
0000
0001
0100
0000
0010
1000
0000
0002
0000
0000
0000
,  // measure 45
1003
0000
0001
0010
1000
0001
0000
1100
,  // measure 46
0000
0011
0000
1010
0000
0202
0000
0303
,  // measure 47
0001
0010
0100
0000
1000
0000
0100
0000
1000
0010
0100
0000
0001
0000
0100
0000
,  // measure 48
1002
0000
0100
0013
,  // measure 49
0002
0000
0010
0000
1000
0000
0013
0000
0001
1000
0100
0000
0010
0000
0100
0000
,  // measure 50
0000
0000
1000
0010
0100
0000
0001
0000
1000
0100
0010
0000
0001
0000
1000
0000
,  // measure 51
0001
0100
0001
0100
0001
0000
1000
0100
0000
0001
0100
0000
1000
0000
0001
0000
,  // measure 52
1000
0010
0001
0010
1010
0000
1001
0000
,  // measure 53
2000
0000
0100
0000
0001
0000
3100
0000
1000
0001
0010
0000
0100
0000
0010
0000
,  // measure 54
0000
0000
0001
0100
0010
0000
1000
0000
0001
0010
0100
0000
1000
0000
0001
0000
,  // measure 55
1000
0010
1000
0010
1000
0000
0001
0010
0000
1000
0010
0000
0001
0000
1000
0000
,  // measure 56
0001
0100
0010
1000
0010
0100
0001
1000
0020
0000
0000
0000
0200
0000
0330
0000
,  // measure 57
1001
0000
0000
0000
1001
0000
0000
1000
0000
0100
0010
0000
0100
0000
1000
0000
,  // measure 58
1001
0010
0100
2002
0000
0000
0000
0000
,  // measure 59
0000
0000
0000
0000
,  // measure 60
3003
0000
0000
0000
;

//---------------dance-single - ----------------
#NOTES:
     dance-single:
     :
     Challenge:
     15:
     0.741962,0.865622,0.350371,0.515251,0.654369,504.000000,470.000000,34.000000,50.000000,40.000000,0.000000,0.741962,0.865622,0.350371,0.515251,0.654369,504.000000,470.000000,34.000000,50.000000,40.000000,0.000000:
// measure 0
0000
0000
0000
0000
,  // measure 1
0000
0000
0000
0000
,  // measure 2
0000
0000
0000
0000
,  // measure 3
0000
0000
0000
0000
,  // measure 4
0000
0000
0000
0000
,  // measure 5
1000
0200
0310
0200
0301
0200
0310
0200
,  // measure 6
1300
0020
0130
0020
0031
0020
0130
0020
,  // measure 7
1030
0100
0010
0000
0001
0000
1000
0000
0001
0100
0010
0000
1000
0000
0001
0000
,  // measure 8
2002
3003
0110
1001
,  // measure 9
2000
0000
0100
0000
0001
0000
3100
0000
1000
0001
0100
0000
0010
0000
0100
0000
,  // measure 10
0MM0
0000
0100
1000
0001
0000
1000
0000
0001
0100
0010
0000
0100
0000
0001
0000
,  // measure 11
1000
0010
1000
0001
1000
0000
0001
0010
000M
0010
1000
0000
0001
0000
0100
0000
,  // measure 12
0001
0010
0100
1000
0100
0010
0001
1000
0020
0000
0030
0000
2002
0000
3003
0000
,  // measure 13
0002
0000
0010
0000
1000
0000
0013
0000
0001
1000
0010
0000
0100
0000
0010
0000
,  // measure 14
0MM0
0000
0010
0001
1000
0000
0001
0000
1000
0010
0100
0000
0010
0000
1000
0000
,  // measure 15
0001
0100
0001
1000
0001
0000
1000
0100
M000
0100
0001
0000
1000
0000
0010
0000
,  // measure 16
1000
0100
0010
0001
0010
0100
1000
0001
0200
0000
0300
0000
2002
0000
3003
0000
,  // measure 17
0011
0000
0000
0010
0001
0000
0100
0000
0010
0000
0000
0000
0100
0000
0001
0000
,  // measure 18
1000
0100
0002
0103
1000
0001
2000
3000
,  // measure 19
1010
0000
0000
0010
1000
0000
0100
0000
0010
0000
0000
0000
0100
0000
1000
0000
,  // measure 20
0002
0000
0100
0000
1000
0000
0103
0000
0001
0010
0000
1000
0000
0010
0100
0000
,  // measure 21
1000
0000
0000
0010
0100
0000
0001
0000
1001
0000
0000
0000
0001
0000
1000
0000
,  // measure 22
0100
0010
0002
1003
0010
0100
0002
0013
,  // measure 23
0100
0010
1000
0010
0002
0000
0100
1003
,  // measure 24
0001
0100
0001
0100
0010
1000
0010
1000
0001
0010
0001
0010
0100
1000
0100
1000
,  // measure 25
0002
0000
0100
0013
0000
0001
0100
0020
,  // measure 26
0000
1030
0100
0001
0100
2000
3020
0230
,  // measure 27
0302
0000
0013
0011
0000
1100
0000
2002
,  // measure 28
0000
0000
3003
0000
1000
0010
0100
0001
1000
0100
0010
0001
0010
0100
1000
0001
,  // measure 29
1000
0010
1000
0000
0001
0100
0000
0100
1000
0000
1000
0010
0000
0010
0001
0000
,  // measure 30
1000
0100
1000
0000
0001
0010
0000
0010
1000
0000
1000
0100
0000
0100
0001
0000
,  // measure 31
1000
0010
0100
0001
1000
0001
0010
0100
1000
0001
1000
0010
0100
0001
1000
0001
,  // measure 32
2000
0000
0000
0000
3000
0000
0202
0000
0000
0000
0303
0000
0001
0010
0100
1000
,  // measure 33
0001
0000
0000
0000
1000
0010
1000
0001
1000
0000
0100
0000
0000
0000
1100
0000
,  // measure 34
00MM
0011
M0M0
1010
0M0M
0102
0000
1003
,  // measure 35
0001
0000
0010
000M
0010
0000
1000
0000
0001
0000
0100
000M
0100
0000
1000
0000
,  // measure 36
0001
0100
0001
0100
0010
0000
0100
1000
0000
0100
0010
0000
0100
0000
0001
0000
,  // measure 37
1000
0000
0000
0000
0001
0010
0001
1000
0001
0000
0100
0000
0000
0000
0101
0000
,  // measure 38
M0M0
1010
00MM
0011
MM00
2100
0000
3001
,  // measure 39
1000
0100
0010
0000
0001
0000
0100
000M
0100
1000
0001
0000
0100
0000
0010
0000
,  // measure 40
1000
0010
0100
0001
1000
0001
0010
0100
1000
0100
0010
0001
1000
0001
0100
0010
,  // measure 41
1000
0000
0000
0000
0001
0100
0010
0100
1000
0000
0100
0000
0000
0000
1010
0000
,  // measure 42
0M0M
0101
M0M0
0011
MM00
2100
0000
3001
,  // measure 43
1000
0000
0010
0000
0100
00M0
0100
0000
1000
0000
0001
0000
0010
000M
0010
0000
,  // measure 44
1000
0001
0010
0100
1000
0000
0001
0100
000M
0100
1000
0000
0001
0000
1000
0000
,  // measure 45
0001
0000
0000
0000
1000
0100
0010
0100
0001
0000
0100
0000
0000
0000
0011
0000
,  // measure 46
MM00
1100
00MM
1010
0M0M
0102
0000
1003
,  // measure 47
0001
0100
0010
0100
0001
1000
0100
0010
0100
1000
0001
0100
0001
0010
0100
1000
,  // measure 48
0002
0000
0100
0013
,  // measure 49
0002
0000
0100
0000
1000
0000
0013
0000
0001
0010
0100
0000
1000
0000
0010
0000
,  // measure 50
00M0
0000
0010
0001
1000
0000
0010
0000
0100
0001
1000
0000
0100
0000
0010
0000
,  // measure 51
0001
0100
0010
0100
1000
0000
0100
0010
0M00
0010
0001
0000
1000
0000
0001
0000
,  // measure 52
1000
0100
0010
0001
0100
0010
1000
0100
0020
0000
0030
0000
2002
0000
3003
0000
,  // measure 53
2000
0000
0010
0000
0001
0000
3100
0000
1000
0100
0010
0000
0001
0000
0100
0000
,  // measure 54
0M00
0000
0100
1000
0001
0000
0100
0000
0010
1000
0001
0000
0010
0000
0100
0000
,  // measure 55
1000
0010
0100
0010
0001
0000
0010
0100
00M0
0100
1000
0000
0001
0000
1000
0000
,  // measure 56
0001
0010
0100
1000
0010
0100
0001
0010
0200
0000
0300
0000
2002
0000
3003
0000
,  // measure 57
1010
0000
0000
0000
0101
0000
0000
0001
0010
0100
1000
0000
0001
0000
0100
0000
,  // measure 58
0110
0010
0100
2002
0000
0000
0000
0000
,  // measure 59
0000
0000
0000
0000
,  // measure 60
3003
0000
0000
0000
;

//---------------dance-single - ----------------
#NOTES:
     dance-single:
     :
     Medium:
     10:
     0.499058,0.525556,0.298846,0.257626,0.066983,339.000000,310.000000,29.000000,25.000000,0.000000,0.000000,0.499058,0.525556,0.298846,0.257626,0.066983,339.000000,310.000000,29.000000,25.000000,0.000000,0.000000:
// measure 0
0000
0000
0000
0000
,  // measure 1
0000
0000
0000
0000
,  // measure 2
0000
0000
0000
0000
,  // measure 3
0000
0000
0000
0000
,  // measure 4
0000
0000
0000
0000
,  // measure 5
0000
1000
0000
0100
0000
0010
0000
0001
,  // measure 6
0000
1000
0000
0010
0000
0100
0000
0001
,  // measure 7
0010
0100
0010
0100
1000
0001
1000
0001
,  // measure 8
0200
0000
0010
0310
,  // measure 9
0010
1000
0100
0000
0010
0001
0100
0010
,  // measure 10
0000
0100
0001
0000
1000
0100
0010
0001
,  // measure 11
1000
0010
0100
0000
1000
0100
0001
0000
,  // measure 12
1000
0100
0010
0001
1000
0000
1001
0000
,  // measure 13
0010
0001
0100
0000
0010
1000
0100
0010
,  // measure 14
0000
0100
1000
0000
0001
0100
0010
1000
,  // measure 15
0001
0010
0100
0000
0001
0100
1000
0000
,  // measure 16
0001
0100
0010
1000
0001
0000
1001
0000
,  // measure 17
1000
0000
0000
0010
0000
0000
0100
0000
0002
0000
0000
0000
1003
0000
0000
0000
,  // measure 18
0001
0010
0100
0000
1000
0100
0010
0000
,  // measure 19
0001
0000
0000
0100
0000
0000
0010
0000
2000
0000
0000
0000
3001
0000
0000
0000
,  // measure 20
1000
0000
0100
0000
0001
0000
0100
0000
1000
0000
0000
0001
0000
0000
1000
0000
,  // measure 21
0001
0000
0000
0010
0000
0000
0100
0000
2000
0000
0000
0000
3001
0000
0000
0000
,  // measure 22
1000
0010
0100
0000
1000
0100
0001
0000
,  // measure 23
1000
0100
0010
0001
2000
0000
3001
0000
,  // measure 24
1000
0010
0100
0001
0100
0010
1000
0001
,  // measure 25
2000
0000
0010
0000
0100
0000
0001
3000
,  // measure 26
1000
0100
0001
0100
0020
0000
0031
0000
,  // measure 27
0200
0000
0310
0020
0000
2030
0000
3002
,  // measure 28
0000
0010
0100
1003
,  // measure 29
0001
0000
0010
0000
0000
0100
0000
0000
1000
0000
0000
0001
0000
0000
1000
0000
,  // measure 30
0001
0000
0100
0000
0000
0010
0000
0000
1000
0000
0000
0001
0000
0000
1000
0000
,  // measure 31
1100
0011
0101
1010
,  // measure 32
1001
0000
0000
0110
0000
0000
1001
0000
,  // measure 33
2100
0000
3001
0100
0010
0100
0000
0001
,  // measure 34
0000
0011
0000
1000
0000
2002
0000
3003
,  // measure 35
0001
0100
0010
1000
0010
0100
0001
1000
,  // measure 36
0001
0000
0010
0000
1000
0000
0000
0010
0000
0000
0001
0000
2000
0000
0000
0000
,  // measure 37
3001
0000
1000
0010
0100
0010
0000
1010
,  // measure 38
0000
0101
0000
0011
0000
2200
0000
3300
,  // measure 39
1000
0010
0100
0001
1000
0001
0010
0100
,  // measure 40
2000
0000
0010
0000
3001
0000
1000
0001
,  // measure 41
1001
0000
0001
0100
1000
0100
0000
0110
,  // measure 42
0000
1010
0000
1001
0000
0102
0000
1003
,  // measure 43
0001
0100
0010
0100
1000
0100
0001
1000
,  // measure 44
0001
0000
0010
0000
0100
0000
0000
1000
0000
0000
0001
0000
0100
0000
0010
0000
,  // measure 45
1000
0000
0001
0010
1000
0010
0000
0011
,  // measure 46
0000
1100
0000
0101
0000
2020
0000
3030
,  // measure 47
1000
0100
0001
1000
0010
0001
0100
0010
,  // measure 48
0220
0330
0001
1000
,  // measure 49
0001
0010
0001
0010
0001
0100
0010
0100
,  // measure 50
0000
0100
0001
1000
0100
0010
0100
0010
,  // measure 51
0001
0000
0100
0000
1000
0000
0000
0100
0000
0000
0001
0000
0010
0000
0100
0000
,  // measure 52
1000
0100
0010
0001
1000
0000
1001
0000
,  // measure 53
1000
0010
1000
0010
1000
0100
0010
0100
,  // measure 54
0000
0100
1000
0001
0100
0010
0100
0010
,  // measure 55
1000
0000
0100
0000
0001
0000
0000
0100
0000
0000
1000
0000
0010
0000
0100
0000
,  // measure 56
0001
0100
0010
1000
0001
0000
1001
0000
,  // measure 57
0001
0000
0000
0000
0010
0000
0000
1000
0000
0000
0001
0000
0100
0000
1000
0000
,  // measure 58
0001
0100
0010
2002
0000
0000
0000
0000
,  // measure 59
0000
0000
0000
0000
,  // measure 60
3003
0000
0000
0000
;

//---------------dance-single - ----------------
#NOTES:
     dance-single:
     :
     Easy:
     6:
     0.320928,0.309151,0.092745,0.072135,0.000000,218.000000,209.000000,9.000000,7.000000,0.000000,0.000000,0.320928,0.309151,0.092745,0.072135,0.000000,218.000000,209.000000,9.000000,7.000000,0.000000,0.000000:
// measure 0
0000
0000
0000
0000
,  // measure 1
0000
0000
0000
0000
,  // measure 2
0000
0000
0000
0000
,  // measure 3
0000
0000
0000
0000
,  // measure 4
0000
0000
0000
0000
,  // measure 5
1000
0100
0010
0001
,  // measure 6
1000
0010
0100
0001
,  // measure 7
1000
0100
0001
0100
,  // measure 8
0020
0000
0100
0130
,  // measure 9
1000
0010
0100
0001
,  // measure 10
0100
0010
1000
0001
,  // measure 11
0010
0010
0100
0100
,  // measure 12
1000
0001
1000
1001
,  // measure 13
0001
0010
0100
1000
,  // measure 14
0100
0010
0001
1000
,  // measure 15
0010
0010
0100
0100
,  // measure 16
0001
1000
0001
1001
,  // measure 17
1000
0010
0010
1000
,  // measure 18
0001
0010
1000
0010
,  // measure 19
0001
0100
0100
0001
,  // measure 20
1000
0100
0001
0100
,  // measure 21
0010
0100
0100
1000
,  // measure 22
0010
0001
0010
0100
,  // measure 23
0001
0001
1000
1000
,  // measure 24
0100
0010
0100
1001
,  // measure 25
2000
3000
0002
0003
,  // measure 26
0010
0100
1000
0001
,  // measure 27
0200
0300
0020
0030
,  // measure 28
1000
0001
0010
0100
,  // measure 29
1000
0010
0100
0100
,  // measure 30
1000
0100
0001
0001
,  // measure 31
0010
0100
0010
0100
,  // measure 32
1000
0000
0000
0001
0000
0000
1001
0000
,  // measure 33
0001
0100
0010
0100
,  // measure 34
0001
0001
1000
1000
,  // measure 35
0001
0010
1000
0010
,  // measure 36
0100
1000
0001
1001
,  // measure 37
1000
0010
0100
0010
,  // measure 38
1000
1000
0001
0001
,  // measure 39
0010
1000
0001
0100
,  // measure 40
1000
0000
0010
0000
0100
0000
0001
1000
,  // measure 41
0001
0100
1000
0100
,  // measure 42
0010
0010
1000
1000
,  // measure 43
0001
0010
1000
0001
,  // measure 44
0100
0010
0001
1001
,  // measure 45
1000
0010
0001
0010
,  // measure 46
0100
0100
0001
0001
,  // measure 47
1000
0100
0001
0010
,  // measure 48
2000
0000
3001
1001
,  // measure 49
0001
0100
1000
1000
,  // measure 50
0100
0010
1000
1000
,  // measure 51
0001
0010
1000
0001
,  // measure 52
0100
0010
0001
1001
,  // measure 53
1000
0010
0001
0001
,  // measure 54
1000
0100
0010
0010
,  // measure 55
1000
0100
0001
1000
,  // measure 56
0010
0001
1000
1001
,  // measure 57
0001
0001
1000
1000
,  // measure 58
0010
0000
1000
0002
0000
0000
0000
0000
,  // measure 59
0000
0000
0000
0000
,  // measure 60
0003
0000
0000
0000
;

//---------------dance-single - ----------------
#NOTES:
     dance-single:
     :
     Beginner:
     4:
     0.220822,0.247321,0.000000,0.010305,0.000000,150.000000,150.000000,0.000000,1.000000,0.000000,0.000000,0.220822,0.247321,0.000000,0.010305,0.000000,150.000000,150.000000,0.000000,1.000000,0.000000,0.000000:
// measure 0
0000
0000
0000
0000
,  // measure 1
0000
0000
0000
0000
,  // measure 2
0000
0000
0000
0000
,  // measure 3
0000
0000
0000
0000
,  // measure 4
0000
0000
0000
0000
,  // measure 5
1000
0000
0001
0000
,  // measure 6
0100
0000
0010
0000
,  // measure 7
1000
1000
1000
1000
,  // measure 8
1000
0000
0001
0001
,  // measure 9
0001
0000
0010
0000
,  // measure 10
0100
0000
1000
0000
,  // measure 11
0001
0001
0001
0000
,  // measure 12
1000
1000
1000
1000
,  // measure 13
1000
0000
0010
0000
,  // measure 14
0100
0000
0001
0000
,  // measure 15
0010
0010
0010
0000
,  // measure 16
0100
0100
0100
0100
,  // measure 17
0100
0000
1000
0000
,  // measure 18
0001
0001
0001
0000
,  // measure 19
0100
0000
0010
0000
,  // measure 20
1000
1000
1000
0000
,  // measure 21
0001
0000
0010
0000
,  // measure 22
0100
0100
0100
0000
,  // measure 23
1000
1000
1000
0000
,  // measure 24
0001
0001
0001
0001
,  // measure 25
0001
0000
0100
0000
,  // measure 26
0010
0010
0010
0000
,  // measure 27
1000
0000
0001
0000
,  // measure 28
0010
0010
0010
0000
,  // measure 29
0100
0100
0100
0000
,  // measure 30
1000
1000
1000
0000
,  // measure 31
0001
0001
0001
0001
,  // measure 32
0001
0000
0000
1000
,  // measure 33
1000
0000
0010
0000
,  // measure 34
0100
0100
0100
0100
,  // measure 35
0100
0000
0001
0000
,  // measure 36
0010
0010
0010
0000
,  // measure 37
0100
0000
1000
0000
,  // measure 38
0001
0001
0001
0000
,  // measure 39
1000
1000
1000
1000
,  // measure 40
1000
0000
0010
0010
,  // measure 41
0010
0000
0100
0000
,  // measure 42
0001
0001
0001
0000
,  // measure 43
0010
0000
0100
0000
,  // measure 44
1000
1000
1000
1000
,  // measure 45
1000
0000
0010
0000
,  // measure 46
0100
0100
0100
0000
,  // measure 47
0001
0001
0001
0001
,  // measure 48
0001
0000
0010
0010
,  // measure 49
0010
0000
0100
0000
,  // measure 50
1000
0000
0001
0000
,  // measure 51
0100
0100
0100
0000
,  // measure 52
0010
0010
0010
0010
,  // measure 53
0010
0000
1000
0000
,  // measure 54
0001
0000
0010
0000
,  // measure 55
0100
0100
0100
0000
,  // measure 56
0010
0010
0010
0010
,  // measure 57
0010
0000
0001
0000
,  // measure 58
1000
1000
2000
0000
,  // measure 59
0000
0000
0000
0000
,  // measure 60
3000
0000
0000
0000
;
