#VERSION:0.83;
#TITLE:JIMO-AI Dash!;
#SUBTITLE:;
#ARTIST:Aqours;
#TITLETRANSLIT:;
#SUBTITLETRANSLIT:;
#ARTISTTRANSLIT:;
#GENRE:90s EUROBEAT;
#ORIGIN:;
#CREDIT:;
#BANNER:JIMO-AI Dash!.png;
#BACKGROUND:JIMO-AI Dash!-bg.png;
#PREVIEWVID:;
#JACKET:JIMO-AI Dash!-jacket.png;
#CDIMAGE:;
#DISCIMAGE:;
#LYRICSPATH:;
#CDTITLE:;
#MUSIC:JIMO-AI Dash!.ogg;
#OFFSET:1.285733;
#SAMPLESTART:65.202316;
#SAMPLELENGTH:15.620000;
#SELECTABLE:YES;
#BPMS:0.000=143.000;
#STOPS:;
#DELAYS:;
#WARPS:;
#TIMESIGNATURES:0.000=4=4;
#TICKCOUNTS:0.000=4;
#COMBOS:0.000=1;
#SPEEDS:0.000=1.000=0.000=0;
#SCROLLS:0.000=1.000;
#FAKES:;
#LABELS:0.000=Song Start;
#BGCHANGES:;
#KEYSOUNDS:;
#ATTACKS:
;

//---------------dance-single - ----------------
#NOTEDATA:;
#CHARTNAME:;
#STEPSTYPE:dance-single;
#DESCRIPTION:;
#CHARTSTYLE:;
#DIFFICULTY:Hard;
#METER:13;
#RADARVALUES:0.609687,0.737665,0.403120,0.455701,0.289195,487.000000,441.000000,46.000000,52.000000,0.000000,0.000000,0.000000,0.000000,0.000000,0.609687,0.737665,0.403120,0.455701,0.289195,487.000000,441.000000,46.000000,52.000000,0.000000,0.000000,0.000000,0.000000,0.000000;
#CREDIT:BlindedVanguard573;
#NOTES:
0000
0000
0000
0000
,
0000
0000
0000
0000
,
0000
0000
0000
0000
,
0000
0000
0000
0000
,
0000
0000
0000
0000
,
2001
3000
0002
0003
,
0020
0000
0230
0000
1300
0001
2002
3003
,
0001
0000
0100
0010
0000
0010
0100
0000
0001
0000
0010
0000
1000
0000
0010
0000
,
0100
0000
1000
0010
0000
0010
0100
0000
2000
0000
3200
0000
0302
0000
2003
0000
,
3001
0010
0100
0000
1000
0000
0001
0010
0100
0000
1000
0000
0001
1000
0001
0000
,
1000
1000
0010
0010
0100
0100
0001
0001
,
1000
0000
0100
0010
0000
0010
0100
0000
1000
0000
0010
0000
0001
0000
0010
0000
,
0100
0000
0001
0010
0000
0010
0100
0000
0002
0000
0203
0000
2300
0000
3002
0000
,
1003
0010
0100
0000
0001
0000
1000
0010
0100
0000
0001
0000
1000
0000
0001
0000
,
0010
0100
0010
0000
0100
0010
0100
0000
1000
0000
0001
0000
1001
0000
0000
0000
,
0102
0000
1000
0000
0020
0000
0033
0001
,
0000
0100
1000
0100
0010
1000
0001
0000
,
2100
0000
0001
0000
0020
0000
3030
1000
,
0000
0000
0100
0000
0001
0000
0100
0000
0010
0000
0001
1000
0001
0000
0100
0000
,
0010
0000
1000
0100
0001
0000
0001
0100
,
1000
0010
0001
0010
0200
0000
0310
0000
,
1000
0000
0100
0010
0001
0001
0001
2002
,
0000
0000
3003
0000
0000
0000
0001
0100
0001
0000
1000
0100
2000
0000
3000
0000
,
0001
1001
1000
1010
,
1000
0000
0100
0000
0001
0000
0100
0000
1000
0000
0001
0100
0001
0000
1000
0000
,
0001
1001
1000
1100
,
1000
0000
0010
0000
0001
0000
0010
0000
1000
0000
0001
0010
0001
0000
1000
0000
,
0001
2000
3200
0302
,
0023
0000
0000
0000
1030
0000
0000
0000
0001
0000
1000
0100
1000
0000
0001
0000
,
0100
0100
0010
1000
0100
0100
0010
0001
,
2000
3020
0032
0203
,
1300
1010
0010
0101
,
0001
0010
1000
0000
0001
0100
1000
0001
,
1000
0110
0001
1001
,
1000
0000
0100
0000
0010
0000
0100
1000
0100
1000
0001
1000
0001
0000
1000
0010
,
0100
0110
0000
0000
0010
0110
0000
0000
,
0100
0000
0000
1001
0000
0000
0000
0000
0000
0000
0000
0000
1000
0000
0010
0000
0100
0000
0001
0000
0000
0000
0000
0000
,
1001
1002
0103
0000
1001
2001
3100
0000
,
1001
1001
1000
0100
0001
0100
0010
0100
,
0210
0000
0001
0000
1300
0100
0011
0000
,
1001
1000
0100
0010
0100
1000
0002
0003
,
1001
0000
0001
0000
1000
0000
0010
0000
0100
0000
0010
1000
0002
0000
0003
0000
,
1000
0100
0001
0100
0020
0000
0031
1000
,
0010
0000
0010
0000
0100
0000
0100
0000
0001
0100
0001
0000
1000
0100
1000
0000
,
1001
0001
0100
0010
0100
0001
2000
3000
,
1001
0000
1000
0000
0001
0000
0010
0000
0100
0000
0010
0001
2000
0000
3000
0000
,
0001
0100
1000
0100
0001
1000
0100
0010
,
0120
0230
2300
3001
,
0101
0000
1010
0000
0201
0000
1300
0100
,
0001
0000
0010
0000
0100
0000
1000
0000
0001
0100
0010
0000
0100
0001
1000
0000
,
1010
0000
0101
0000
1020
0000
0031
0010
,
0100
0000
0001
0000
1000
0000
0100
0000
0010
0100
1000
0000
0010
0100
0001
0000
,
0101
0000
1010
0000
1002
0000
0103
0001
,
1000
0000
0100
0000
0001
0000
0100
0000
1000
0010
0100
0000
0001
0010
0100
0000
,
1000
0010
0101
0000
0001
0010
1100
0000
,
1001
0000
0000
0000
0101
0000
0001
0000
1000
0100
0010
0001
2000
0000
3000
0000
,
0001
0000
0100
0010
0000
0010
0100
0000
0001
0000
0010
0000
1000
0000
0010
0000
,
0100
0000
1000
0010
0000
0010
0100
0000
2000
0000
3200
0000
0302
0000
2003
0000
,
3001
0010
0100
0000
1000
0000
0001
0100
0010
0000
1000
0000
0001
1000
0001
0000
,
1000
0100
1000
0000
0001
0010
0001
0000
1000
0010
1000
0000
0001
0100
0001
0000
,
1000
0000
0010
0100
0000
0100
0010
0000
1000
0000
0001
0100
0001
0100
0001
0100
,
0001
0000
0010
0100
0000
0100
1000
0000
0002
0000
0103
0000
2000
0000
3100
0000
,
0001
0100
0010
0000
1000
0000
0001
0010
0100
0000
1000
0000
0001
0100
0010
1000
,
0100
0010
0100
0000
1000
0001
1000
0000
0010
0100
0010
0000
1000
0001
1000
0000
,
1100
0000
0000
0110
0000
0000
0012
0000
0000
0000
0000
0000
1003
0000
0000
0000
;

//---------------dance-single - ----------------
#NOTEDATA:;
#CHARTNAME:;
#STEPSTYPE:dance-single;
#DESCRIPTION:;
#CHARTSTYLE:;
#DIFFICULTY:Challenge;
#METER:16;
#RADARVALUES:0.784957,0.879524,0.411883,0.534572,0.731750,627.000000,580.000000,47.000000,61.000000,7.000000,0.000000,0.000000,0.000000,0.000000,0.784957,0.879524,0.411883,0.534572,0.731750,627.000000,580.000000,47.000000,61.000000,7.000000,0.000000,0.000000,0.000000,0.000000;
#CREDIT:BlindedVanguard573;
#NOTES:
0000
0000
0000
0000
,
0000
0000
0000
0000
,
0000
0000
0000
0000
,
0000
0000
0000
0000
,
0000
0000
0000
0000
,
2001
0000
3000
0000
0002
0000
0003
0100
,
1000
0100
0010
0100
0101
0001
2002
3003
,
1000
0000
0001
0100
0000
0001
1000
0000
0001
0010
0100
1000
0100
0010
0001
1000
,
0001
0000
1000
0100
0000
1000
0001
0000
1000
0010
0100
0001
0100
0010
1000
0001
,
1000
0100
1000
0100
0010
0000
0001
0100
0001
0100
0010
0000
1000
0001
1000
0001
,
0010
0001
0100
0000
010M
1000
0010
0000
M010
0001
0100
0000
010M
1000
0010
0000
,
1000
0000
0001
0010
0000
0001
1000
0000
0001
0100
0010
1000
0010
0100
0001
1000
,
0001
0000
1000
0010
0000
1000
0001
0000
1000
0100
0010
0001
0010
0100
1000
0001
,
1000
0010
1000
0010
0100
0000
0001
0010
0001
0010
0100
0000
1000
0001
1000
0001
,
1000
0100
0010
0000
1000
0010
0100
0000
1001
0000
0100
0000
2002
0000
3003
0000
,
0002
0103
0020
0130
2000
0000
3100
0002
,
0000
0013
0200
0310
2000
3010
0200
0000
,
2300
3010
0200
0310
0002
0000
0013
2000
,
0000
0000
3100
0000
0020
0000
0130
0000
2000
0000
3001
0100
0010
0000
1000
0000
,
0001
0000
0101
0100
0110
0000
1010
1000
,
1100
0100
0110
0010
0012
0000
1003
0000
,
0001
0100
1000
0100
0010
0010
0010
2002
,
0000
0000
0000
3003
0000
0000
0000
0000
0000
1000
0100
0010
0001
0010
0100
1000
0100
0010
0002
0000
0000
0003
0000
0000
,
1000
0001
0101
0001
1000
0000
1010
1000
,
0000
0000
0001
0000
0011
0000
0001
0000
1000
0000
0100
1000
0001
0000
1000
0000
,
0001
1000
1010
1000
0001
0000
0101
0001
,
0000
0000
1000
0000
1100
0000
1000
0000
0001
0000
0010
0001
1000
0000
0001
0000
,
2000
0000
3010
0010
0200
0000
0301
1000
,
1100
0000
0001
0000
0101
0000
1000
0000
1001
0000
0001
1000
0100
0000
1000
0000
,
0002
0103
2000
3001
0020
1030
0002
0103
,
0210
0000
0000
0000
0302
0000
1003
0100
0010
0100
1000
0001
1000
0000
1001
0000
,
0001
0010
0100
0000
0001
0100
0010
0000
0001
0100
0010
0000
0001
0010
0100
0000
,
0002
0100
0013
0001
2000
0010
3100
1000
,
0010
0100
1000
0000
0100
0010
1000
0000
0100
0010
1000
0000
0010
0100
1000
0000
,
0002
0000
0203
0000
0320
0000
0130
0001
1000
0100
0010
0001
0100
0010
1000
0001
,
0010
1001
0000
0000
0100
1001
0000
0000
,
0110
0000
0000
0110
0000
0000
0000
0000
0000
0000
0000
0000
0001
0000
0010
0000
0100
0000
2000
0000
0000
3000
0000
0000
,
0101
0000
2010
0000
0002
0000
3003
0000
0011
0000
1100
0000
0001
1000
0001
1000
,
0001
0100
1000
0001
0010
1000
0001
0010
,
2100
0000
0010
0000
3001
1001
2002
3003
,
0010
1000
0100
0000
0100
1000
0010
0000
0010
1000
0100
0000
2200
0000
3300
0000
,
0010
0001
0100
0000
0100
0001
0010
0000
0010
0001
0100
0001
2000
0000
3000
0000
,
0001
1000
0010
0000
1000
0001
0010
0000
0001
1000
0100
0000
1000
0001
0100
0001
,
1000
0010
0100
0000
0001
0010
0100
1000
0001
1000
0010
0000
0100
0001
1000
0000
,
0100
1000
0010
0000
0010
1000
0100
0000
0100
1000
0001
0000
2002
0000
3003
0000
,
0100
0001
0010
0000
0010
0001
0100
0000
0100
0001
1000
0001
2000
0000
3000
0000
,
0001
0100
0010
0000
0100
0001
1000
0000
0100
0010
0001
0000
1000
0010
0100
0010
,
2000
0000
3100
0000
0020
0000
0130
1000
0001
1000
0010
0100
0001
1000
0001
0010
,
0200
0000
1000
0000
0001
0000
0310
0001
,
1000
0000
0010
0000
0100
0000
0001
0010
0100
1000
0001
0000
0100
0001
1000
0000
,
0020
0000
1000
0000
0001
0000
0130
0001
,
1000
0000
0100
0000
0010
0000
0001
0100
0010
1000
0001
0000
0010
0001
1000
0000
,
2200
3300
0022
0033
1002
0000
0103
0001
,
1000
0000
0100
0000
0001
0000
0100
0000
0010
0001
1000
0000
0010
1000
0001
0000
,
1000
0001
0102
0013
0001
1000
2100
3010
,
1001
0000
0000
0000
0000
0000
0110
0000
0000
1001
0000
0000
0001
0010
0100
1000
0100
0010
0002
0000
0000
0003
0000
0000
,
1001
0000
0001
0100
0000
0001
0010
0000
0001
0100
0010
1000
0001
0010
0100
1000
,
0001
0000
1000
0100
0000
1000
0010
0000
1000
0100
0010
0001
1000
0001
0100
0010
,
1000
0100
0010
0001
0100
0000
0001
0100
0010
1000
0100
0000
1000
0100
0010
0001
,
1000
0010
0100
0000
MM10
0001
1000
0000
0001
0100
0010
0000
01MM
1000
0001
0000
,
1000
0000
0010
0100
0000
0010
0001
0000
0010
0100
0001
1000
0100
0010
0001
1000
,
0001
0000
0100
0010
0000
0100
1000
0000
0100
0010
1000
0001
0010
0100
1000
0001
,
1000
0100
0010
0100
0001
0000
0001
0100
0010
0100
1000
0000
1000
0010
0100
0001
,
1000
0100
0010
0001
0100
0010
1000
0001
0010
0100
1000
0001
0100
1000
0100
0010
,
1000
0000
0000
1010
0000
0000
0102
0000
0000
0000
0000
0000
1003
0000
0000
0000
;

//---------------dance-single - ----------------
#NOTEDATA:;
#CHARTNAME:;
#STEPSTYPE:dance-single;
#DESCRIPTION:;
#CHARTSTYLE:;
#DIFFICULTY:Beginner;
#METER:3;
#RADARVALUES:0.210323,0.255346,0.061344,0.026290,0.000000,168.000000,161.000000,7.000000,3.000000,0.000000,0.000000,0.000000,0.000000,0.000000,0.210323,0.255346,0.061344,0.026290,0.000000,168.000000,161.000000,7.000000,3.000000,0.000000,0.000000,0.000000,0.000000,0.000000;
#CREDIT:;
#NOTES:
0000
0000
0000
0000
,
0000
0000
0000
0000
,
0000
0000
0000
0000
,
0000
0000
0000
0000
,
0000
0000
0000
0000
,
1000
0000
0001
0000
,
0100
0100
0100
0000
,
0001
0001
0001
0000
,
0010
0010
0010
0000
,
0100
0000
1000
0000
,
0001
0001
0001
0000
,
1000
1000
1000
0000
,
0010
0010
0010
0000
,
0100
0000
0001
0000
,
1000
1000
1000
1000
,
1000
0000
0001
0000
,
0010
0010
0010
0000
,
0100
0000
1000
0000
,
0001
0001
0001
0000
,
0100
0000
0010
0000
,
1000
1000
1000
0000
,
0001
0000
0010
0000
,
0100
0100
0100
0100
,
0100
0000
1000
0000
,
0001
0001
0001
0000
,
0100
0000
0010
0000
,
1000
1000
1000
0000
,
0001
0000
0010
0000
,
0100
0100
0100
0000
,
0010
0000
0001
0000
,
1000
1000
1000
1000
,
1000
0000
0010
0000
,
0100
0100
0100
0000
,
0001
0000
1000
0000
,
0010
0010
0010
0000
,
1001
0000
1001
0000
,
1001
0000
0000
0000
,
0110
0000
0110
0000
,
0110
0000
0000
0000
,
2002
0000
3003
0000
,
0001
0001
0001
0000
,
0010
0010
0010
0000
,
0100
0100
0100
0000
,
1000
1000
1000
0000
,
0001
0001
0001
0000
,
0100
0100
0100
0000
,
0010
0010
0010
0000
,
1000
1000
1000
1000
,
1000
0000
0001
0000
,
0010
0010
0010
0000
,
0001
0000
1000
0000
,
0100
0100
0100
0000
,
1000
0000
0001
0000
,
0100
0100
0100
0100
,
0100
0000
0010
0000
,
1000
1000
1000
1000
,
1000
0000
0001
0000
,
0010
0010
0010
0000
,
0001
0001
0001
0000
,
0100
0100
0100
0100
,
0100
0000
0010
0000
,
1000
1000
1000
0000
,
0001
0001
0001
0000
,
0010
0010
0010
0010
,
0010
0010
0020
0030
;

//---------------dance-single - ----------------
#NOTEDATA:;
#CHARTNAME:;
#STEPSTYPE:dance-single;
#DESCRIPTION:;
#CHARTSTYLE:;
#DIFFICULTY:Easy;
#METER:6;
#RADARVALUES:0.297958,0.312089,0.192796,0.061344,0.000000,238.000000,216.000000,22.000000,7.000000,0.000000,0.000000,0.000000,0.000000,0.000000,0.297958,0.312089,0.192796,0.061344,0.000000,238.000000,216.000000,22.000000,7.000000,0.000000,0.000000,0.000000,0.000000,0.000000;
#CREDIT:;
#NOTES:
0000
0000
0000
0000
,
0000
0000
0000
0000
,
0000
0000
0000
0000
,
0000
0000
0000
0000
,
0000
0000
0000
0000
,
2002
3003
0000
0000
,
1000
0010
0100
1001
,
0001
0100
0010
0100
,
0001
0010
0100
0010
,
0001
0001
1000
1000
,
0010
0100
0010
1001
,
1000
0100
0010
0010
,
0100
1000
0010
0010
,
0100
0001
1000
0001
,
0010
0100
0010
1001
,
0001
0000
0100
0000
,
1000
0100
0010
1000
,
0001
0000
1000
0000
,
0100
0001
0100
0010
,
0001
0100
0100
0010
,
0010
1000
0001
1000
,
0001
0001
0010
0010
,
0100
0000
0010
1001
,
1000
0100
0001
0100
,
0010
0100
1000
0001
,
1000
0010
0001
0010
,
0100
0010
1000
0001
,
2000
0100
3100
1000
,
0001
0100
1000
0100
,
0001
0010
1000
0010
,
0100
0100
1000
1000
,
0002
0003
2000
3000
,
0010
0100
0010
0100
,
0002
0003
2000
3000
,
0100
0010
0100
0010
,
1001
0000
0110
0000
,
1001
0000
0010
0100
,
1100
0000
0101
0000
,
0110
0000
1000
0001
,
1001
0001
1000
1001
,
0001
0100
0010
0010
,
0100
0001
1000
1000
,
0100
0001
0010
0001
,
0100
1000
0001
1001
,
1000
0100
0010
0010
,
0100
1000
0001
0001
,
0100
1000
0010
1000
,
0100
0001
1000
0001
,
1000
0100
1100
0000
,
1000
0010
0001
0010
,
0100
0001
0101
0000
,
0001
0010
1000
0010
,
0100
1000
1001
0000
,
1000
0010
0001
0010
,
1010
0000
0101
0000
,
0001
0010
0100
1001
,
1000
0100
0001
0001
,
1000
0010
0001
0001
,
1000
0010
0001
0010
,
0100
0100
0010
1001
,
0001
0100
1000
1000
,
0001
0010
1000
1000
,
0001
0010
1000
0010
,
0100
0100
0010
0010
,
1000
0000
0000
0001
0000
0000
1001
0000
;

//---------------dance-single - ----------------
#NOTEDATA:;
#CHARTNAME:;
#STEPSTYPE:dance-single;
#DESCRIPTION:;
#CHARTSTYLE:;
#DIFFICULTY:Medium;
#METER:11;
#RADARVALUES:0.474479,0.510691,0.289195,0.184033,0.039436,379.000000,346.000000,33.000000,21.000000,0.000000,0.000000,0.000000,0.000000,0.000000,0.474479,0.510691,0.289195,0.184033,0.039436,379.000000,346.000000,33.000000,21.000000,0.000000,0.000000,0.000000,0.000000,0.000000;
#CREDIT:;
#NOTES:
// measure 0
0000
0000
0000
0000
,  // measure 1
0000
0000
0000
0000
,  // measure 2
0000
0000
0000
0000
,  // measure 3
0000
0000
0000
0000
,  // measure 4
0000
0000
0000
0000
,  // measure 5
2002
3003
0000
0000
,  // measure 6
0000
0000
0000
0000
0010
0100
1001
0000
,  // measure 7
1000
0000
0000
0100
0000
0000
0010
0000
0100
0000
1000
0000
0001
0000
1000
0000
,  // measure 8
0001
0000
0000
0100
0000
0000
0010
0000
0100
0000
0001
0000
1000
0000
0001
0000
,  // measure 9
1000
0100
0010
0001
0010
0100
1000
0001
,  // measure 10
0101
1010
0011
1100
,  // measure 11
0001
0000
0000
0100
0000
0000
0010
0000
0100
0000
0001
0000
1000
0000
0001
0000
,  // measure 12
1000
0000
0000
0100
0000
0000
0010
0000
0100
0000
1000
0000
0001
0000
1000
0000
,  // measure 13
0001
0100
0010
1000
0010
0100
0001
1000
,  // measure 14
0001
0001
1000
1000
0010
0100
1001
0000
,  // measure 15
0002
0010
1003
0001
,  // measure 16
1000
0010
0100
0010
1000
0000
1001
0000
,  // measure 17
0002
0100
1003
0001
,  // measure 18
1000
0100
0010
0001
0010
0100
1000
0001
,  // measure 19
1000
0001
0011
1000
,  // measure 20
1010
0101
2001
3100
,  // measure 21
1000
0000
0010
0000
0100
0001
1000
0002
,  // measure 22
0000
0000
0010
0103
,  // measure 23
0001
0011
1000
1010
,  // measure 24
0001
0100
1000
0100
0020
0000
0130
0000
,  // measure 25
0001
0101
1000
1100
,  // measure 26
0001
0100
0010
1000
0100
0001
0100
1000
,  // measure 27
0002
1003
0020
0130
,  // measure 28
0001
0100
1000
0100
0002
0000
1003
0000
,  // measure 29
0001
0010
0100
1000
0100
0010
0001
1000
,  // measure 30
0001
0101
1010
0011
,  // measure 31
2100
0001
0100
3001
,  // measure 32
1000
0100
0001
0000
0001
0100
0010
0001
,  // measure 33
2000
0010
0001
3010
,  // measure 34
1000
0100
0010
0001
0010
0100
1000
0000
,  // measure 35
0001
0001
0000
0000
1000
1000
0000
0000
,  // measure 36
0010
0010
0000
0000
0100
0000
1001
0000
,  // measure 37
0001
0100
1000
0000
1000
0010
0001
0000
,  // measure 38
1000
0100
0010
0001
1000
0010
0100
0001
,  // measure 39
2000
0000
0010
0000
3100
1000
1001
0000
,  // measure 40
0102
0000
1003
0000
0001
1000
0100
0000
,  // measure 41
0010
0100
0010
0100
1000
0001
1000
0000
,  // measure 42
0001
0100
0001
0100
0020
0000
0130
0000
,  // measure 43
0001
0010
0100
0000
1000
0000
1001
0000
,  // measure 44
2010
0000
3001
0000
1000
0001
0010
0000
,  // measure 45
0100
0010
0100
0010
0001
1000
0001
0000
,  // measure 46
0001
0100
0010
1000
0000
0010
0000
0100
,  // measure 47
0001
0011
0110
1100
,  // measure 48
2010
0001
0010
3001
,  // measure 49
1000
0010
0100
0001
0100
0010
1000
0001
,  // measure 50
2000
0100
0001
3100
,  // measure 51
1000
0100
0010
0001
0100
0010
1000
0001
,  // measure 52
2000
0001
0010
3100
,  // measure 53
1000
0100
0001
0100
0010
0001
1000
0010
,  // measure 54
0100
0000
1001
0000
0010
0010
1001
0000
,  // measure 55
0001
0100
1000
0100
0001
1000
1001
0000
,  // measure 56
0001
0000
0000
0100
0000
0000
0010
0000
0100
0000
0001
0000
1000
0000
0100
0000
,  // measure 57
0001
0000
0000
0100
0000
0000
1000
0000
0001
0000
0100
0000
0010
0000
1000
0000
,  // measure 58
0001
0010
1000
0001
0100
1000
0001
0100
,  // measure 59
0010
0010
0100
0100
0001
0001
1000
1000
,  // measure 60
0001
0000
0000
0010
0000
0000
0100
0000
0010
0000
0001
0000
1000
0000
0010
0000
,  // measure 61
0001
0000
0000
0010
0000
0000
1000
0000
0001
0000
0010
0000
0100
0000
1000
0000
,  // measure 62
0001
0100
1000
0001
0010
1000
0001
0010
,  // measure 63
0100
0100
0010
0010
0001
0001
1000
1000
,  // measure 64
0010
0000
0000
0100
0000
0000
2002
0000
0000
0000
0000
0000
3003
0000
0000
0000
;
